  0
SECTION
  2
HEADER
  9
$ACADVER
  1
AC1015
  9
$ACADMAINTVER
 70
     6
  9
$DWGCODEPAGE
  3
DOS932
  9
$INSBASE
 10
0.0
 20
0.0
 30
0.0
  9
$EXTMIN
 10
0.0
 20
0.0
 30
0.0
  9
$EXTMAX
 10
420.0
 20
297.0
 30
0.0
  9
$LIMMIN
 10
0.0
 20
0.0
  9
$LIMMAX
 10
420.0
 20
297.0
  9
$ORTHOMODE
 70
     0
  9
$REGENMODE
 70
     1
  9
$FILLMODE
 70
     1
  9
$QTEXTMODE
 70
     0
  9
$MIRRTEXT
 70
     1
  9
$LTSCALE
 40
1.0
  9
$ATTMODE
 70
     1
  9
$TEXTSIZE
 40
3.5
  9
$TRACEWID
 40
1.0
  9
$TEXTSTYLE
  7
Standard
  9
$CLAYER
  8
0
  9
$CELTYPE
  6
ByLayer
  9
$CECOLOR
 62
   256
  9
$CELTSCALE
 40
1.0
  9
$DISPSILH
 70
     0
  9
$DIMSCALE
 40
1.0
  9
$DIMASZ
 40
3.556
  9
$DIMEXO
 40
1.0
  9
$DIMDLI
 40
3.75
  9
$DIMRND
 40
0.0
  9
$DIMDLE
 40
0.0
  9
$DIMEXE
 40
1.0
  9
$DIMTP
 40
0.0
  9
$DIMTM
 40
0.0
  9
$DIMTXT
 40
3.5
  9
$DIMCEN
 40
2.5
  9
$DIMTSZ
 40
0.0
  9
$DIMTOL
 70
     0
  9
$DIMLIM
 70
     0
  9
$DIMTIH
 70
     1
  9
$DIMTOH
 70
     1
  9
$DIMSE1
 70
     0
  9
$DIMSE2
 70
     0
  9
$DIMTAD
 70
     1
  9
$DIMZIN
 70
     1
  9
$DIMBLK
  1

  9
$DIMASO
 70
     1
  9
$DIMSHO
 70
     1
  9
$DIMPOST
  1

  9
$DIMAPOST
  1

  9
$DIMALT
 70
     0
  9
$DIMALTD
 70
     3
  9
$DIMALTF
 40
0.0393700787
  9
$DIMLFAC
 40
1.0
  9
$DIMTOFL
 70
     1
  9
$DIMTVP
 40
0.0
  9
$DIMTIX
 70
     0
  9
$DIMSOXD
 70
     0
  9
$DIMSAH
 70
     0
  9
$DIMBLK1
  1

  9
$DIMBLK2
  1

  9
$DIMSTYLE
  2
ISO-25
  9
$DIMCLRD
 70
     0
  9
$DIMCLRE
 70
     0
  9
$DIMCLRT
 70
     0
  9
$DIMTFAC
 40
1.0
  9
$DIMGAP
 40
1.524
  9
$DIMJUST
 70
     0
  9
$DIMSD1
 70
     0
  9
$DIMSD2
 70
     0
  9
$DIMTOLJ
 70
     0
  9
$DIMTZIN
 70
     1
  9
$DIMALTZ
 70
     0
  9
$DIMALTTZ
 70
     0
  9
$DIMUPT
 70
     0
  9
$DIMDEC
 70
     2
  9
$DIMTDEC
 70
     2
  9
$DIMALTU
 70
     2
  9
$DIMALTTD
 70
     3
  9
$DIMTXSTY
  7
Standard
  9
$DIMAUNIT
 70
     0
  9
$DIMADEC
 70
     2
  9
$DIMALTRND
 40
0.0
  9
$DIMAZIN
 70
     0
  9
$DIMDSEP
 70
    44
  9
$DIMATFIT
 70
     3
  9
$DIMFRAC
 70
     0
  9
$DIMLDRBLK
  1

  9
$DIMLUNIT
 70
     2
  9
$DIMLWD
 70
    -2
  9
$DIMLWE
 70
    -2
  9
$DIMTMOVE
 70
     0
  9
$LUNITS
 70
     2
  9
$LUPREC
 70
     2
  9
$SKETCHINC
 40
1.0
  9
$FILLETRAD
 40
10.0
  9
$AUNITS
 70
     0
  9
$AUPREC
 70
     2
  9
$MENU
  1
.
  9
$ELEVATION
 40
0.0
  9
$PELEVATION
 40
0.0
  9
$THICKNESS
 40
0.0
  9
$LIMCHECK
 70
     0
  9
$CHAMFERA
 40
0.0
  9
$CHAMFERB
 40
0.0
  9
$CHAMFERC
 40
0.0
  9
$CHAMFERD
 40
0.0
  9
$SKPOLY
 70
     0
  9
$TDCREATE
 40
2459564.677579144
  9
$TDUCREATE
 40
2459564.302579144
  9
$TDUPDATE
 40
2459564.67758059
  9
$TDUUPDATE
 40
2459564.30258059
  9
$TDINDWG
 40
0.0000000116
  9
$TDUSRTIMER
 40
0.0000000116
  9
$USRTIMER
 70
     1
  9
$ANGBASE
 50
0.0
  9
$ANGDIR
 70
     0
  9
$PDMODE
 70
     0
  9
$PDSIZE
 40
-1.0
  9
$PLINEWID
 40
0.0
  9
$SPLFRAME
 70
     0
  9
$SPLINETYPE
 70
     6
  9
$SPLINESEGS
 70
     8
  9
$HANDSEED
  5
3A6
  9
$SURFTAB1
 70
     6
  9
$SURFTAB2
 70
     6
  9
$SURFTYPE
 70
     6
  9
$SURFU
 70
     6
  9
$SURFV
 70
     6
  9
$UCSBASE
  2

  9
$UCSNAME
  2

  9
$UCSORG
 10
0.0
 20
0.0
 30
0.0
  9
$UCSXDIR
 10
1.0
 20
0.0
 30
0.0
  9
$UCSYDIR
 10
0.0
 20
1.0
 30
0.0
  9
$UCSORTHOREF
  2

  9
$UCSORTHOVIEW
 70
     0
  9
$UCSORGTOP
 10
0.0
 20
0.0
 30
0.0
  9
$UCSORGBOTTOM
 10
0.0
 20
0.0
 30
0.0
  9
$UCSORGLEFT
 10
0.0
 20
0.0
 30
0.0
  9
$UCSORGRIGHT
 10
0.0
 20
0.0
 30
0.0
  9
$UCSORGFRONT
 10
0.0
 20
0.0
 30
0.0
  9
$UCSORGBACK
 10
0.0
 20
0.0
 30
0.0
  9
$PUCSBASE
  2

  9
$PUCSNAME
  2

  9
$PUCSORG
 10
0.0
 20
0.0
 30
0.0
  9
$PUCSXDIR
 10
1.0
 20
0.0
 30
0.0
  9
$PUCSYDIR
 10
0.0
 20
1.0
 30
0.0
  9
$PUCSORTHOREF
  2

  9
$PUCSORTHOVIEW
 70
     0
  9
$PUCSORGTOP
 10
0.0
 20
0.0
 30
0.0
  9
$PUCSORGBOTTOM
 10
0.0
 20
0.0
 30
0.0
  9
$PUCSORGLEFT
 10
0.0
 20
0.0
 30
0.0
  9
$PUCSORGRIGHT
 10
0.0
 20
0.0
 30
0.0
  9
$PUCSORGFRONT
 10
0.0
 20
0.0
 30
0.0
  9
$PUCSORGBACK
 10
0.0
 20
0.0
 30
0.0
  9
$USERI1
 70
     0
  9
$USERI2
 70
     0
  9
$USERI3
 70
     0
  9
$USERI4
 70
     0
  9
$USERI5
 70
     0
  9
$USERR1
 40
0.0
  9
$USERR2
 40
0.0
  9
$USERR3
 40
0.0
  9
$USERR4
 40
0.0
  9
$USERR5
 40
0.0
  9
$WORLDVIEW
 70
     1
  9
$SHADEDGE
 70
     3
  9
$SHADEDIF
 70
    70
  9
$TILEMODE
 70
     1
  9
$MAXACTVP
 70
    64
  9
$PINSBASE
 10
0.0
 20
0.0
 30
0.0
  9
$PLIMCHECK
 70
     0
  9
$PEXTMIN
 10
1.0000000000E+20
 20
1.0000000000E+20
 30
1.0000000000E+20
  9
$PEXTMAX
 10
-1.0000000000E+20
 20
-1.0000000000E+20
 30
-1.0000000000E+20
  9
$PLIMMIN
 10
0.0
 20
0.0
  9
$PLIMMAX
 10
420.0
 20
297.0
  9
$UNITMODE
 70
     0
  9
$VISRETAIN
 70
     1
  9
$PLINEGEN
 70
     0
  9
$PSLTSCALE
 70
     1
  9
$TREEDEPTH
 70
  3020
  9
$CMLSTYLE
  2
Standard
  9
$CMLJUST
 70
     0
  9
$CMLSCALE
 40
20.0
  9
$PROXYGRAPHICS
 70
     1
  9
$MEASUREMENT
 70
     1
  9
$CELWEIGHT
370
    -1
  9
$ENDCAPS
280
     0
  9
$JOINSTYLE
280
     0
  9
$LWDISPLAY
290
     1
  9
$INSUNITS
 70
     4
  9
$HYPERLINKBASE
  1

  9
$STYLESHEET
  1

  9
$XEDIT
290
     1
  9
$CEPSNTYPE
380
     0
  9
$PSTYLEMODE
290
     1
  9
$FINGERPRINTGUID
  2
{fc2f76ed-69c5-44ec-acfc-cd9e81477a47}
  9
$VERSIONGUID
  2
{FAEB1C32-E019-11D5-929B-00C0DF256EC4}
  9
$EXTNAMES
290
     1
  9
$PSVPSCALE
 40
0.0
  9
$OLESTARTUP
290
     0
  0
ENDSEC
  0
SECTION
  2
CLASSES
  0
CLASS
  1
ACDBDICTIONARYWDFLT
  2
AcDbDictionaryWithDefault
  3
ObjectDBX Classes
 90
        0
280
     0
281
     0
  0
CLASS
  1
VISUALSTYLE
  2
AcDbVisualStyle
  3
ObjectDBX Classes
 90
     4095
280
     0
281
     0
  0
CLASS
  1
MATERIAL
  2
AcDbMaterial
  3
ObjectDBX Classes
 90
     1153
280
     0
281
     0
  0
CLASS
  1
SCALE
  2
AcDbScale
  3
ObjectDBX Classes
 90
     1153
280
     0
281
     0
  0
CLASS
  1
TABLESTYLE
  2
AcDbTableStyle
  3
ObjectDBX Classes
 90
     4095
280
     0
281
     0
  0
CLASS
  1
MLEADERSTYLE
  2
AcDbMLeaderStyle
  3
ACDB_MLEADERSTYLE_CLASS
 90
     4095
280
     0
281
     0
  0
CLASS
  1
SUN
  2
AcDbSun
  3
SCENEOE
 90
     1153
280
     0
281
     0
  0
CLASS
  1
ACDBPLACEHOLDER
  2
AcDbPlaceHolder
  3
ObjectDBX Classes
 90
        0
280
     0
281
     0
  0
CLASS
  1
LAYOUT
  2
AcDbLayout
  3
ObjectDBX Classes
 90
        0
280
     0
281
     0
  0
ENDSEC
  0
SECTION
  2
TABLES
  0
TABLE
  2
VPORT
  5
8
330
0
100
AcDbSymbolTable
 70
     1
  0
VPORT
  5
29
330
8
100
AcDbSymbolTableRecord
100
AcDbViewportTableRecord
  2
*Active
 70
     0
 10
0.0
 20
0.0
 11
1.0
 21
1.0
 12
210.0
 22
148.5
 13
0.0
 23
0.0
 14
10.0
 24
10.0
 15
10.0
 25
10.0
 16
0.0
 26
0.0
 36
1.0
 17
0.0
 27
0.0
 37
0.0
 40
297.0
 41
1.4141414141
 42
50.0
 43
0.0
 44
0.0
 50
0.0
 51
0.0
 71
     0
 72
  2000
 73
     1
 74
     3
 75
     0
 76
     0
 77
     0
 78
     0
281
     0
 65
     1
110
0.0
120
0.0
130
0.0
111
1.0
121
0.0
131
0.0
112
0.0
122
1.0
132
0.0
 79
     0
146
0.0
  0
ENDTAB
  0
TABLE
  2
LTYPE
  5
5
330
0
100
AcDbSymbolTable
 70
     6
  0
LTYPE
  5
14
330
5
100
AcDbSymbolTableRecord
100
AcDbLinetypeTableRecord
  2
ByBlock
 70
     0
  3

 72
    65
 73
     0
 40
0.0
  0
LTYPE
  5
15
330
5
100
AcDbSymbolTableRecord
100
AcDbLinetypeTableRecord
  2
ByLayer
 70
     0
  3

 72
    65
 73
     0
 40
0.0
  0
LTYPE
  5
16
330
5
100
AcDbSymbolTableRecord
100
AcDbLinetypeTableRecord
  2
Continuous
 70
     0
  3
Solid line
 72
    65
 73
     0
 40
0.0
  0
LTYPE
  5
6E
330
5
100
AcDbSymbolTableRecord
100
AcDbLinetypeTableRecord
  2
HIDDEN
 70
     0
  3
Hidden __ __ __ __ __ __ __ __ __ __ __ __ __ __
 72
    65
 73
     2
 40
1.905
 49
1.27
 74
     0
 49
-0.635
 74
     0
  0
LTYPE
  5
6F
330
5
100
AcDbSymbolTableRecord
100
AcDbLinetypeTableRecord
  2
PHANTOM
 70
     0
  3
Phantom ______  __  __  ______  __  __  ______
 72
    65
 73
     6
 40
12.7
 49
6.35
 74
     0
 49
-1.27
 74
     0
 49
1.27
 74
     0
 49
-1.27
 74
     0
 49
1.27
 74
     0
 49
-1.27
 74
     0
  0
LTYPE
  5
70
330
5
100
AcDbSymbolTableRecord
100
AcDbLinetypeTableRecord
  2
CENTER
 70
     0
  3
Center ____ _ ____ _ ____ _ ____ _ ____ _ ____
 72
    65
 73
     4
 40
10.16
 49
6.35
 74
     0
 49
-1.27
 74
     0
 49
1.27
 74
     0
 49
-1.27
 74
     0
  0
LTYPE
  5
71
330
5
100
AcDbSymbolTableRecord
100
AcDbLinetypeTableRecord
  2
CENTERX2
 70
     0
  3
Center (2x) ________  __  ________  __  _____
 72
    65
 73
     4
 40
20.32
 49
12.7
 74
     0
 49
-2.54
 74
     0
 49
2.54
 74
     0
 49
-2.54
 74
     0
  0
LTYPE
  5
72
330
5
100
AcDbSymbolTableRecord
100
AcDbLinetypeTableRecord
  2
DOT2
 70
     0
  3
Dot (.5x) ........................................
 72
    65
 73
     2
 40
0.635
 49
0.0
 74
     0
 49
-0.635
 74
     0
  0
ENDTAB
  0
TABLE
  2
LAYER
  5
2
330
0
100
AcDbSymbolTable
 70
     1
  0
LAYER
  5
10
330
2
100
AcDbSymbolTableRecord
100
AcDbLayerTableRecord
  2
0
 70
     0
 62
     7
  6
Continuous
370
    -3
390
F
  0
ENDTAB
  0
TABLE
  2
STYLE
  5
3
330
0
100
AcDbSymbolTable
 70
     3
  0
STYLE
  5
11
330
3
100
AcDbSymbolTableRecord
100
AcDbTextStyleTableRecord
  2
Standard
 70
     0
 40
0.0
 41
1.0
 50
0.0
 71
     0
 42
3.5
  3
txt
  4
bigfont
  0
STYLE
  5
73
330
3
100
AcDbSymbolTableRecord
100
AcDbTextStyleTableRecord
  2
SLDTEXTSTYLE0
 70
     0
 40
0.0
 41
0.65
 50
0.0
 71
     0
 42
3.5
  3
TXT
  4
bigfont
  0
STYLE
  5
1C8
330
3
100
AcDbSymbolTableRecord
100
AcDbTextStyleTableRecord
  2
SLDTEXTSTYLE1
 70
     0
 40
0.0
 41
0.75
 50
0.0
 71
     0
 42
3.5
  3
TXT
  4
bigfont
  0
ENDTAB
  0
TABLE
  2
VIEW
  5
6
330
0
100
AcDbSymbolTable
 70
     0
  0
ENDTAB
  0
TABLE
  2
UCS
  5
7
330
0
100
AcDbSymbolTable
 70
     0
  0
ENDTAB
  0
TABLE
  2
APPID
  5
9
330
0
100
AcDbSymbolTable
 70
     1
  0
APPID
  5
12
330
9
100
AcDbSymbolTableRecord
100
AcDbRegAppTableRecord
  2
ACAD
 70
     0
  0
ENDTAB
  0
TABLE
  2
DIMSTYLE
  5
A
330
0
100
AcDbSymbolTable
 70
     3
100
AcDbDimStyleTable
  0
DIMSTYLE
105
27
330
A
100
AcDbSymbolTableRecord
100
AcDbDimStyleTableRecord
  2
ISO-25
 70
     0
 41
2.5
 42
0.625
 43
3.75
 44
1.25
 73
     0
 74
     0
 77
     1
 78
     8
140
2.5
141
2.5
143
0.0393700787
147
0.625
171
     3
172
     1
178
     0
271
     2
272
     2
274
     3
278
    44
283
     0
284
     8
340
11
  0
DIMSTYLE
105
1C9
102
{ACAD_REACTORS
330
1C7
102
}
330
A
100
AcDbSymbolTableRecord
100
AcDbDimStyleTableRecord
  2
SLDDIMSTYLE0
 70
     0
 41
3.556
 44
0.0
 45
0.000000001
 73
     0
 74
     0
 77
     1
 78
    12
 79
     3
140
3.5
147
0.875
173
     1
178
     0
271
     0
272
     2
276
     2
284
    12
340
1C8
341
1CA
343
1CA
344
1CA
  0
DIMSTYLE
105
1DB
102
{ACAD_REACTORS
330
1DA
330
39B
102
}
330
A
100
AcDbSymbolTableRecord
100
AcDbDimStyleTableRecord
  2
SLDDIMSTYLE1
 70
     0
 41
3.556
 44
0.0
 45
0.000000001
 73
     0
 74
     0
 77
     1
 78
    12
 79
     3
140
3.5
147
0.875
173
     1
178
     0
271
     0
272
     0
276
     2
284
    12
340
1C8
341
1CA
343
1CA
344
1CA
  0
ENDTAB
  0
TABLE
  2
BLOCK_RECORD
  5
1
330
0
100
AcDbSymbolTable
 70
     5
  0
BLOCK_RECORD
  5
1F
330
1
100
AcDbSymbolTableRecord
100
AcDbBlockTableRecord
  2
*Model_Space
340
22
  0
BLOCK_RECORD
  5
1B
330
1
100
AcDbSymbolTableRecord
100
AcDbBlockTableRecord
  2
*Paper_Space
340
1E
  0
BLOCK_RECORD
  5
23
330
1
100
AcDbSymbolTableRecord
100
AcDbBlockTableRecord
  2
*Paper_Space0
340
26
  0
BLOCK_RECORD
  5
1CA
330
1
100
AcDbSymbolTableRecord
100
AcDbBlockTableRecord
  2
_Closed
340
0
102
{BLKREFS
331
1D4
331
1D5
331
1DF
331
1E0
331
39F
331
3A0
102
}
  0
BLOCK_RECORD
  5
1D1
330
1
100
AcDbSymbolTableRecord
100
AcDbBlockTableRecord
  2
_D
340
0
  0
BLOCK_RECORD
  5
1DC
330
1
100
AcDbSymbolTableRecord
100
AcDbBlockTableRecord
  2
_D_1
340
0
  0
BLOCK_RECORD
  5
39C
330
1
100
AcDbSymbolTableRecord
100
AcDbBlockTableRecord
  2
_D_2
340
0
  0
ENDTAB
  0
ENDSEC
  0
SECTION
  2
BLOCKS
  0
BLOCK
  5
20
330
1F
100
AcDbEntity
  8
0
100
AcDbBlockBegin
  2
*Model_Space
 70
     0
 10
0.0
 20
0.0
 30
0.0
  3
*Model_Space
  1

  0
ENDBLK
  5
21
330
1F
100
AcDbEntity
  8
0
100
AcDbBlockEnd
  0
BLOCK
  5
1C
330
1B
100
AcDbEntity
 67
     1
  8
0
100
AcDbBlockBegin
  2
*Paper_Space
 70
     0
 10
0.0
 20
0.0
 30
0.0
  3
*Paper_Space
  1

  0
ENDBLK
  5
1D
330
1B
100
AcDbEntity
 67
     1
  8
0
100
AcDbBlockEnd
  0
BLOCK
  5
24
330
23
100
AcDbEntity
  8
0
100
AcDbBlockBegin
  2
*Paper_Space0
 70
     0
 10
0.0
 20
0.0
 30
0.0
  3
*Paper_Space0
  1

  0
ENDBLK
  5
25
330
23
100
AcDbEntity
  8
0
100
AcDbBlockEnd
  0
BLOCK
  5
1CB
330
1CA
100
AcDbEntity
  8
0
100
AcDbBlockBegin
  2
_Closed
 70
     0
 10
0.0
 20
0.0
 30
0.0
  3
_Closed
  1

  0
LINE
  5
1CD
330
1CA
100
AcDbEntity
  8
0
  6
ByBlock
 62
     0
370
    -2
100
AcDbLine
 10
-1.0
 20
0.166667
 30
0.0
 11
0.0
 21
0.0
 31
0.0
  0
LINE
  5
1CE
330
1CA
100
AcDbEntity
  8
0
  6
ByBlock
 62
     0
370
    -2
100
AcDbLine
 10
0.0
 20
0.0
 30
0.0
 11
-1.0
 21
-0.166667
 31
0.0
  0
LINE
  5
1CF
330
1CA
100
AcDbEntity
  8
0
  6
ByBlock
 62
     0
370
    -2
100
AcDbLine
 10
-1.0
 20
0.166667
 30
0.0
 11
-1.0
 21
-0.166667
 31
0.0
  0
LINE
  5
1D0
330
1CA
100
AcDbEntity
  8
0
  6
ByBlock
 62
     0
370
    -2
100
AcDbLine
 10
0.0
 20
0.0
 30
0.0
 11
-1.0
 21
0.0
 31
0.0
  0
ENDBLK
  5
1CC
330
1CA
100
AcDbEntity
  8
0
100
AcDbBlockEnd
  0
BLOCK
  5
1D2
330
1D1
100
AcDbEntity
  8
0
100
AcDbBlockBegin
  2
_D
 70
     0
 10
0.0
 20
0.0
 30
0.0
  3
_D
  1

  0
INSERT
  5
1D4
330
1D1
100
AcDbEntity
  8
0
  6
Continuous
 62
     7
370
    18
100
AcDbBlockReference
  2
_Closed
 10
39.407128571
 20
131.3812698621
 30
0.0
 41
3.556
 42
3.556
 50
90.0
  0
INSERT
  5
1D5
330
1D1
100
AcDbEntity
  8
0
  6
Continuous
 62
     7
370
    18
100
AcDbBlockReference
  2
_Closed
 10
39.407128571
 20
40.3812698621
 30
0.0
 41
3.556
 42
3.556
 50
270.0
  0
LINE
  5
1D6
330
1D1
100
AcDbEntity
  8
0
  6
Continuous
 62
     7
370
     0
100
AcDbLine
 10
57.4119457286
 20
131.3812698621
 30
0.0
 11
38.407128571
 21
131.3812698621
 31
0.0
  0
LINE
  5
1D7
330
1D1
100
AcDbEntity
  8
0
  6
Continuous
 62
     7
370
     0
100
AcDbLine
 10
139.4119457286
 20
40.3812698621
 30
0.0
 11
38.407128571
 21
40.3812698621
 31
0.0
  0
LINE
  5
1D8
330
1D1
100
AcDbEntity
  8
0
  6
Continuous
 62
     7
370
     0
100
AcDbLine
 10
39.407128571
 20
131.3812698621
 30
0.0
 11
39.407128571
 21
40.3812698621
 31
0.0
  0
MTEXT
  5
1D9
330
1D1
100
AcDbEntity
  8
0
  6
Continuous
 62
     7
370
    18
100
AcDbMText
 10
34.8953916564
 20
83.1193043197
 30
0.0
 40
3.5
 41
0.0
 71
     1
 72
     1
  1
89
  7
SLDTEXTSTYLE1
 11
-7.044195017643634E-15
 21
1.0
 31
0.0
 73
     1
 44
1.0
  0
ENDBLK
  5
1D3
330
1D1
100
AcDbEntity
  8
0
100
AcDbBlockEnd
  0
BLOCK
  5
1DD
330
1DC
100
AcDbEntity
  8
0
100
AcDbBlockBegin
  2
_D_1
 70
     0
 10
0.0
 20
0.0
 30
0.0
  3
_D_1
  1

  0
INSERT
  5
1DF
330
1DC
100
AcDbEntity
  8
0
  6
Continuous
 62
     7
370
    18
100
AcDbBlockReference
  2
_Closed
 10
122.9119457286
 20
30.3812698621
 30
0.0
 41
3.556
 42
3.556
 50
180.0
  0
INSERT
  5
1E0
330
1DC
100
AcDbEntity
  8
0
  6
Continuous
 62
     7
370
    18
100
AcDbBlockReference
  2
_Closed
 10
205.9119457286
 20
30.3812698621
 30
0.0
 41
3.556
 42
3.556
 50
0.0
  0
LINE
  5
1E1
330
1DC
100
AcDbEntity
  8
0
  6
Continuous
 62
     7
370
     0
100
AcDbLine
 10
122.9119457286
 20
58.3812698621
 30
0.0
 11
122.9119457286
 21
29.3812698621
 31
0.0
  0
LINE
  5
1E2
330
1DC
100
AcDbEntity
  8
0
  6
Continuous
 62
     7
370
     0
100
AcDbLine
 10
205.9119457286
 20
58.3812698621
 30
0.0
 11
205.9119457286
 21
29.3812698621
 31
0.0
  0
LINE
  5
1E3
330
1DC
100
AcDbEntity
  8
0
  6
Continuous
 62
     7
370
     0
100
AcDbLine
 10
122.9119457286
 20
30.3812698621
 30
0.0
 11
205.9119457286
 21
30.3812698621
 31
0.0
  0
MTEXT
  5
1E4
330
1DC
100
AcDbEntity
  8
0
  6
Continuous
 62
     7
370
    18
100
AcDbMText
 10
161.492601254
 20
34.8930067767
 30
0.0
 40
3.5
 41
0.0
 71
     1
 72
     1
  1
83
  7
SLDTEXTSTYLE1
 73
     1
 44
1.0
  0
ENDBLK
  5
1DE
330
1DC
100
AcDbEntity
  8
0
100
AcDbBlockEnd
  0
BLOCK
  5
39D
330
39C
100
AcDbEntity
  8
0
100
AcDbBlockBegin
  2
_D_2
 70
     0
 10
0.0
 20
0.0
 30
0.0
  3
_D_2
  1

  0
INSERT
  5
39F
330
39C
100
AcDbEntity
  8
0
  6
Continuous
 62
     7
370
    18
100
AcDbBlockReference
  2
_Closed
 10
294.8776857491
 20
30.3812698621
 30
36.7524085788
 41
3.556
 42
3.556
 50
180.0
  0
INSERT
  5
3A0
330
39C
100
AcDbEntity
  8
0
  6
Continuous
 62
     7
370
    18
100
AcDbBlockReference
  2
_Closed
 10
329.8776857491
 20
30.3812698621
 30
36.7524085788
 41
3.556
 42
3.556
 50
0.0
  0
LINE
  5
3A1
330
39C
100
AcDbEntity
  8
0
  6
Continuous
 62
     7
370
     0
100
AcDbLine
 10
294.8776857491
 20
40.3812698621
 30
0.0
 11
294.8776857491
 21
29.3812698621
 31
0.0
  0
LINE
  5
3A2
330
39C
100
AcDbEntity
  8
0
  6
Continuous
 62
     7
370
     0
100
AcDbLine
 10
329.8776857491
 20
40.3812698621
 30
0.0
 11
329.8776857491
 21
29.3812698621
 31
0.0
  0
LINE
  5
3A3
330
39C
100
AcDbEntity
  8
0
  6
Continuous
 62
     7
370
     0
100
AcDbLine
 10
294.8776857491
 20
30.3812698621
 30
0.0
 11
329.8776857491
 21
30.3812698621
 31
0.0
  0
MTEXT
  5
3A4
330
39C
100
AcDbEntity
  8
0
  6
Continuous
 62
     7
370
    18
100
AcDbMText
 10
308.6527939294
 20
34.8930067767
 30
0.0
 40
3.5
 41
0.0
 71
     1
 72
     1
  1
35
  7
SLDTEXTSTYLE1
 73
     1
 44
1.0
  0
ENDBLK
  5
39E
330
39C
100
AcDbEntity
  8
0
100
AcDbBlockEnd
  0
ENDSEC
  0
SECTION
  2
ENTITIES
  0
MTEXT
  5
74
330
1F
100
AcDbEntity
  8
0
  6
Continuous
 62
     7
370
     0
100
AcDbMText
 10
259.6120415731
 20
168.0719777521
 30
0.0
 40
5.2916666667
 41
0.0
 71
     1
 72
     1
  1
BKH - Rc1/2 - 02
  7
SLDTEXTSTYLE0
 73
     1
 44
1.0
  0
LINE
  5
75
330
1F
100
AcDbEntity
  8
0
  6
Continuous
 62
     7
370
    25
100
AcDbLine
 10
153.4119457286
 20
95.5812698621
 30
0.0
 11
153.4119457286
 21
93.3812698621
 31
0.0
  0
LINE
  5
76
330
1F
100
AcDbEntity
  8
0
  6
Continuous
 62
     7
370
    25
100
AcDbLine
 10
175.4119457286
 20
93.3812698621
 30
0.0
 11
175.4119457286
 21
95.5812698621
 31
0.0
  0
ARC
  5
77
330
1F
100
AcDbEntity
  8
0
  6
Continuous
 62
     7
370
    25
100
AcDbCircle
 10
157.8619457286
 20
96.8657998083
 30
0.0
 40
0.1999999999999949
100
AcDbArc
 50
120.0
 51
178.6951043494
  0
ARC
  5
78
330
1F
100
AcDbEntity
  8
0
  6
Continuous
 62
     7
370
    25
100
AcDbCircle
 10
170.9619457286
 20
96.8657998083
 30
0.0
 40
0.1999999999999886
100
AcDbArc
 50
0.0
 51
60.0
  0
LINE
  5
79
330
1F
100
AcDbEntity
  8
0
  6
Continuous
 62
     7
370
    25
100
AcDbLine
 10
157.6619457286
 20
96.8657998083
 30
0.0
 11
157.6619457286
 21
95.9812698621
 31
0.0
  0
LINE
  5
7A
330
1F
100
AcDbEntity
  8
0
  6
Continuous
 62
     7
370
    25
100
AcDbLine
 10
171.1619457286
 20
95.9812698621
 30
0.0
 11
171.1619457286
 21
96.8657998083
 31
0.0
  0
LINE
  5
7B
330
1F
100
AcDbEntity
  8
0
  6
Continuous
 62
     7
370
    25
100
AcDbLine
 10
171.0619890299
 20
97.038979889
 30
0.0
 11
169.3580981513
 21
98.0227217465
 31
0.0
  0
LINE
  5
7C
330
1F
100
AcDbEntity
  8
0
  6
Continuous
 62
     7
370
    25
100
AcDbLine
 10
159.4657933059
 20
98.0227217465
 30
0.0
 11
157.7619024273
 21
97.038979889
 31
0.0
  0
LWPOLYLINE
  5
7D
330
1F
100
AcDbEntity
  8
0
  6
Continuous
 62
     7
370
    25
100
AcDbPolyline
 90
        3
 70
   128
 43
0.0
 10
161.8989095573
 20
95.9825565606
 10
161.905594526
 20
95.9522672165
 10
161.9118619322
 20
95.8730826698
  0
LWPOLYLINE
  5
7E
330
1F
100
AcDbEntity
  8
0
  6
Continuous
 62
     7
370
    25
100
AcDbPolyline
 90
        3
 70
   128
 43
0.0
 10
166.912029525
 20
95.8894570544
 10
166.9210921505
 20
95.9663197325
 10
166.9251367122
 20
95.9831461835
  0
LINE
  5
7F
330
1F
100
AcDbEntity
  8
0
  6
Continuous
 62
     7
370
    25
100
AcDbLine
 10
160.4119457286
 20
101.5812698621
 30
0.0
 11
159.7931435751
 21
101.4154623248
 31
0.0
  0
LINE
  5
80
330
1F
100
AcDbEntity
  8
0
  6
Continuous
 62
     7
370
    25
100
AcDbLine
 10
169.0307478821
 20
101.4154623248
 30
0.0
 11
168.4119457286
 21
101.5812698621
 31
0.0
  0
ARC
  5
81
330
1F
100
AcDbEntity
  8
0
  6
Continuous
 62
     7
370
    25
100
AcDbCircle
 10
156.4119457286
 20
88.8812698621
 30
0.0
 40
20.50000000000018
100
AcDbArc
 50
347.3187639599
 51
12.6819868219
  0
LINE
  5
82
330
1F
100
AcDbEntity
  8
0
  6
Continuous
 62
     7
370
    25
100
AcDbLine
 10
151.9119457286
 20
84.3806597757
 30
0.0
 11
155.7494940621
 21
84.3810135625
 31
0.0
  0
ARC
  5
83
330
1F
100
AcDbEntity
  8
0
  6
Continuous
 62
     7
370
    25
100
AcDbCircle
 10
58.4119457286
 20
122.3812698621
 30
0.0
 40
9.000000000000028
100
AcDbArc
 50
16.120805686
 51
343.8696452533
  0
SPLINE
  5
84
330
1F
100
AcDbEntity
  8
0
  6
Continuous
 62
     7
370
    25
100
AcDbSpline
210
0.0
220
0.0
230
1.0
 70
     8
 71
     3
 72
    13
 73
     9
 74
     0
 42
0.00000001
 43
0.00000001
 40
0.0
 40
0.0
 40
0.0
 40
0.0
 40
0.1436028716478655
 40
0.2643837028174903
 40
0.3725767524670711
 40
0.4826496979383221
 40
0.728427459816547
 40
1.0
 40
1.0
 40
1.0
 40
1.0
 10
156.0278836080988
 20
93.3812698621279
 30
0.0
 10
155.9031842644918
 20
93.38059053228501
 30
0.0
 10
155.6736033806039
 20
93.37933983487738
 30
0.0
 10
155.1855501404576
 20
93.37035945011945
 30
0.0
 10
154.6562765906272
 20
93.36321879905745
 30
0.0
 10
153.9174456673454
 20
93.36078608088395
 30
0.0
 10
152.9950001462411
 20
93.37439689118115
 30
0.0
 10
152.2847677887731
 20
93.37927913694732
 30
0.0
 10
151.911945728615
 20
93.38184197276522
 30
0.0
  0
LWPOLYLINE
  5
85
330
1F
100
AcDbEntity
  8
0
  6
Continuous
 62
     7
370
    25
100
AcDbPolyline
 90
        3
 70
   128
 43
0.0
 10
131.9119457286
 20
108.3816315565
 10
140.9615328531
 20
97.5221026327
 10
151.9119457286
 20
84.3815701713
  0
LINE
  5
86
330
1F
100
AcDbEntity
  8
0
  6
Continuous
 62
     7
370
    25
100
AcDbLine
 10
151.9119457286
 20
93.3809758154
 30
0.0
 11
131.9119457286
 21
114.3809091435
 31
0.0
  0
LINE
  5
87
330
1F
100
AcDbEntity
  8
0
  6
Continuous
 62
     7
370
    25
100
AcDbLine
 10
131.9119457286
 20
114.3809251357
 30
0.0
 11
67.4119457286
 21
124.881189087
 31
0.0
  0
LINE
  5
88
330
1F
100
AcDbEntity
  8
0
  6
Continuous
 62
     7
370
    25
100
AcDbLine
 10
67.4119457286
 20
119.881351626
 30
0.0
 11
131.9119457286
 21
108.3816149296
 31
0.0
  0
LINE
  5
89
330
1F
100
AcDbEntity
  8
0
  6
Continuous
 62
     7
370
    25
100
AcDbLine
 10
67.4224113146
 20
124.8812698621
 30
0.0
 11
67.0577539615
 21
124.8812698621
 31
0.0
  0
LINE
  5
8A
330
1F
100
AcDbEntity
  8
0
  6
Continuous
 62
     7
370
    25
100
AcDbLine
 10
67.0577539615
 20
119.8812698621
 30
0.0
 11
67.412404328
 21
119.8812698621
 31
0.0
  0
LINE
  5
8B
330
1F
100
AcDbEntity
  8
0
  6
Continuous
 62
     7
370
    25
100
AcDbLine
 10
139.5119457286
 20
44.8812698621
 30
0.0
 11
140.4119457286
 21
44.8812698621
 31
0.0
  0
LINE
  5
8C
330
1F
100
AcDbEntity
  8
0
  6
Continuous
 62
     7
370
    25
100
AcDbLine
 10
140.4119457286
 20
73.8812698621
 30
0.0
 11
139.5119457286
 21
73.8812698621
 31
0.0
  0
LINE
  5
8D
330
1F
100
AcDbEntity
  8
0
  6
Continuous
 62
     7
370
    25
100
AcDbLine
 10
123.5337239935
 20
76.7017779378
 30
0.0
 11
122.9119457286
 21
74.3812698621
 31
0.0
  0
LINE
  5
8E
330
1F
100
AcDbEntity
  8
0
  6
Continuous
 62
     7
370
    25
100
AcDbLine
 10
122.9119457286
 20
44.3812698621
 30
0.0
 11
123.5337239935
 21
42.0607617864
 31
0.0
  0
LINE
  5
8F
330
1F
100
AcDbEntity
  8
0
  6
Continuous
 62
     7
370
    25
100
AcDbLine
 10
128.9471132676
 20
76.7017779378
 30
0.0
 11
128.2400064864
 21
75.9946711566
 31
0.0
  0
LINE
  5
90
330
1F
100
AcDbEntity
  8
0
  6
Continuous
 62
     7
370
    25
100
AcDbLine
 10
131.6558308292
 20
75.9946711566
 30
0.0
 11
130.948724048
 21
76.7017779378
 31
0.0
  0
LINE
  5
91
330
1F
100
AcDbEntity
  8
0
  6
Continuous
 62
     7
370
    25
100
AcDbLine
 10
128.2400064864
 20
75.9946711566
 30
0.0
 11
127.5328997052
 21
76.7017779378
 31
0.0
  0
LINE
  5
92
330
1F
100
AcDbEntity
  8
0
  6
Continuous
 62
     7
370
    25
100
AcDbLine
 10
132.3629376104
 20
76.7017779378
 30
0.0
 11
131.6558308292
 21
75.9946711566
 31
0.0
  0
LINE
  5
93
330
1F
100
AcDbEntity
  8
0
  6
Continuous
 62
     7
370
    25
100
AcDbLine
 10
127.5328997052
 20
42.0607617864
 30
0.0
 11
128.2400064864
 21
42.7678685676
 31
0.0
  0
LINE
  5
94
330
1F
100
AcDbEntity
  8
0
  6
Continuous
 62
     7
370
    25
100
AcDbLine
 10
130.948724048
 20
42.0607617864
 30
0.0
 11
131.6558308292
 21
42.7678685676
 31
0.0
  0
LINE
  5
95
330
1F
100
AcDbEntity
  8
0
  6
Continuous
 62
     7
370
    25
100
AcDbLine
 10
131.6558308292
 20
42.7678685676
 30
0.0
 11
132.3629376104
 21
42.0607617864
 31
0.0
  0
LINE
  5
96
330
1F
100
AcDbEntity
  8
0
  6
Continuous
 62
     7
370
    25
100
AcDbLine
 10
128.2400064864
 20
42.7678685676
 30
0.0
 11
128.9471132676
 21
42.0607617864
 31
0.0
  0
LINE
  5
97
330
1F
100
AcDbEntity
  8
0
  6
Continuous
 62
     7
370
    25
100
AcDbLine
 10
189.3119457286
 20
73.8812698621
 30
0.0
 11
188.4119457286
 21
73.8812698621
 31
0.0
  0
LINE
  5
98
330
1F
100
AcDbEntity
  8
0
  6
Continuous
 62
     7
370
    25
100
AcDbLine
 10
188.4119457286
 20
44.8812698621
 30
0.0
 11
189.3119457286
 21
44.8812698621
 31
0.0
  0
LINE
  5
99
330
1F
100
AcDbEntity
  8
0
  6
Continuous
 62
     7
370
    25
100
AcDbLine
 10
205.2901674637
 20
42.0607617864
 30
0.0
 11
205.9119457286
 21
44.3812698621
 31
0.0
  0
LINE
  5
9A
330
1F
100
AcDbEntity
  8
0
  6
Continuous
 62
     7
370
    25
100
AcDbLine
 10
205.9119457286
 20
74.3812698621
 30
0.0
 11
205.2901674637
 21
76.7017779378
 31
0.0
  0
LINE
  5
9B
330
1F
100
AcDbEntity
  8
0
  6
Continuous
 62
     7
370
    25
100
AcDbLine
 10
200.5838849708
 20
42.7678685676
 30
0.0
 11
201.290991752
 21
42.0607617864
 31
0.0
  0
LINE
  5
9C
330
1F
100
AcDbEntity
  8
0
  6
Continuous
 62
     7
370
    25
100
AcDbLine
 10
196.4609538468
 20
42.0607617864
 30
0.0
 11
197.168060628
 21
42.7678685676
 31
0.0
  0
LINE
  5
9D
330
1F
100
AcDbEntity
  8
0
  6
Continuous
 62
     7
370
    25
100
AcDbLine
 10
199.8767781897
 20
42.0607617864
 30
0.0
 11
200.5838849708
 21
42.7678685676
 31
0.0
  0
LINE
  5
9E
330
1F
100
AcDbEntity
  8
0
  6
Continuous
 62
     7
370
    25
100
AcDbLine
 10
197.168060628
 20
42.7678685676
 30
0.0
 11
197.8751674092
 21
42.0607617864
 31
0.0
  0
LINE
  5
9F
330
1F
100
AcDbEntity
  8
0
  6
Continuous
 62
     7
370
    25
100
AcDbLine
 10
200.5838849708
 20
75.9946711566
 30
0.0
 11
199.8767781897
 21
76.7017779378
 31
0.0
  0
LINE
  5
A0
330
1F
100
AcDbEntity
  8
0
  6
Continuous
 62
     7
370
    25
100
AcDbLine
 10
197.8751674092
 20
76.7017779378
 30
0.0
 11
197.168060628
 21
75.9946711566
 31
0.0
  0
LINE
  5
A1
330
1F
100
AcDbEntity
  8
0
  6
Continuous
 62
     7
370
    25
100
AcDbLine
 10
201.290991752
 20
76.7017779378
 30
0.0
 11
200.5838849708
 21
75.9946711566
 31
0.0
  0
LINE
  5
A2
330
1F
100
AcDbEntity
  8
0
  6
Continuous
 62
     7
370
    25
100
AcDbLine
 10
197.168060628
 20
75.9946711566
 30
0.0
 11
196.4609538468
 21
76.7017779378
 31
0.0
  0
LINE
  5
A3
330
1F
100
AcDbEntity
  8
0
  6
Continuous
 62
     7
370
    25
100
AcDbLine
 10
166.9119457286
 20
80.9312698621
 30
0.0
 11
166.5019457286
 21
82.8812698621
 31
0.0
  0
LINE
  5
A4
330
1F
100
AcDbEntity
  8
0
  6
Continuous
 62
     7
370
    25
100
AcDbLine
 10
162.3219457286
 20
82.8812698621
 30
0.0
 11
161.9119457286
 21
80.9312698621
 31
0.0
  0
LINE
  5
A5
330
1F
100
AcDbEntity
  8
0
  6
Continuous
 62
     7
370
    25
100
AcDbLine
 10
166.9119457286
 20
80.3812698621
 30
0.0
 11
166.9119457286
 21
80.9312698621
 31
0.0
  0
LINE
  5
A6
330
1F
100
AcDbEntity
  8
0
  6
Continuous
 62
     7
370
    25
100
AcDbLine
 10
161.9119457286
 20
80.9312698621
 30
0.0
 11
161.9119457286
 21
80.3812698621
 31
0.0
  0
ARC
  5
A7
330
1F
100
AcDbEntity
  8
0
  6
Continuous
 62
     7
370
    25
100
AcDbCircle
 10
164.4119457286
 20
78.7631698621
 30
0.0
 40
4.6181
100
AcDbArc
 50
63.0914956386
 51
116.9085043614
  0
ARC
  5
A8
330
1F
100
AcDbEntity
  8
0
  6
Continuous
 62
     7
370
    25
100
AcDbCircle
 10
157.8119457286
 20
80.4812698621
 30
0.0
 40
0.4000000000000199
100
AcDbArc
 50
90.0
 51
180.0
  0
ARC
  5
A9
330
1F
100
AcDbEntity
  8
0
  6
Continuous
 62
     7
370
    25
100
AcDbCircle
 10
171.0119457286
 20
80.4812698621
 30
0.0
 40
0.4000000000000341
100
AcDbArc
 50
0.0
 51
90.0
  0
LINE
  5
AA
330
1F
100
AcDbEntity
  8
0
  6
Continuous
 62
     7
370
    25
100
AcDbLine
 10
171.4119457286
 20
80.3812698621
 30
0.0
 11
171.4119457286
 21
80.4812698621
 31
0.0
  0
LINE
  5
AB
330
1F
100
AcDbEntity
  8
0
  6
Continuous
 62
     7
370
    25
100
AcDbLine
 10
176.8902065982
 20
80.8812698621
 30
0.0
 11
176.8902065982
 21
83.8812698621
 31
0.0
  0
LINE
  5
AC
330
1F
100
AcDbEntity
  8
0
  6
Continuous
 62
     7
370
    25
100
AcDbLine
 10
170.1119457286
 20
83.8812698621
 30
0.0
 11
170.1119457286
 21
84.0812698621
 31
0.0
  0
LINE
  5
AD
330
1F
100
AcDbEntity
  8
0
  6
Continuous
 62
     7
370
    25
100
AcDbLine
 10
158.7119457286
 20
84.0812698621
 30
0.0
 11
158.7119457286
 21
83.8812698621
 31
0.0
  0
LINE
  5
AE
330
1F
100
AcDbEntity
  8
0
  6
Continuous
 62
     7
370
    25
100
AcDbLine
 10
151.933684859
 20
83.8812698621
 30
0.0
 11
151.933684859
 21
80.8812698621
 31
0.0
  0
ARC
  5
AF
330
1F
100
AcDbEntity
  8
0
  6
Continuous
 62
     7
370
    25
100
AcDbCircle
 10
158.6119457286
 20
84.4812698621
 30
0.0
 40
0.3999999999999915
100
AcDbArc
 50
190.3466391072
 51
270.0
  0
ARC
  5
B0
330
1F
100
AcDbEntity
  8
0
  6
Continuous
 62
     7
370
    25
100
AcDbCircle
 10
170.2119457286
 20
84.4812698621
 30
0.0
 40
0.4000000000000256
100
AcDbArc
 50
270.0
 51
345.3343843008
  0
LINE
  5
B1
330
1F
100
AcDbEntity
  8
0
  6
Continuous
 62
     7
370
    25
100
AcDbLine
 10
158.7455766314
 20
84.0812698725
 30
0.0
 11
170.2119457286
 21
84.0812698621
 31
0.0
  0
LWPOLYLINE
  5
B2
330
1F
100
AcDbEntity
  8
0
  6
Continuous
 62
     7
370
    25
100
AcDbPolyline
 90
        9
 70
   128
 43
0.0
 10
158.6119457286
 20
84.0812698621
 10
158.6137190967
 20
84.0812698621
 10
158.6190381165
 20
84.0812698621
 10
158.6278995354
 20
84.0812698621
 10
158.6402979345
 20
84.0812698621
 10
158.6562257323
 20
84.0812698621
 10
158.6756731887
 20
84.0812698621
 10
158.6986284115
 20
84.0812698621
 10
158.7250780906
 20
84.0812699799
  0
SPLINE
  5
B3
330
1F
100
AcDbEntity
  8
0
  6
Continuous
 62
     7
370
    25
100
AcDbSpline
210
0.0
220
0.0
230
1.0
 70
     8
 71
     3
 72
     9
 73
     5
 74
     0
 42
0.00000001
 43
0.00000001
 40
0.0
 40
0.0
 40
0.0
 40
0.0
 40
0.5599892317495103
 40
0.9999999999999999
 40
0.9999999999999999
 40
0.9999999999999999
 40
0.9999999999999999
 10
153.413309449512
 20
95.88126986212791
 30
0.0
 10
153.412871606389
 20
95.82527152634543
 30
0.0
 10
153.4120897286346
 20
95.72527257528068
 30
0.0
 10
153.4119897293688
 20
95.62527143895048
 30
0.0
 10
153.411945728615
 20
95.5812698621279
 30
0.0
  0
SPLINE
  5
B4
330
1F
100
AcDbEntity
  8
0
  6
Continuous
 62
     7
370
    25
100
AcDbSpline
210
0.0
220
0.0
230
1.0
 70
     8
 71
     3
 72
     9
 73
     5
 74
     0
 42
0.00000001
 43
0.00000001
 40
0.0
 40
0.0
 40
0.0
 40
0.0
 40
0.5600121428755168
 40
1.0
 40
1.0
 40
1.0
 40
1.0
 10
175.411945728615
 20
95.5812698621279
 30
0.0
 10
175.4118744549319
 20
95.63727173882059
 30
0.0
 10
175.4117471832575
 20
95.73727292166129
 30
0.0
 10
175.410938026754
 20
95.83727164022976
 30
0.0
 10
175.410582007718
 20
95.88126986212791
 30
0.0
  0
SPLINE
  5
B5
330
1F
100
AcDbEntity
  8
0
  6
Continuous
 62
     7
370
    25
100
AcDbSpline
210
0.0
220
0.0
230
1.0
 70
    24
 71
     3
 72
    13
 73
     9
 74
     0
 42
0.00000001
 43
0.00000001
 40
0.0
 40
0.0
 40
0.0
 40
0.0
 40
0.0011461011598684
 40
0.2089654188821551
 40
0.4167847366044414
 40
0.6202854766482587
 40
0.8156635781994069
 40
1.0
 40
1.0
 40
1.0
 40
1.0
 10
158.4037348312675
 20
93.3812698621279
 30
0.0
 10
158.4000349488594
 20
93.3812698621279
 30
0.0
 10
157.7254457378123
 20
93.38126986212727
 30
0.0
 10
156.5959418441186
 20
93.38126986212819
 30
0.0
 10
155.1434520300286
 20
93.38126986212784
 30
0.0
 10
154.1342867058272
 20
93.38126986212791
 30
0.0
 10
153.5208818196122
 20
93.3812698621279
 30
0.0
 10
153.4475469263294
 20
93.38126986212788
 30
0.0
 10
153.411945728615
 20
93.3812698621279
 30
0.0
  0
SPLINE
  5
B6
330
1F
100
AcDbEntity
  8
0
  6
Continuous
 62
     7
370
    25
100
AcDbSpline
210
0.0
220
0.0
230
1.0
 70
    24
 71
     3
 72
    23
 73
    19
 74
     0
 42
0.00000001
 43
0.00000001
 40
0.0
 40
0.0
 40
0.0
 40
0.0
 40
0.058343093746039
 40
0.1201088138988291
 40
0.184387292337165
 40
0.2499999999999998
 40
0.3156127076628347
 40
0.3798911861011706
 40
0.4416569062539609
 40
0.5000000000000001
 40
0.5583430937460393
 40
0.6201088138988295
 40
0.6843872923371656
 40
0.7500000000000004
 40
0.8156127076628352
 40
0.879891186101171
 40
0.9416569062539611
 40
1.0
 40
1.0
 40
1.0
 40
1.0
 10
175.410582007718
 20
95.88126986212791
 30
0.0
 10
175.3650395207009
 20
95.8812698621279
 30
0.0
 10
175.2712828522349
 20
95.8812698621279
 30
0.0
 10
174.6386355291776
 20
95.88126986212792
 30
0.0
 10
173.6126661657442
 20
95.8812698621279
 30
0.0
 10
172.182029856103
 20
95.88126986212791
 30
0.0
 10
170.433226376096
 20
95.8812698621279
 30
0.0
 10
168.4780051089234
 20
95.88126986212792
 30
0.0
 10
166.4464494626743
 20
95.8812698621279
 30
0.0
 10
164.411945728615
 20
95.88126986212792
 30
0.0
 10
162.3774419945558
 20
95.8812698621279
 30
0.0
 10
160.3458863483067
 20
95.88126986212792
 30
0.0
 10
158.390665081134
 20
95.8812698621279
 30
0.0
 10
156.641861601127
 20
95.88126986212792
 30
0.0
 10
155.2112252914858
 20
95.88126986212791
 30
0.0
 10
154.1852559280524
 20
95.88126986212791
 30
0.0
 10
153.5526086049951
 20
95.8812698621279
 30
0.0
 10
153.4588519365291
 20
95.8812698621279
 30
0.0
 10
153.413309449512
 20
95.88126986212791
 30
0.0
  0
SPLINE
  5
B7
330
1F
100
AcDbEntity
  8
0
  6
Continuous
 62
     7
370
    25
100
AcDbSpline
210
0.0
220
0.0
230
1.0
 70
    24
 71
     3
 72
    18
 73
    14
 74
     0
 42
0.00000001
 43
0.00000001
 40
0.0
 40
0.0
 40
0.0
 40
0.0
 40
0.0704110089175378
 40
0.1639625080802974
 40
0.2522269986902099
 40
0.3404914893001229
 40
0.4340429884628824
 40
0.5314837925278466
 40
0.6309924302592466
 40
0.7305010679906458
 40
0.82794187205561
 40
0.9214933712183696
 40
1.0
 40
1.0
 40
1.0
 40
1.0
 10
157.7891233487753
 20
97.03900488904685
 30
0.0
 10
157.7920941194781
 20
97.03900488904685
 30
0.0
 10
157.7990120009692
 20
97.03900488904685
 30
0.0
 10
158.1039513687922
 20
97.03900488904688
 30
0.0
 10
158.6192889069802
 20
97.03900488904686
 30
0.0
 10
159.3401775665695
 20
97.03900488904688
 30
0.0
 10
160.2679364318759
 20
97.03900488904685
 30
0.0
 10
161.3987080218241
 20
97.03900488904688
 30
0.0
 10
162.6783889714839
 20
97.03900488904685
 30
0.0
 10
164.0320147892661
 20
97.03900488904686
 30
0.0
 10
165.3704621794814
 20
97.03900488904685
 30
0.0
 10
166.5862721489935
 20
97.03900488904688
 30
0.0
 10
167.2926506675104
 20
97.03900488904688
 30
0.0
 10
167.6149568369141
 20
97.03900488904686
 30
0.0
  0
SPLINE
  5
B8
330
1F
100
AcDbEntity
  8
0
  6
Continuous
 62
     7
370
    25
100
AcDbSpline
210
0.0
220
0.0
230
1.0
 70
    24
 71
     3
 72
    12
 73
     8
 74
     0
 42
0.00000001
 43
0.00000001
 40
0.0
 40
0.0
 40
0.0
 40
0.0
 40
0.2212598577583637
 40
0.4558314493331033
 40
0.6953809866350161
 40
0.9349305239369291
 40
0.9999999999999999
 40
0.9999999999999999
 40
0.9999999999999999
 40
0.9999999999999999
 10
168.745049671505
 20
97.03900488904686
 30
0.0
 10
169.0505201092783
 20
97.03900488904686
 30
0.0
 10
169.6798391090702
 20
97.03900488904685
 30
0.0
 10
170.3932802808108
 20
97.03900488904685
 30
0.0
 10
170.868447993047
 20
97.03900488904686
 30
0.0
 10
171.0803980973926
 20
97.03900488904685
 30
0.0
 10
171.0427995174865
 20
97.03900488904685
 30
0.0
 10
171.0347681084546
 20
97.03900488904685
 30
0.0
  0
SPLINE
  5
B9
330
1F
100
AcDbEntity
  8
0
  6
Continuous
 62
     7
370
    25
100
AcDbSpline
210
0.0
220
0.0
230
1.0
 70
     8
 71
     3
 72
     9
 73
     5
 74
     0
 42
0.00000001
 43
0.00000001
 40
0.0
 40
0.0
 40
0.0
 40
0.0
 40
0.5598886773269508
 40
1.0
 40
1.0
 40
1.0
 40
1.0
 10
170.9453941244851
 20
96.2803274940808
 30
0.0
 10
171.0148305297656
 20
96.22510980056727
 30
0.0
 10
171.1388487642689
 20
96.12648717119541
 30
0.0
 10
171.1548870829617
 20
96.02564961316692
 30
0.0
 10
171.161945728615
 20
95.9812698621279
 30
0.0
  0
SPLINE
  5
BA
330
1F
100
AcDbEntity
  8
0
  6
Continuous
 62
     7
370
    25
100
AcDbSpline
210
0.0
220
0.0
230
1.0
 70
     8
 71
     3
 72
     9
 73
     5
 74
     0
 42
0.00000001
 43
0.00000001
 40
0.0
 40
0.0
 40
0.0
 40
0.0
 40
0.5600038649198187
 40
1.0
 40
1.0
 40
1.0
 40
1.0
 10
170.9319450560662
 20
95.9812698621279
 30
0.0
 10
170.9344823076258
 20
96.03709435830581
 30
0.0
 10
170.9390130827123
 20
96.13678027062696
 30
0.0
 10
170.9434443736147
 20
96.23646611002391
 30
0.0
 10
170.9453941244851
 20
96.2803274940808
 30
0.0
  0
SPLINE
  5
BB
330
1F
100
AcDbEntity
  8
0
  6
Continuous
 62
     7
370
    25
100
AcDbSpline
210
0.0
220
0.0
230
1.0
 70
     8
 71
     3
 72
     9
 73
     5
 74
     0
 42
0.00000001
 43
0.00000001
 40
0.0
 40
0.0
 40
0.0
 40
0.0
 40
0.5598886773269478
 40
1.0
 40
1.0
 40
1.0
 40
1.0
 10
170.2838047868992
 20
96.2803274940808
 30
0.0
 10
170.4319257083432
 20
96.22510980056727
 30
0.0
 10
170.6964799446446
 20
96.12648717119541
 30
0.0
 10
170.859984742999
 20
96.02564961316692
 30
0.0
 10
170.9319450560662
 20
95.9812698621279
 30
0.0
  0
SPLINE
  5
BC
330
1F
100
AcDbEntity
  8
0
  6
Continuous
 62
     7
370
    25
100
AcDbSpline
210
0.0
220
0.0
230
1.0
 70
     8
 71
     3
 72
     9
 73
     5
 74
     0
 42
0.00000001
 43
0.00000001
 40
0.0
 40
0.0
 40
0.0
 40
0.0
 40
0.5600038649198428
 40
1.0
 40
1.0
 40
1.0
 40
1.0
 10
170.2576172041599
 20
95.9812698621279
 30
0.0
 10
170.2625295633402
 20
96.03709435830581
 30
0.0
 10
170.2713015727636
 20
96.13678027062697
 30
0.0
 10
170.2799843836621
 20
96.2364661100239
 30
0.0
 10
170.2838047868992
 20
96.2803274940808
 30
0.0
  0
SPLINE
  5
BD
330
1F
100
AcDbEntity
  8
0
  6
Continuous
 62
     7
370
    25
100
AcDbSpline
210
0.0
220
0.0
230
1.0
 70
     8
 71
     3
 72
     9
 73
     5
 74
     0
 42
0.00000001
 43
0.00000001
 40
0.0
 40
0.0
 40
0.0
 40
0.0
 40
0.559888677326951
 40
1.0
 40
1.0
 40
1.0
 40
1.0
 10
169.222057958197
 20
96.2803274940808
 30
0.0
 10
169.4387691997896
 20
96.22510980056728
 30
0.0
 10
169.8258305038817
 20
96.12648717119541
 30
0.0
 10
170.1256592000944
 20
96.02564961316693
 30
0.0
 10
170.2576172041599
 20
95.9812698621279
 30
0.0
  0
SPLINE
  5
BE
330
1F
100
AcDbEntity
  8
0
  6
Continuous
 62
     7
370
    25
100
AcDbSpline
210
0.0
220
0.0
230
1.0
 70
     8
 71
     3
 72
     9
 73
     5
 74
     0
 42
0.00000001
 43
0.00000001
 40
0.0
 40
0.0
 40
0.0
 40
0.0
 40
0.5600038649198396
 40
1.0
 40
1.0
 40
1.0
 40
1.0
 10
169.1849165016242
 20
95.9812698621279
 30
0.0
 10
169.191869199265
 20
96.03709435830581
 30
0.0
 10
169.2042846450795
 20
96.13678027062697
 30
0.0
 10
169.2166272567606
 20
96.23646611002391
 30
0.0
 10
169.222057958197
 20
96.2803274940808
 30
0.0
  0
SPLINE
  5
BF
330
1F
100
AcDbEntity
  8
0
  6
Continuous
 62
     7
370
    25
100
AcDbSpline
210
0.0
220
0.0
230
1.0
 70
     8
 71
     3
 72
     9
 73
     5
 74
     0
 42
0.00000001
 43
0.00000001
 40
0.0
 40
0.0
 40
0.0
 40
0.0
 40
0.5598886773269517
 40
1.0
 40
1.0
 40
1.0
 40
1.0
 10
167.8325099301352
 20
96.2803274940808
 30
0.0
 10
168.1030429788941
 20
96.22510980056728
 30
0.0
 10
168.586233762552
 20
96.12648717119541
 30
0.0
 10
169.0019535264665
 20
96.02564961316692
 30
0.0
 10
169.1849165016242
 20
95.9812698621279
 30
0.0
  0
SPLINE
  5
C0
330
1F
100
AcDbEntity
  8
0
  6
Continuous
 62
     7
370
    25
100
AcDbSpline
210
0.0
220
0.0
230
1.0
 70
     8
 71
     3
 72
     9
 73
     5
 74
     0
 42
0.00000001
 43
0.00000001
 40
0.0
 40
0.0
 40
0.0
 40
0.0
 40
0.5600038649197987
 40
1.0
 40
1.0
 40
1.0
 40
1.0
 10
167.786945728615
 20
95.9812698621279
 30
0.0
 10
167.7954649498621
 20
96.03709435830581
 30
0.0
 10
167.8106777399529
 20
96.13678027062696
 30
0.0
 10
167.8258390238275
 20
96.2364661100239
 30
0.0
 10
167.8325099301352
 20
96.2803274940808
 30
0.0
  0
SPLINE
  5
C1
330
1F
100
AcDbEntity
  8
0
  6
Continuous
 62
     7
370
    25
100
AcDbSpline
210
0.0
220
0.0
230
1.0
 70
     8
 71
     3
 72
     9
 73
     5
 74
     0
 42
0.00000001
 43
0.00000001
 40
0.0
 40
0.0
 40
0.0
 40
0.0
 40
0.5598886773269476
 40
0.9999999999999999
 40
0.9999999999999999
 40
0.9999999999999999
 40
0.9999999999999999
 10
166.2098561044894
 20
96.2803274940808
 30
0.0
 10
166.5157745802186
 20
96.22510980056725
 30
0.0
 10
167.0621661900467
 20
96.1264871711954
 30
0.0
 10
167.5654464067615
 20
96.02564961316692
 30
0.0
 10
167.786945728615
 20
95.9812698621279
 30
0.0
  0
SPLINE
  5
C2
330
1F
100
AcDbEntity
  8
0
  6
Continuous
 62
     7
370
    25
100
AcDbSpline
210
0.0
220
0.0
230
1.0
 70
     8
 71
     3
 72
     9
 73
     5
 74
     0
 42
0.00000001
 43
0.00000001
 40
0.0
 40
0.0
 40
0.0
 40
0.0
 40
0.5600038649198397
 40
1.0
 40
1.0
 40
1.0
 40
1.0
 10
166.158974283057
 20
95.9812698621279
 30
0.0
 10
166.168479457061
 20
96.03709435830582
 30
0.0
 10
166.1854528649238
 20
96.13678027062697
 30
0.0
 10
166.2023996045511
 20
96.23646611002391
 30
0.0
 10
166.2098561044894
 20
96.2803274940808
 30
0.0
  0
SPLINE
  5
C3
330
1F
100
AcDbEntity
  8
0
  6
Continuous
 62
     7
370
    25
100
AcDbSpline
210
0.0
220
0.0
230
1.0
 70
     8
 71
     3
 72
     9
 73
     5
 74
     0
 42
0.00000001
 43
0.00000001
 40
0.0
 40
0.0
 40
0.0
 40
0.0
 40
0.5598886773269447
 40
1.0
 40
1.0
 40
1.0
 40
1.0
 10
164.4646776579151
 20
96.2803274940808
 30
0.0
 10
164.7851337220479
 20
96.22510980056727
 30
0.0
 10
165.3574904727912
 20
96.12648717119541
 30
0.0
 10
165.9140334272471
 20
96.02564961316692
 30
0.0
 10
166.158974283057
 20
95.9812698621279
 30
0.0
  0
SPLINE
  5
C4
330
1F
100
AcDbEntity
  8
0
  6
Continuous
 62
     7
370
    25
100
AcDbSpline
210
0.0
220
0.0
230
1.0
 70
    24
 71
     3
 72
     9
 73
     5
 74
     0
 42
0.00000001
 43
0.00000001
 40
0.0
 40
0.0
 40
0.0
 40
0.0
 40
0.5600038649197977
 40
0.9999999999999999
 40
0.9999999999999999
 40
0.9999999999999999
 40
0.9999999999999999
 10
164.411945728615
 20
95.9812698621279
 30
0.0
 10
164.4217890934756
 20
96.0370943583058
 30
0.0
 10
164.4393664094144
 20
96.13678027062694
 30
0.0
 10
164.4569437124946
 20
96.2364661100239
 30
0.0
 10
164.4646776579151
 20
96.2803274940808
 30
0.0
  0
SPLINE
  5
C5
330
1F
100
AcDbEntity
  8
0
  6
Continuous
 62
     7
370
    25
100
AcDbSpline
210
0.0
220
0.0
230
1.0
 70
    24
 71
     3
 72
     9
 73
     5
 74
     0
 42
0.00000001
 43
0.00000001
 40
0.0
 40
0.0
 40
0.0
 40
0.0
 40
0.559888677326948
 40
1.0
 40
1.0
 40
1.0
 40
1.0
 10
162.7159056175026
 20
96.2803274940808
 30
0.0
 10
163.0290607188471
 20
96.22510980056727
 30
0.0
 10
163.5883774438066
 20
96.12648717119541
 30
0.0
 10
164.1602556533882
 20
96.02564961316692
 30
0.0
 10
164.411945728615
 20
95.9812698621279
 30
0.0
  0
SPLINE
  5
C6
330
1F
100
AcDbEntity
  8
0
  6
Continuous
 62
     7
370
    25
100
AcDbSpline
210
0.0
220
0.0
230
1.0
 70
     8
 71
     3
 72
     9
 73
     5
 74
     0
 42
0.00000001
 43
0.00000001
 40
0.0
 40
0.0
 40
0.0
 40
0.0
 40
0.5600038649198184
 40
1.0
 40
1.0
 40
1.0
 40
1.0
 10
162.664917174173
 20
95.9812698621279
 30
0.0
 10
162.6744279208419
 20
96.03709435830581
 30
0.0
 10
162.6914112798233
 20
96.13678027062697
 30
0.0
 10
162.7084212821994
 20
96.23646611002391
 30
0.0
 10
162.7159056175026
 20
96.2803274940808
 30
0.0
  0
SPLINE
  5
C7
330
1F
100
AcDbEntity
  8
0
  6
Continuous
 62
     7
370
    25
100
AcDbSpline
210
0.0
220
0.0
230
1.0
 70
     8
 71
     3
 72
     9
 73
     5
 74
     0
 42
0.00000001
 43
0.00000001
 40
0.0
 40
0.0
 40
0.0
 40
0.0
 40
0.5598886773269448
 40
1.0
 40
1.0
 40
1.0
 40
1.0
 10
161.0827159078237
 20
96.2803274940808
 30
0.0
 10
161.3672290437364
 20
96.22510980056727
 30
0.0
 10
161.8753892324208
 20
96.12648717119541
 30
0.0
 10
162.4236301422185
 20
96.02564961316692
 30
0.0
 10
162.664917174173
 20
95.9812698621279
 30
0.0
  0
SPLINE
  5
C8
330
1F
100
AcDbEntity
  8
0
  6
Continuous
 62
     7
370
    25
100
AcDbSpline
210
0.0
220
0.0
230
1.0
 70
     8
 71
     3
 72
     9
 73
     5
 74
     0
 42
0.00000001
 43
0.00000001
 40
0.0
 40
0.0
 40
0.0
 40
0.0
 40
0.5600038649198192
 40
1.0
 40
1.0
 40
1.0
 40
1.0
 10
161.036945728615
 20
95.9812698621279
 30
0.0
 10
161.045475715424
 20
96.03709435830581
 30
0.0
 10
161.0607077295998
 20
96.13678027062697
 30
0.0
 10
161.0759912277202
 20
96.23646611002391
 30
0.0
 10
161.0827159078237
 20
96.28032749408081
 30
0.0
  0
SPLINE
  5
C9
330
1F
100
AcDbEntity
  8
0
  6
Continuous
 62
     7
370
    25
100
AcDbSpline
210
0.0
220
0.0
230
1.0
 70
     8
 71
     3
 72
     9
 73
     5
 74
     0
 42
0.00000001
 43
0.00000001
 40
0.0
 40
0.0
 40
0.0
 40
0.0
 40
0.5598886773269478
 40
1.0
 40
1.0
 40
1.0
 40
1.0
 10
159.6764077086193
 20
96.2803274940808
 30
0.0
 10
159.912889779068
 20
96.22510980056727
 30
0.0
 10
160.3352631543928
 20
96.12648717119541
 30
0.0
 10
160.8225050524148
 20
96.02564961316692
 30
0.0
 10
161.036945728615
 20
95.9812698621279
 30
0.0
  0
SPLINE
  5
CA
330
1F
100
AcDbEntity
  8
0
  6
Continuous
 62
     7
370
    25
100
AcDbSpline
210
0.0
220
0.0
230
1.0
 70
     8
 71
     3
 72
     9
 73
     5
 74
     0
 42
0.00000001
 43
0.00000001
 40
0.0
 40
0.0
 40
0.0
 40
0.0
 40
0.5600038649198423
 40
1.0
 40
1.0
 40
1.0
 40
1.0
 10
159.6389749556058
 20
95.9812698621279
 30
0.0
 10
159.6459428780502
 20
96.03709435830581
 30
0.0
 10
159.6583855108265
 20
96.13678027062697
 30
0.0
 10
159.6709009595514
 20
96.2364661100239
 30
0.0
 10
159.6764077086193
 20
96.2803274940808
 30
0.0
  0
SPLINE
  5
CB
330
1F
100
AcDbEntity
  8
0
  6
Continuous
 62
     7
370
    25
100
AcDbSpline
210
0.0
220
0.0
230
1.0
 70
     8
 71
     3
 72
     9
 73
     5
 74
     0
 42
0.00000001
 43
0.00000001
 40
0.0
 40
0.0
 40
0.0
 40
0.0
 40
0.5598886773269471
 40
1.0
 40
1.0
 40
1.0
 40
1.0
 10
158.5928185996309
 20
96.2803274940808
 30
0.0
 10
158.7651537423197
 20
96.22510980056728
 30
0.0
 10
159.0729562567616
 20
96.12648717119542
 30
0.0
 10
159.465994412863
 20
96.02564961316692
 30
0.0
 10
159.6389749556058
 20
95.9812698621279
 30
0.0
  0
SPLINE
  5
CC
330
1F
100
AcDbEntity
  8
0
  6
Continuous
 62
     7
370
    25
100
AcDbSpline
210
0.0
220
0.0
230
1.0
 70
     8
 71
     3
 72
     9
 73
     5
 74
     0
 42
0.00000001
 43
0.00000001
 40
0.0
 40
0.0
 40
0.0
 40
0.0
 40
0.5600038649197953
 40
1.0
 40
1.0
 40
1.0
 40
1.0
 10
158.56627425307
 20
95.9812698621279
 30
0.0
 10
158.5712052587505
 20
96.0370943583058
 30
0.0
 10
158.5800105652658
 20
96.13678027062696
 30
0.0
 10
158.5889050574475
 20
96.2364661100239
 30
0.0
 10
158.5928185996309
 20
96.2803274940808
 30
0.0
  0
SPLINE
  5
CD
330
1F
100
AcDbEntity
  8
0
  6
Continuous
 62
     7
370
    25
100
AcDbSpline
210
0.0
220
0.0
230
1.0
 70
     8
 71
     3
 72
     9
 73
     5
 74
     0
 42
0.00000001
 43
0.00000001
 40
0.0
 40
0.0
 40
0.0
 40
0.0
 40
0.5598886773269505
 40
1.0
 40
1.0
 40
1.0
 40
1.0
 10
157.9057933879206
 20
96.2803274940808
 30
0.0
 10
158.0022372476725
 20
96.22510980056728
 30
0.0
 10
158.1744926685399
 20
96.12648717119541
 30
0.0
 10
158.4465421819087
 20
96.02564961316693
 30
0.0
 10
158.56627425307
 20
95.9812698621279
 30
0.0
  0
SPLINE
  5
CE
330
1F
100
AcDbEntity
  8
0
  6
Continuous
 62
     7
370
    25
100
AcDbSpline
210
0.0
220
0.0
230
1.0
 70
     8
 71
     3
 72
     9
 73
     5
 74
     0
 42
0.00000001
 43
0.00000001
 40
0.0
 40
0.0
 40
0.0
 40
0.0
 40
0.5600038649198184
 40
1.0
 40
1.0
 40
1.0
 40
1.0
 10
157.8919464011638
 20
95.9812698621279
 30
0.0
 10
157.8945044501919
 20
96.03709435830581
 30
0.0
 10
157.8990723633588
 20
96.13678027062697
 30
0.0
 10
157.9037397540539
 20
96.23646611002391
 30
0.0
 10
157.9057933879206
 20
96.2803274940808
 30
0.0
  0
SPLINE
  5
CF
330
1F
100
AcDbEntity
  8
0
  6
Continuous
 62
     7
370
    25
100
AcDbSpline
210
0.0
220
0.0
230
1.0
 70
     8
 71
     3
 72
     9
 73
     5
 74
     0
 42
0.00000001
 43
0.00000001
 40
0.0
 40
0.0
 40
0.0
 40
0.0
 40
0.5598886773269466
 40
1.0
 40
1.0
 40
1.0
 40
1.0
 10
157.6621517063035
 20
96.2803274940808
 30
0.0
 10
157.6761317934574
 20
96.22510980056727
 30
0.0
 10
157.7011011984837
 20
96.12648717119541
 30
0.0
 10
157.833622344367
 20
96.02564961316693
 30
0.0
 10
157.8919464011638
 20
95.9812698621279
 30
0.0
  0
SPLINE
  5
D0
330
1F
100
AcDbEntity
  8
0
  6
Continuous
 62
     7
370
    25
100
AcDbSpline
210
0.0
220
0.0
230
1.0
 70
     8
 71
     3
 72
     9
 73
     5
 74
     0
 42
0.00000001
 43
0.00000001
 40
0.0
 40
0.0
 40
0.0
 40
0.0
 40
0.5600038649197977
 40
0.9999999999999999
 40
0.9999999999999999
 40
0.9999999999999999
 40
0.9999999999999999
 10
157.661945728615
 20
95.9812698621279
 30
0.0
 10
157.6619564941769
 20
96.0370943583058
 30
0.0
 10
157.6619757182619
 20
96.13678027062694
 30
0.0
 10
157.6620979325077
 20
96.2364661100239
 30
0.0
 10
157.6621517063035
 20
96.2803274940808
 30
0.0
  0
LINE
  5
D1
330
1F
100
AcDbEntity
  8
0
  6
Continuous
 62
     7
370
    25
100
AcDbLine
 10
165.2627611445
 20
95.9812698621
 30
0.0
 11
166.1589742831
 21
95.9812698621
 31
0.0
  0
LINE
  5
D2
330
1F
100
AcDbEntity
  8
0
  6
Continuous
 62
     7
370
    25
100
AcDbLine
 10
165.2627611445
 20
95.9812698621
 30
0.0
 11
164.4370855959
 21
96.1238451343
 31
0.0
  0
LINE
  5
D3
330
1F
100
AcDbEntity
  8
0
  6
Continuous
 62
     7
370
    25
100
AcDbLine
 10
163.6033611797
 20
96.1238451343
 30
0.0
 11
163.5611303127
 21
95.9812698621
 31
0.0
  0
LINE
  5
D4
330
1F
100
AcDbEntity
  8
0
  6
Continuous
 62
     7
370
    25
100
AcDbLine
 10
163.5611303127
 20
95.9812698621
 30
0.0
 11
162.6649171742
 21
95.9812698621
 31
0.0
  0
LINE
  5
D5
330
1F
100
AcDbEntity
  8
0
  6
Continuous
 62
     7
370
    25
100
AcDbLine
 10
167.7869457286
 20
95.9812698621
 30
0.0
 11
166.1589742831
 21
95.9812698621
 31
0.0
  0
LINE
  5
D6
330
1F
100
AcDbEntity
  8
0
  6
Continuous
 62
     7
370
    25
100
AcDbLine
 10
162.6649171742
 20
95.9812698621
 30
0.0
 11
161.0369457286
 21
95.9812698621
 31
0.0
  0
LINE
  5
D7
330
1F
100
AcDbEntity
  8
0
  6
Continuous
 62
     7
370
    25
100
AcDbLine
 10
167.8152478011
 20
95.9812698621
 30
0.0
 11
169.1849165016
 21
95.9812698621
 31
0.0
  0
LINE
  5
D8
330
1F
100
AcDbEntity
  8
0
  6
Continuous
 62
     7
370
    25
100
AcDbLine
 10
160.9740017505
 20
95.9812698621
 30
0.0
 11
159.6389749556
 21
95.9812698621
 31
0.0
  0
LINE
  5
D9
330
1F
100
AcDbEntity
  8
0
  6
Continuous
 62
     7
370
    25
100
AcDbLine
 10
169.2478604797
 20
95.9812698621
 30
0.0
 11
170.2576172042
 21
95.9812698621
 31
0.0
  0
SPLINE
  5
DA
330
1F
100
AcDbEntity
  8
0
  6
Continuous
 62
     7
370
    25
100
AcDbSpline
210
0.0
220
0.0
230
1.0
 70
     8
 71
     3
 72
    19
 73
    15
 74
     0
 42
0.00000001
 43
0.00000001
 40
0.0
 40
0.0
 40
0.0
 40
0.0
 40
0.3057358733432871
 40
0.502057109799269
 40
0.7745366138409907
 40
0.893004451064352
 40
0.9479503447689228
 40
0.9745143604530669
 40
0.9936172590808313
 40
0.9983976689481739
 40
0.9995957745852021
 40
0.9998969224407289
 40
0.9999730999065325
 40
1.0
 40
1.0
 40
1.0
 40
1.0
 10
166.8850219399683
 20
98.02272174645529
 30
0.0
 10
166.8567011305792
 20
98.05659034477324
 30
0.0
 10
166.810194766921
 20
98.11220688201018
 30
0.0
 10
166.7539553725835
 20
98.23818336461146
 30
0.0
 10
166.7276869140459
 20
98.35688503522374
 30
0.0
 10
166.7220902602466
 20
98.45252046361492
 30
0.0
 10
166.7214366273397
 20
98.4954961194422
 30
0.0
 10
166.7213528020684
 20
98.51712814401873
 30
0.0
 10
166.7213470944702
 20
98.52797771553264
 30
0.0
 10
166.7212949445177
 20
98.53336790051637
 30
0.0
 10
166.7212844884151
 20
98.53471961507424
 30
0.0
 10
166.7212689344778
 20
98.53505727271816
 30
0.0
 10
166.7212671221479
 20
98.53514464488624
 30
0.0
 10
166.7212620951268
 20
98.5351662617644
 30
0.0
 10
166.7212607832279
 20
98.53517190310912
 30
0.0
  0
SPLINE
  5
DB
330
1F
100
AcDbEntity
  8
0
  6
Continuous
 62
     7
370
    25
100
AcDbSpline
210
0.0
220
0.0
230
1.0
 70
     8
 71
     3
 72
    19
 73
    15
 74
     0
 42
0.00000001
 43
0.00000001
 40
0.0
 40
0.0
 40
0.0
 40
0.0
 40
0.3057360504268158
 40
0.5020571787530791
 40
0.7745366675738729
 40
0.8930044771280493
 40
0.9479503587109336
 40
0.974514368464875
 40
0.9936172609942087
 40
0.9983976693774896
 40
0.9995957746644898
 40
0.9998969224440227
 40
0.9999730998975868
 40
1.0
 40
1.0
 40
1.0
 40
1.0
 10
169.3580981513216
 20
98.02272174645529
 30
0.0
 10
169.301218081306
 20
98.05659036644661
 30
0.0
 10
169.2078138280638
 20
98.1122069146991
 30
0.0
 10
169.0961932734313
 20
98.23818342232474
 30
0.0
 10
169.0431517230552
 20
98.35688506715188
 30
0.0
 10
169.0323930640425
 20
98.45252048391207
 30
0.0
 10
169.0310048182294
 20
98.49549612990873
 30
0.0
 10
169.0307812143451
 20
98.51712814925823
 30
0.0
 10
169.0307514810955
 20
98.52797771788808
 30
0.0
 10
169.030722247794
 20
98.53336790113075
 30
0.0
 10
169.0307167635384
 20
98.53471961529384
 30
0.0
 10
169.0307089545244
 20
98.53505727283077
 30
0.0
 10
169.0307080420433
 20
98.53514464498691
 30
0.0
 10
169.0307055271827
 20
98.53516626185764
 30
0.0
 10
169.0307048708807
 20
98.53517190320247
 30
0.0
  0
SPLINE
  5
DC
330
1F
100
AcDbEntity
  8
0
  6
Continuous
 62
     7
370
    25
100
AcDbSpline
210
0.0
220
0.0
230
1.0
 70
     8
 71
     3
 72
    19
 73
    15
 74
     0
 42
0.00000001
 43
0.00000001
 40
0.0
 40
0.0
 40
0.0
 40
0.0
 40
0.3057346352433624
 40
0.5020581146322088
 40
0.7745380345574963
 40
0.8930060660102506
 40
0.9479520738908762
 40
0.9745161477724572
 40
0.9936176329441117
 40
0.998397721630903
 40
0.9995957643931304
 40
0.9998969061304235
 40
0.9999730877037264
 40
1.0
 40
1.0
 40
1.0
 40
1.0
 10
161.9388695172617
 20
98.02272174645529
 30
0.0
 10
161.9674284945845
 20
98.05659018105487
 30
0.0
 10
162.0143262439975
 20
98.11220678598116
 30
0.0
 10
162.0697076856523
 20
98.23818304081631
 30
0.0
 10
162.0964803568183
 20
98.35688518835198
 30
0.0
 10
162.1016427038816
 20
98.45252048064282
 30
0.0
 10
162.102377477088
 20
98.4954961288583
 30
0.0
 10
162.1025172851425
 20
98.51712782334296
 30
0.0
 10
162.1025413542625
 20
98.52797703556868
 30
0.0
 10
162.1025183487811
 20
98.53336679585847
 30
0.0
 10
162.1025133545503
 20
98.53471843784227
 30
0.0
 10
162.1025055729126
 20
98.5350560702615
 30
0.0
 10
162.1025046670781
 20
98.53514344877955
 30
0.0
 10
162.1025021420819
 20
98.53516506354123
 30
0.0
 10
162.1025014829404
 20
98.53517070599962
 30
0.0
  0
SPLINE
  5
DD
330
1F
100
AcDbEntity
  8
0
  6
Continuous
 62
     7
370
    25
100
AcDbSpline
210
0.0
220
0.0
230
1.0
 70
     8
 71
     3
 72
    19
 73
    15
 74
     0
 42
0.00000001
 43
0.00000001
 40
0.0
 40
0.0
 40
0.0
 40
0.0
 40
0.305735968660748
 40
0.5020571786944118
 40
0.7745366675474002
 40
0.893004477118003
 40
0.9479503587064106
 40
0.9745143684626821
 40
0.9936172609936503
 40
0.9983976693773572
 40
0.9995957746644547
 40
0.9998969224440115
 40
0.9999730998975733
 40
1.0
 40
1.0
 40
1.0
 40
1.0
 10
159.4657933059084
 20
98.0227217464553
 30
0.0
 10
159.5226733608852
 20
98.05659035639053
 30
0.0
 10
159.6160776144009
 20
98.11220690299724
 30
0.0
 10
159.7276981763496
 20
98.23818340582544
 30
0.0
 10
159.7807397341601
 20
98.35688506705961
 30
0.0
 10
159.7914983931857
 20
98.45252048387857
 30
0.0
 10
159.7928866390004
 20
98.49549612989259
 30
0.0
 10
159.7931102428848
 20
98.51712814925101
 30
0.0
 10
159.7931399761345
 20
98.52797771788521
 30
0.0
 10
159.7931692094359
 20
98.53336790113005
 30
0.0
 10
159.7931746936915
 20
98.53471961529367
 30
0.0
 10
159.7931825027056
 20
98.53505727283073
 30
0.0
 10
159.7931834151867
 20
98.53514464498689
 30
0.0
 10
159.7931859300473
 20
98.53516626185765
 30
0.0
 10
159.7931865863493
 20
98.53517190320248
 30
0.0
  0
LINE
  5
DE
330
1F
100
AcDbEntity
  8
0
  6
Continuous
 62
     7
370
    25
100
AcDbLine
 10
159.7931435751
 20
101.4154623248
 30
0.0
 11
159.7931435751
 21
98.535498537
 31
0.0
  0
SPLINE
  5
DF
330
1F
100
AcDbEntity
  8
0
  6
Continuous
 62
     7
370
    25
100
AcDbSpline
210
0.0
220
0.0
230
1.0
 70
     8
 71
     3
 72
     9
 73
     5
 74
     0
 42
0.00000001
 43
0.00000001
 40
0.0
 40
0.0
 40
0.0
 40
0.0
 40
0.5778119623600688
 40
1.0
 40
1.0
 40
1.0
 40
1.0
 10
159.793143575098
 20
101.4154623248184
 30
0.0
 10
160.0148259786775
 20
101.4689897393552
 30
0.0
 10
160.3984843624085
 20
101.5616278604461
 30
0.0
 10
160.7847622219666
 20
101.575438974843
 30
0.0
 10
160.9478441134772
 20
101.5812698621279
 30
0.0
  0
SPLINE
  5
E0
330
1F
100
AcDbEntity
  8
0
  6
Continuous
 62
     7
370
    25
100
AcDbSpline
210
0.0
220
0.0
230
1.0
 70
     8
 71
     3
 72
     9
 73
     5
 74
     0
 42
0.00000001
 43
0.00000001
 40
0.0
 40
0.0
 40
0.0
 40
0.0
 40
0.5398560076902701
 40
1.0
 40
1.0
 40
1.0
 40
1.0
 10
160.9478441134772
 20
101.5812698621279
 30
0.0
 10
161.1563916624172
 20
101.5717563277379
 30
0.0
 10
161.5426938355322
 20
101.5541339724165
 30
0.0
 10
161.9261154838579
 20
101.4591627583934
 30
0.0
 10
162.1025446518565
 20
101.4154623248184
 30
0.0
  0
LINE
  5
E1
330
1F
100
AcDbEntity
  8
0
  6
Continuous
 62
     7
370
    25
100
AcDbLine
 10
162.1025446519
 20
101.4154623248
 30
0.0
 11
162.1025446519
 21
98.5354985371
 31
0.0
  0
SPLINE
  5
E2
330
1F
100
AcDbEntity
  8
0
  6
Continuous
 62
     7
370
    25
100
AcDbSpline
210
0.0
220
0.0
230
1.0
 70
     8
 71
     3
 72
     9
 73
     5
 74
     0
 42
0.00000001
 43
0.00000001
 40
0.0
 40
0.0
 40
0.0
 40
0.0
 40
0.5778119623600652
 40
1.0
 40
1.0
 40
1.0
 40
1.0
 10
162.1025446518565
 20
101.4154623248184
 30
0.0
 10
162.5459094590155
 20
101.4689897393552
 30
0.0
 10
163.3132262264774
 20
101.5616278604461
 30
0.0
 10
164.0857819455938
 20
101.575438974843
 30
0.0
 10
164.411945728615
 20
101.5812698621279
 30
0.0
  0
SPLINE
  5
E3
330
1F
100
AcDbEntity
  8
0
  6
Continuous
 62
     7
370
    25
100
AcDbSpline
210
0.0
220
0.0
230
1.0
 70
     8
 71
     3
 72
     9
 73
     5
 74
     0
 42
0.00000001
 43
0.00000001
 40
0.0
 40
0.0
 40
0.0
 40
0.0
 40
0.5398560076902729
 40
1.0
 40
1.0
 40
1.0
 40
1.0
 10
164.411945728615
 20
101.5812698621279
 30
0.0
 10
164.8290408264949
 20
101.5717563277379
 30
0.0
 10
165.6016451727249
 20
101.5541339724165
 30
0.0
 10
166.3684884693764
 20
101.4591627583934
 30
0.0
 10
166.7213468053735
 20
101.4154623248184
 30
0.0
  0
LINE
  5
E4
330
1F
100
AcDbEntity
  8
0
  6
Continuous
 62
     7
370
    25
100
AcDbLine
 10
166.7213468054
 20
101.4154623248
 30
0.0
 11
166.7213468054
 21
98.535498537
 31
0.0
  0
SPLINE
  5
E5
330
1F
100
AcDbEntity
  8
0
  6
Continuous
 62
     7
370
    25
100
AcDbSpline
210
0.0
220
0.0
230
1.0
 70
     8
 71
     3
 72
     9
 73
     5
 74
     0
 42
0.00000001
 43
0.00000001
 40
0.0
 40
0.0
 40
0.0
 40
0.0
 40
0.5778119623600674
 40
1.0
 40
1.0
 40
1.0
 40
1.0
 10
166.7213468053735
 20
101.4154623248184
 30
0.0
 10
166.943029208953
 20
101.4689897393552
 30
0.0
 10
167.3266875926839
 20
101.5616278604461
 30
0.0
 10
167.7129654522421
 20
101.575438974843
 30
0.0
 10
167.8760473437528
 20
101.5812698621279
 30
0.0
  0
SPLINE
  5
E6
330
1F
100
AcDbEntity
  8
0
  6
Continuous
 62
     7
370
    25
100
AcDbSpline
210
0.0
220
0.0
230
1.0
 70
     8
 71
     3
 72
     9
 73
     5
 74
     0
 42
0.00000001
 43
0.00000001
 40
0.0
 40
0.0
 40
0.0
 40
0.0
 40
0.539856007690271
 40
0.9999999999999999
 40
0.9999999999999999
 40
0.9999999999999999
 40
0.9999999999999999
 10
167.8760473437528
 20
101.5812698621279
 30
0.0
 10
168.0845948926927
 20
101.5717563277379
 30
0.0
 10
168.4708970658077
 20
101.5541339724165
 30
0.0
 10
168.8543187141334
 20
101.4591627583934
 30
0.0
 10
169.030747882132
 20
101.4154623248184
 30
0.0
  0
LINE
  5
E7
330
1F
100
AcDbEntity
  8
0
  6
Continuous
 62
     7
370
    25
100
AcDbLine
 10
169.0307478821
 20
101.4154623248
 30
0.0
 11
169.0307478821
 21
98.535498537
 31
0.0
  0
SPLINE
  5
E8
330
1F
100
AcDbEntity
  8
0
  6
Continuous
 62
     7
370
    25
100
AcDbSpline
210
0.0
220
0.0
230
1.0
 70
    24
 71
     3
 72
    11
 73
     7
 74
     0
 42
0.00000001
 43
0.00000001
 40
0.0
 40
0.0
 40
0.0
 40
0.0
 40
0.2757314499394152
 40
0.561042202741801
 40
0.7842685108023562
 40
1.0
 40
1.0
 40
1.0
 40
1.0
 10
160.9478441134772
 20
101.5812698621279
 30
0.0
 10
161.1684080761406
 20
101.5812698621279
 30
0.0
 10
161.6171987073336
 20
101.5812698621279
 30
0.0
 10
162.5433369261422
 20
101.5812698621279
 30
0.0
 10
163.4979991593336
 20
101.5812698621279
 30
0.0
 10
164.1107844624737
 20
101.5812698621279
 30
0.0
 10
164.411945728615
 20
101.5812698621279
 30
0.0
  0
SPLINE
  5
E9
330
1F
100
AcDbEntity
  8
0
  6
Continuous
 62
     7
370
    25
100
AcDbSpline
210
0.0
220
0.0
230
1.0
 70
    24
 71
     3
 72
    11
 73
     7
 74
     0
 42
0.00000001
 43
0.00000001
 40
0.0
 40
0.0
 40
0.0
 40
0.0
 40
0.2757314499394164
 40
0.5610422027418018
 40
0.7842685108023568
 40
1.0
 40
1.0
 40
1.0
 40
1.0
 10
164.411945728615
 20
101.5812698621279
 30
0.0
 10
164.7973158928796
 20
101.5812698621279
 30
0.0
 10
165.581444529194
 20
101.5812698621279
 30
0.0
 10
166.581671104365
 20
101.5812698621279
 30
0.0
 10
167.3673825995618
 20
101.5812698621279
 30
0.0
 10
167.7084334770883
 20
101.5812698621279
 30
0.0
 10
167.8760473437528
 20
101.5812698621279
 30
0.0
  0
LINE
  5
EA
330
1F
100
AcDbEntity
  8
0
  6
Continuous
 62
     7
370
    25
100
AcDbLine
 10
159.6384749556
 20
95.9812698621
 30
0.0
 11
158.5662742531
 21
95.9812698621
 31
0.0
  0
LINE
  5
EB
330
1F
100
AcDbEntity
  8
0
  6
Continuous
 62
     7
370
    25
100
AcDbLine
 10
170.3205611822
 20
95.9812698621
 30
0.0
 11
170.9319450561
 21
95.9812698621
 31
0.0
  0
SPLINE
  5
EC
330
1F
100
AcDbEntity
  8
0
  6
Continuous
 62
     7
370
    25
100
AcDbSpline
210
0.0
220
0.0
230
1.0
 70
    24
 71
     3
 72
    10
 73
     6
 74
     0
 42
0.00000001
 43
0.00000001
 40
0.0
 40
0.0
 40
0.0
 40
0.0
 40
0.121673686454443
 40
0.5683351684234823
 40
1.0
 40
1.0
 40
1.0
 40
1.0
 10
160.4418221401479
 20
101.5812698621279
 30
0.0
 10
160.4325086785946
 20
101.5812698621279
 30
0.0
 10
160.3890057003034
 20
101.5812698621279
 30
0.0
 10
160.5553284640119
 20
101.5812698621279
 30
0.0
 10
160.8185033905659
 20
101.5812698621279
 30
0.0
 10
160.9478441134772
 20
101.5812698621279
 30
0.0
  0
SPLINE
  5
ED
330
1F
100
AcDbEntity
  8
0
  6
Continuous
 62
     7
370
    25
100
AcDbSpline
210
0.0
220
0.0
230
1.0
 70
    24
 71
     3
 72
     9
 73
     5
 74
     0
 42
0.00000001
 43
0.00000001
 40
0.0
 40
0.0
 40
0.0
 40
0.0
 40
0.5512051477886614
 40
1.0
 40
1.0
 40
1.0
 40
1.0
 10
167.8760473437528
 20
101.5812698621279
 30
0.0
 10
168.0482744934934
 20
101.5812698621279
 30
0.0
 10
168.3607301199179
 20
101.5812698621279
 30
0.0
 10
168.3754590493668
 20
101.5812698621279
 30
0.0
 10
168.3820693170821
 20
101.5812698621279
 30
0.0
  0
LINE
  5
EE
330
1F
100
AcDbEntity
  8
0
  6
Continuous
 62
     7
370
    25
100
AcDbLine
 10
158.5657742531
 20
95.9812698621
 30
0.0
 11
157.8919464012
 21
95.9812698621
 31
0.0
  0
LINE
  5
EF
330
1F
100
AcDbEntity
  8
0
  6
Continuous
 62
     7
370
    25
100
AcDbLine
 10
170.9324450561
 20
95.9812698621
 30
0.0
 11
171.1619457286
 21
95.9812698621
 31
0.0
  0
LINE
  5
F0
330
1F
100
AcDbEntity
  8
0
  6
Continuous
 62
     7
370
    25
100
AcDbLine
 10
157.8914464012
 20
95.9812698621
 30
0.0
 11
157.6619457286
 21
95.9812698621
 31
0.0
  0
SPLINE
  5
F1
330
1F
100
AcDbEntity
  8
0
  6
Continuous
 62
     7
370
    25
100
AcDbSpline
210
0.0
220
0.0
230
1.0
 70
    24
 71
     3
 72
    20
 73
    16
 74
     0
 42
0.00000001
 43
0.00000001
 40
0.0
 40
0.0
 40
0.0
 40
0.0
 40
0.078914350207569
 40
0.1614952975001535
 40
0.2467152105975966
 40
0.333318619048507
 40
0.4199220274994174
 40
0.5051419405968604
 40
0.5877228878894448
 40
0.666637238097013
 40
0.7455515883045826
 40
0.8281325355971668
 40
0.9133524486946097
 40
0.9999558571455198
 40
1.0
 40
1.0
 40
1.0
 40
1.0
 10
158.5295927874385
 20
84.38126986212791
 30
0.0
 10
159.1180316647908
 20
84.38126986212791
 30
0.0
 10
160.3222500523046
 20
84.38126986212791
 30
0.0
 10
162.3248681833272
 20
84.3812698621279
 30
0.0
 10
164.4424875910228
 20
84.3812698621279
 30
0.0
 10
166.5965466738747
 20
84.38126986212791
 30
0.0
 10
168.6790998832559
 20
84.3812698621279
 30
0.0
 10
170.5945384667709
 20
84.38126986212791
 30
0.0
 10
172.2664246694142
 20
84.38126986212788
 30
0.0
 10
173.6755424441641
 20
84.38126986212791
 30
0.0
 10
174.8280539843499
 20
84.38126986212787
 30
0.0
 10
175.7239534870239
 20
84.38126986212805
 30
0.0
 10
176.2527620204605
 20
84.38126986212733
 30
0.0
 10
176.4768762837707
 20
84.38126986212916
 30
0.0
 10
176.4118795492475
 20
84.38126986212791
 30
0.0
 10
176.4118464364664
 20
84.38126986212791
 30
0.0
  0
LINE
  5
F2
330
1F
100
AcDbEntity
  8
0
  6
Continuous
 62
     7
370
    25
100
AcDbLine
 10
158.5295927874
 20
85.9052452182
 30
0.0
 11
158.5295927874
 21
84.3812698621
 31
0.0
  0
SPLINE
  5
F3
330
1F
100
AcDbEntity
  8
0
  6
Continuous
 62
     7
370
    25
100
AcDbSpline
210
0.0
220
0.0
230
1.0
 70
    24
 71
     3
 72
    19
 73
    15
 74
     0
 42
0.00000001
 43
0.00000001
 40
0.0
 40
0.0
 40
0.0
 40
0.0
 40
0.0789255291407937
 40
0.1615181747733251
 40
0.2467501600441489
 40
0.333365836653101
 40
0.4199815132620531
 40
0.5052134985328768
 40
0.5878061441654082
 40
0.6667316733062011
 40
0.7456572024469953
 40
0.8282498480795264
 40
0.91348183335035
 40
1.0
 40
1.0
 40
1.0
 40
1.0
 10
158.5295927874385
 20
93.3812698621279
 30
0.0
 10
159.1180316892697
 20
93.3812698621279
 30
0.0
 10
160.3222501268786
 20
93.38126986212788
 30
0.0
 10
162.324867864584
 20
93.38126986212788
 30
0.0
 10
164.4424888356305
 20
93.3812698621279
 30
0.0
 10
166.5965419487927
 20
93.38126986212787
 30
0.0
 10
168.6791173880089
 20
93.38126986212788
 30
0.0
 10
170.594475140049
 20
93.38126986212788
 30
0.0
 10
172.2666487237285
 20
93.38126986212788
 30
0.0
 10
173.6747466463035
 20
93.38126986212791
 30
0.0
 10
174.8310870717826
 20
93.38126986212787
 30
0.0
 10
175.711883827495
 20
93.38126986212788
 30
0.0
 10
176.2994358101501
 20
93.38126986212788
 30
0.0
 10
176.3741098181714
 20
93.38126986212788
 30
0.0
 10
176.4117264269379
 20
93.38126986212788
 30
0.0
  0
SPLINE
  5
F4
330
1F
100
AcDbEntity
  8
0
  6
Continuous
 62
     7
370
    25
100
AcDbSpline
210
0.0
220
0.0
230
1.0
 70
     8
 71
     3
 72
    12
 73
     8
 74
     0
 42
0.00000001
 43
0.00000001
 40
0.0
 40
0.0
 40
0.0
 40
0.0
 40
0.2266812865343245
 40
0.3444553246026051
 40
0.4669993127561218
 40
0.7354979026902018
 40
1.0
 40
1.0
 40
1.0
 40
1.0
 10
155.7479847219245
 20
84.38103200727187
 30
0.0
 10
155.782671569431
 20
84.38739608740852
 30
0.0
 10
155.83538024027
 20
84.39706667523153
 30
0.0
 10
156.1445482323549
 20
84.44579650006817
 30
0.0
 10
156.5834636048728
 20
84.4932887881081
 30
0.0
 10
157.3263904741858
 20
84.52404018117166
 30
0.0
 10
158.1305352023024
 20
84.42862148214988
 30
0.0
 10
158.5295927874385
 20
84.38126986212791
 30
0.0
  0
LINE
  5
F5
330
1F
100
AcDbEntity
  8
0
  6
Continuous
 62
     7
370
    25
100
AcDbLine
 10
151.9119457286
 20
87.2878832397
 30
0.0
 11
151.9119457286
 21
90.4746564846
 31
0.0
  0
LINE
  5
F6
330
1F
100
AcDbEntity
  8
0
  6
Continuous
 62
     7
370
    25
100
AcDbLine
 10
158.5295927874
 20
93.3812698621
 30
0.0
 11
151.9119457286
 21
90.4746564846
 31
0.0
  0
LINE
  5
F7
330
1F
100
AcDbEntity
  8
0
  6
Continuous
 62
     7
370
    25
100
AcDbLine
 10
158.5295927874
 20
84.3812698621
 30
0.0
 11
158.5248519963
 21
84.3823895048
 31
0.0
  0
LINE
  5
F8
330
1F
100
AcDbEntity
  8
0
  6
Continuous
 62
     7
370
    25
100
AcDbLine
 10
158.5151197331
 20
84.3846879941
 30
0.0
 11
151.9119457286
 21
85.944173615
 31
0.0
  0
SPLINE
  5
F9
330
1F
100
AcDbEntity
  8
0
  6
Continuous
 62
     7
370
    25
100
AcDbSpline
210
0.0
220
0.0
230
1.0
 70
    24
 71
     3
 72
    10
 73
     6
 74
     0
 42
0.00000001
 43
0.00000001
 40
0.0
 40
0.0
 40
0.0
 40
0.0
 40
0.499088970915944
 40
0.7495470495136743
 40
1.0
 40
1.0
 40
1.0
 40
1.0
 10
151.911945728615
 20
85.94417361496365
 30
0.0
 10
151.911945728615
 20
86.043568443659
 30
0.0
 10
151.911945728615
 20
86.19284263108251
 30
0.0
 10
151.911945728615
 20
86.4893577372715
 30
0.0
 10
151.911945728615
 20
86.6568748659885
 30
0.0
 10
151.911945728615
 20
86.74063257286289
 30
0.0
  0
LINE
  5
FA
330
1F
100
AcDbEntity
  8
0
  6
Continuous
 62
     7
370
    25
100
AcDbLine
 10
151.9119457286
 20
86.7406325729
 30
0.0
 11
151.9119457286
 21
87.2878832397
 31
0.0
  0
SPLINE
  5
FB
330
1F
100
AcDbEntity
  8
0
  6
Continuous
 62
     7
370
    25
100
AcDbSpline
210
0.0
220
0.0
230
1.0
 70
    24
 71
     3
 72
    15
 73
    11
 74
     0
 42
0.00000001
 43
0.00000001
 40
0.0
 40
0.0
 40
0.0
 40
0.0
 40
0.2343604088735688
 40
0.4611013821541379
 40
0.6632881527588381
 40
0.7914476788152702
 40
0.8937858944268138
 40
0.9650084352777633
 40
0.987357448602118
 40
1.0
 40
1.0
 40
1.0
 40
1.0
 10
151.911945728615
 20
84.38330474686717
 30
0.0
 10
151.911945728615
 20
84.40004437754814
 30
0.0
 10
151.911945728615
 20
84.43297940646725
 30
0.0
 10
151.911945728615
 20
84.6889622637923
 30
0.0
 10
151.911945728615
 20
85.01345582049092
 30
0.0
 10
151.911945728615
 20
85.34188111049386
 30
0.0
 10
151.911945728615
 20
85.60338648016531
 30
0.0
 10
151.911945728615
 20
85.78895430271413
 30
0.0
 10
151.911945728615
 20
85.89537262954056
 30
0.0
 10
151.911945728615
 20
85.93122136525835
 30
0.0
 10
151.911945728615
 20
85.94417361496365
 30
0.0
  0
LWPOLYLINE
  5
FC
330
1F
100
AcDbEntity
  8
0
  6
Continuous
 62
     7
370
    25
100
AcDbPolyline
 90
        2
 70
   128
 43
0.0
 10
158.5295927874
 20
84.3812698621
 10
158.5295927874
 20
84.3812698621
  0
SPLINE
  5
FD
330
1F
100
AcDbEntity
  8
0
  6
Continuous
 62
     7
370
    25
100
AcDbSpline
210
0.0
220
0.0
230
1.0
 70
    24
 71
     3
 72
    11
 73
     7
 74
     0
 42
0.00000001
 43
0.00000001
 40
0.0
 40
0.0
 40
0.0
 40
0.0
 40
0.2500442827497136
 40
0.5000000000000021
 40
0.7499557172502894
 40
1.0
 40
1.0
 40
1.0
 40
1.0
 10
151.911945728615
 20
90.47465648457568
 30
0.0
 10
151.911945728615
 20
90.61349010487926
 30
0.0
 10
151.911945728615
 20
90.89110817072114
 30
0.0
 10
151.911945728615
 20
91.27432867783195
 30
0.0
 10
151.911945728615
 20
91.60274319536116
 30
0.0
 10
151.911945728615
 20
91.74648331770464
 30
0.0
 10
151.911945728615
 20
91.81836610929211
 30
0.0
  0
LWPOLYLINE
  5
FE
330
1F
100
AcDbEntity
  8
0
  6
Continuous
 62
     7
370
    25
100
AcDbPolyline
 90
        2
 70
   128
 43
0.0
 10
158.5295927874
 20
93.3812698621
 10
158.5295927874
 20
93.3812698621
  0
SPLINE
  5
FF
330
1F
100
AcDbEntity
  8
0
  6
Continuous
 62
     7
370
    25
100
AcDbSpline
210
0.0
220
0.0
230
1.0
 70
     8
 71
     3
 72
    11
 73
     7
 74
     0
 42
0.00000001
 43
0.00000001
 40
0.0
 40
0.0
 40
0.0
 40
0.0
 40
0.2382867208328471
 40
0.4861633941677949
 40
0.7410811215097063
 40
1.0
 40
1.0
 40
1.0
 40
1.0
 10
65.96859453456528
 20
123.7047992738926
 30
0.0
 10
66.12761553693583
 20
123.8685124515761
 30
0.0
 10
66.45205741093629
 20
124.2025275148344
 30
0.0
 10
66.78764909955474
 20
124.5748806693635
 30
0.0
 10
67.01498451446759
 20
124.8322071592191
 30
0.0
 10
67.04331207685125
 20
124.86470382987
 30
0.0
 10
67.05758614880232
 20
124.8810786879943
 30
0.0
  0
SPLINE
  5
100
330
1F
100
AcDbEntity
  8
0
  6
Continuous
 62
     7
370
    25
100
AcDbSpline
210
0.0
220
0.0
230
1.0
 70
     8
 71
     3
 72
    11
 73
     7
 74
     0
 42
0.00000001
 43
0.00000001
 40
0.0
 40
0.0
 40
0.0
 40
0.0
 40
0.2511681577535577
 40
0.495750515692212
 40
0.7414255250192119
 40
1.0
 40
1.0
 40
1.0
 40
1.0
 10
65.53584915300249
 20
122.3812698621279
 30
0.0
 10
65.54260366507656
 20
122.5231051196079
 30
0.0
 10
65.55593558132709
 20
122.8030566177116
 30
0.0
 10
65.65361069338931
 20
123.1779365163951
 30
0.0
 10
65.79093892940415
 20
123.495008262627
 30
0.0
 10
65.9083746053502
 20
123.6336864044905
 30
0.0
 10
65.96859453456528
 20
123.7047992738926
 30
0.0
  0
SPLINE
  5
101
330
1F
100
AcDbEntity
  8
0
  6
Continuous
 62
     7
370
    25
100
AcDbSpline
210
0.0
220
0.0
230
1.0
 70
     8
 71
     3
 72
    11
 73
     7
 74
     0
 42
0.00000001
 43
0.00000001
 40
0.0
 40
0.0
 40
0.0
 40
0.0
 40
0.2496590287973831
 40
0.5044854015779217
 40
0.7516383007539765
 40
1.0
 40
1.0
 40
1.0
 40
1.0
 10
65.96859453456527
 20
121.0577404503632
 30
0.0
 10
65.91060172647664
 20
121.1264590279784
 30
0.0
 10
65.79341579806001
 20
121.2653184931899
 30
0.0
 10
65.6543040382267
 20
121.5815961591254
 30
0.0
 10
65.55516331783421
 20
121.96113260811
 30
0.0
 10
65.54229766979509
 20
122.2409965362382
 30
0.0
 10
65.53584915300249
 20
122.3812698621279
 30
0.0
  0
SPLINE
  5
102
330
1F
100
AcDbEntity
  8
0
  6
Continuous
 62
     7
370
    25
100
AcDbSpline
210
0.0
220
0.0
230
1.0
 70
     8
 71
     3
 72
    12
 73
     8
 74
     0
 42
0.00000001
 43
0.00000001
 40
0.0
 40
0.0
 40
0.0
 40
0.0
 40
0.0008212408596226
 40
0.2599443754207676
 40
0.5144985644697544
 40
0.7620319556973523
 40
1.0
 40
1.0
 40
1.0
 40
1.0
 10
67.0575171136198
 20
119.8815396819218
 30
0.0
 10
67.0575962897717
 20
119.8814494829784
 30
0.0
 10
67.08265762849139
 20
119.8528991402729
 30
0.0
 10
66.99730431804902
 20
119.9504770150322
 30
0.0
 10
66.79224463025598
 20
120.1823778850159
 30
0.0
 10
66.45099543768627
 20
120.5612168351261
 30
0.0
 10
66.12726881549287
 20
120.8944208398451
 30
0.0
 10
65.96859453456528
 20
121.0577404503632
 30
0.0
  0
SPLINE
  5
103
330
1F
100
AcDbEntity
  8
0
  6
Continuous
 62
     7
370
    25
100
AcDbSpline
210
0.0
220
0.0
230
1.0
 70
    24
 71
     3
 72
    16
 73
    12
 74
     0
 42
0.00000001
 43
0.00000001
 40
0.0
 40
0.0
 40
0.0
 40
0.0
 40
0.0124960137286986
 40
0.0490267506768174
 40
0.1049879404548844
 40
0.2061618471484846
 40
0.3328740967345138
 40
0.5327488237104693
 40
0.756834493253167
 40
0.9930395067663583
 40
0.9999999999999999
 40
0.9999999999999999
 40
0.9999999999999999
 40
0.9999999999999999
 10
151.911945728615
 20
91.81836610929211
 30
0.0
 10
151.911945728615
 20
91.83133038902055
 30
0.0
 10
151.911945728615
 20
91.8821943304142
 30
0.0
 10
151.911945728615
 20
91.987759237792
 30
0.0
 10
151.911945728615
 20
92.1720796925205
 30
0.0
 10
151.911945728615
 20
92.42071490400508
 30
0.0
 10
151.911945728615
 20
92.74777270747364
 30
0.0
 10
151.911945728615
 20
93.07834691108971
 30
0.0
 10
151.911945728615
 20
93.31242314479378
 30
0.0
 10
151.9119457286149
 20
93.41070802459697
 30
0.0
 10
151.911945728615
 20
93.37924085983525
 30
0.0
 10
151.911945728615
 20
93.37834012769468
 30
0.0
  0
LWPOLYLINE
  5
104
330
1F
100
AcDbEntity
  8
0
  6
Continuous
 62
     7
370
    25
100
AcDbPolyline
 90
        2
 70
   128
 43
0.0
 10
158.5295927874
 20
93.3812698621
 10
158.5295927874
 20
93.3812698621
  0
LINE
  5
105
330
1F
100
AcDbEntity
  8
0
  6
Continuous
 62
     7
370
    25
100
AcDbLine
 10
131.9119459277
 20
110.1268517916
 30
0.0
 11
131.9119459277
 21
109.4178743087
 31
0.0
  0
LINE
  5
106
330
1F
100
AcDbEntity
  8
0
  6
Continuous
 62
     7
370
    25
100
AcDbLine
 10
131.9119457286
 20
113.3446651818
 30
0.0
 11
131.9119457286
 21
112.6356877052
 31
0.0
  0
SPLINE
  5
107
330
1F
100
AcDbEntity
  8
0
  6
Continuous
 62
     7
370
    25
100
AcDbSpline
210
0.0
220
0.0
230
1.0
 70
    24
 71
     3
 72
    10
 73
     6
 74
     0
 42
0.00000001
 43
0.00000001
 40
0.0
 40
0.0
 40
0.0
 40
0.0
 40
0.3003378051443699
 40
0.5907622632588496
 40
1.0
 40
1.0
 40
1.0
 40
1.0
 10
131.911945728615
 20
111.4314100391869
 30
0.0
 10
131.911945728615
 20
111.2833360853593
 30
0.0
 10
131.911945728615
 20
110.9920757025686
 30
0.0
 10
131.911945728615
 20
110.535587644439
 30
0.0
 10
131.911945728615
 20
110.2776952443715
 30
0.0
 10
131.911945728615
 20
110.126852019023
 30
0.0
  0
SPLINE
  5
108
330
1F
100
AcDbEntity
  8
0
  6
Continuous
 62
     7
370
    25
100
AcDbSpline
210
0.0
220
0.0
230
1.0
 70
    24
 71
     3
 72
    10
 73
     6
 74
     0
 42
0.00000001
 43
0.00000001
 40
0.0
 40
0.0
 40
0.0
 40
0.0
 40
0.4058341963373358
 40
0.6965048340556129
 40
1.0
 40
1.0
 40
1.0
 40
1.0
 10
131.911945728615
 20
112.6356877052328
 30
0.0
 10
131.911945728615
 20
112.4968533469269
 30
0.0
 10
131.911945728615
 20
112.2585816523142
 30
0.0
 10
131.911945728615
 20
111.8409140482619
 30
0.0
 10
131.911945728615
 20
111.5698615163003
 30
0.0
 10
131.911945728615
 20
111.4314100391869
 30
0.0
  0
SPLINE
  5
109
330
1F
100
AcDbEntity
  8
0
  6
Continuous
 62
     7
370
    25
100
AcDbSpline
210
0.0
220
0.0
230
1.0
 70
    24
 71
     3
 72
    14
 73
    10
 74
     0
 42
0.00000001
 43
0.00000001
 40
0.0
 40
0.0
 40
0.0
 40
0.0
 40
0.0323221501609749
 40
0.1374630208189224
 40
0.3070269494003953
 40
0.5070998081963421
 40
0.7432446574511575
 40
0.999437778356846
 40
1.0
 40
1.0
 40
1.0
 40
1.0
 10
131.911945728615
 20
109.4178745424639
 30
0.0
 10
131.911945728615
 20
109.3923579968702
 30
0.0
 10
131.911945728615
 20
109.283838562962
 30
0.0
 10
131.911945728615
 20
109.0754494788265
 30
0.0
 10
131.911945728615
 20
108.8145954223131
 30
0.0
 10
131.9119457286149
 20
108.579582406158
 30
0.0
 10
131.9119457286152
 20
108.4272297663466
 30
0.0
 10
131.9119457286145
 20
108.3618703046048
 30
0.0
 10
131.911945728615
 20
108.3817191069696
 30
0.0
 10
131.911945728615
 20
108.3817625702377
 30
0.0
  0
SPLINE
  5
10A
330
1F
100
AcDbEntity
  8
0
  6
Continuous
 62
     7
370
    25
100
AcDbSpline
210
0.0
220
0.0
230
1.0
 70
    24
 71
     3
 72
    14
 73
    10
 74
     0
 42
0.00000001
 43
0.00000001
 40
0.0
 40
0.0
 40
0.0
 40
0.0
 40
0.2556682194950971
 40
0.4919404342299304
 40
0.6923024170932683
 40
0.8125633718526452
 40
0.9048914269017804
 40
0.967662160987871
 40
1.0
 40
1.0
 40
1.0
 40
1.0
 10
131.911945728615
 20
114.3807281963825
 30
0.0
 10
131.911945728615
 20
114.3699757546834
 30
0.0
 10
131.911945728615
 20
114.3492865941419
 30
0.0
 10
131.911945728615
 20
114.180358122642
 30
0.0
 10
131.911945728615
 20
113.9669448713567
 30
0.0
 10
131.911945728615
 20
113.7501412494757
 30
0.0
 10
131.911945728615
 20
113.5778594463012
 30
0.0
 10
131.911945728615
 20
113.445380951227
 30
0.0
 10
131.911945728615
 20
113.3702204742795
 30
0.0
 10
131.911945728615
 20
113.3446651817919
 30
0.0
  0
SPLINE
  5
10B
330
1F
100
AcDbEntity
  8
0
  6
Continuous
 62
     7
370
    25
100
AcDbSpline
210
0.0
220
0.0
230
1.0
 70
    24
 71
     3
 72
    11
 73
     7
 74
     0
 42
0.00000001
 43
0.00000001
 40
0.0
 40
0.0
 40
0.0
 40
0.0
 40
0.2466210548154663
 40
0.5024533946839369
 40
0.7564776551724525
 40
1.0
 40
1.0
 40
1.0
 40
1.0
 10
67.411945728615
 20
121.0577404503632
 30
0.0
 10
67.41194572861498
 20
121.1364401640596
 30
0.0
 10
67.41194572861498
 20
121.296779022139
 30
0.0
 10
67.41194572861495
 20
121.6620895066422
 30
0.0
 10
67.41194572861504
 20
122.081244273228
 30
0.0
 10
67.41194572861501
 20
122.3738024208429
 30
0.0
 10
67.411945728615
 20
122.5169939235974
 30
0.0
  0
SPLINE
  5
10C
330
1F
100
AcDbEntity
  8
0
  6
Continuous
 62
     7
370
    25
100
AcDbSpline
210
0.0
220
0.0
230
1.0
 70
    24
 71
     3
 72
    11
 73
     7
 74
     0
 42
0.00000001
 43
0.00000001
 40
0.0
 40
0.0
 40
0.0
 40
0.0
 40
0.2482838598124483
 40
0.5029083505071403
 40
0.756010670372716
 40
1.0
 40
1.0
 40
1.0
 40
1.0
 10
67.411945728615
 20
122.5169939235974
 30
0.0
 10
67.41194572861498
 20
122.6386927904797
 30
0.0
 10
67.41194572861498
 20
122.8851984491585
 30
0.0
 10
67.41194572861498
 20
123.2211975724387
 30
0.0
 10
67.41194572861495
 20
123.5094471584447
 30
0.0
 10
67.41194572861498
 20
123.6404826431433
 30
0.0
 10
67.411945728615
 20
123.7047992738926
 30
0.0
  0
SPLINE
  5
10D
330
1F
100
AcDbEntity
  8
0
  6
Continuous
 62
     7
370
    25
100
AcDbSpline
210
0.0
220
0.0
230
1.0
 70
    24
 71
     3
 72
     9
 73
     5
 74
     0
 42
0.00000001
 43
0.00000001
 40
0.0
 40
0.0
 40
0.0
 40
0.0
 40
0.5599999999999714
 40
1.0
 40
1.0
 40
1.0
 40
1.0
 10
67.411945728615
 20
120.6504857928894
 30
0.0
 10
67.411945728615
 20
120.7210145485879
 30
0.0
 10
67.41194572861497
 20
120.8469587551925
 30
0.0
 10
67.41194572861498
 20
120.9933349323944
 30
0.0
 10
67.411945728615
 20
121.0577404503632
 30
0.0
  0
SPLINE
  5
10E
330
1F
100
AcDbEntity
  8
0
  6
Continuous
 62
     7
370
    25
100
AcDbSpline
210
0.0
220
0.0
230
1.0
 70
    24
 71
     3
 72
     9
 73
     5
 74
     0
 42
0.00000001
 43
0.00000001
 40
0.0
 40
0.0
 40
0.0
 40
0.0
 40
0.560000000000013
 40
1.0
 40
1.0
 40
1.0
 40
1.0
 10
67.411945728615
 20
123.7047992738926
 30
0.0
 10
67.411945728615
 20
123.7863271350917
 30
0.0
 10
67.41194572861501
 20
123.9319126015186
 30
0.0
 10
67.41194572861501
 20
124.0570107472463
 30
0.0
 10
67.411945728615
 20
124.1120539313665
 30
0.0
  0
SPLINE
  5
10F
330
1F
100
AcDbEntity
  8
0
  6
Continuous
 62
     7
370
    25
100
AcDbSpline
210
0.0
220
0.0
230
1.0
 70
    24
 71
     3
 72
    10
 73
     6
 74
     0
 42
0.00000001
 43
0.00000001
 40
0.0
 40
0.0
 40
0.0
 40
0.0
 40
0.4946965781724098
 40
0.9991898846205666
 40
1.0
 40
1.0
 40
1.0
 40
1.0
 10
67.411945728615
 20
124.1120539313664
 30
0.0
 10
67.41194572861478
 20
124.3197479106388
 30
0.0
 10
67.41194572861438
 20
124.7392489388292
 30
0.0
 10
67.41194572861629
 20
124.9472608577612
 30
0.0
 10
67.41194572861494
 20
124.8810580263088
 30
0.0
 10
67.41194572861497
 20
124.8809518882349
 30
0.0
  0
SPLINE
  5
110
330
1F
100
AcDbEntity
  8
0
  6
Continuous
 62
     7
370
    25
100
AcDbSpline
210
0.0
220
0.0
230
1.0
 70
    24
 71
     3
 72
     9
 73
     5
 74
     0
 42
0.00000001
 43
0.00000001
 40
0.0
 40
0.0
 40
0.0
 40
0.0
 40
0.5045698486184769
 40
1.0
 40
1.0
 40
1.0
 40
1.0
 10
67.41194572861501
 20
119.8815330614832
 30
0.0
 10
67.41194572861501
 20
119.9151594180066
 30
0.0
 10
67.41194572861498
 20
119.9818030286295
 30
0.0
 10
67.41194572861501
 20
120.428953812397
 30
0.0
 10
67.411945728615
 20
120.6504857928893
 30
0.0
  0
SPLINE
  5
111
330
1F
100
AcDbEntity
  8
0
  6
Continuous
 62
     7
370
    25
100
AcDbSpline
210
0.0
220
0.0
230
1.0
 70
     8
 71
     3
 72
     9
 73
     5
 74
     0
 42
0.00000001
 43
0.00000001
 40
0.0
 40
0.0
 40
0.0
 40
0.0
 40
0.4987908233251052
 40
1.0
 40
1.0
 40
1.0
 40
1.0
 10
122.911945728615
 20
72.37165091889447
 30
0.0
 10
122.9424323747517
 20
71.6490946448693
 30
0.0
 10
123.0035534794535
 20
70.2004788319151
 30
0.0
 10
123.3567157984093
 20
68.76233485738598
 30
0.0
 10
123.5337239935257
 20
68.04152389997229
 30
0.0
  0
SPLINE
  5
112
330
1F
100
AcDbEntity
  8
0
  6
Continuous
 62
     7
370
    25
100
AcDbSpline
210
0.0
220
0.0
230
1.0
 70
     8
 71
     3
 72
     9
 73
     5
 74
     0
 42
0.00000001
 43
0.00000001
 40
0.0
 40
0.0
 40
0.0
 40
0.0
 40
0.4989631660071377
 40
1.0
 40
1.0
 40
1.0
 40
1.0
 10
123.5337239935257
 20
68.04152389997229
 30
0.0
 10
123.3574266687161
 20
66.60637915852804
 30
0.0
 10
123.0040993355178
 20
63.73012528005297
 30
0.0
 10
122.9427060340239
 20
60.83289096878239
 30
0.0
 10
122.911945728615
 20
59.38126986212789
 30
0.0
  0
LINE
  5
113
330
1F
100
AcDbEntity
  8
0
  6
Continuous
 62
     7
370
    25
100
AcDbLine
 10
122.9119457286
 20
72.3716509189
 30
0.0
 11
122.9119457286
 21
59.3812698621
 31
0.0
  0
SPLINE
  5
114
330
1F
100
AcDbEntity
  8
0
  6
Continuous
 62
     7
370
    25
100
AcDbSpline
210
0.0
220
0.0
230
1.0
 70
     8
 71
     3
 72
    11
 73
     7
 74
     0
 42
0.00000001
 43
0.00000001
 40
0.0
 40
0.0
 40
0.0
 40
0.0
 40
0.2564837241299844
 40
0.5133500729626946
 40
0.7565707299855753
 40
1.0
 40
1.0
 40
1.0
 40
1.0
 10
122.911945728615
 20
59.38126986212789
 30
0.0
 10
122.920480723502
 20
58.63837880359802
 30
0.0
 10
122.9375634458574
 20
57.15148843504434
 30
0.0
 10
123.071919293107
 20
54.96365830486612
 30
0.0
 10
123.2671383039549
 20
52.81878081693412
 30
0.0
 10
123.4448367055841
 20
51.42047062711165
 30
0.0
 10
123.5337239935257
 20
50.7210158242835
 30
0.0
  0
SPLINE
  5
115
330
1F
100
AcDbEntity
  8
0
  6
Continuous
 62
     7
370
    25
100
AcDbSpline
210
0.0
220
0.0
230
1.0
 70
     8
 71
     3
 72
     9
 73
     5
 74
     0
 42
0.00000001
 43
0.00000001
 40
0.0
 40
0.0
 40
0.0
 40
0.0
 40
0.4989631660071376
 40
1.0
 40
1.0
 40
1.0
 40
1.0
 10
123.5337239935257
 20
50.7210158242835
 30
0.0
 10
123.3574266687161
 20
50.00344345356138
 30
0.0
 10
123.0040993355178
 20
48.56531651432385
 30
0.0
 10
122.9427060340239
 20
47.11669935868856
 30
0.0
 10
122.911945728615
 20
46.39088880536131
 30
0.0
  0
LINE
  5
116
330
1F
100
AcDbEntity
  8
0
  6
Continuous
 62
     7
370
    25
100
AcDbLine
 10
122.9119457286
 20
46.3908888054
 30
0.0
 11
122.9119457286
 21
59.3812698621
 31
0.0
  0
LINE
  5
117
330
1F
100
AcDbEntity
  8
0
  6
Continuous
 62
     7
370
    25
100
AcDbLine
 10
128.2400064864
 20
68.8007580833
 30
0.0
 11
128.9471132676
 21
68.0415239
 31
0.0
  0
SPLINE
  5
118
330
1F
100
AcDbEntity
  8
0
  6
Continuous
 62
     7
370
    25
100
AcDbSpline
210
0.0
220
0.0
230
1.0
 70
     8
 71
     3
 72
     9
 73
     5
 74
     0
 42
0.00000001
 43
0.00000001
 40
0.0
 40
0.0
 40
0.0
 40
0.0
 40
0.5699310889288282
 40
1.0
 40
1.0
 40
1.0
 40
1.0
 10
128.9471132675708
 20
68.04152389997228
 30
0.0
 10
128.806803443164
 20
67.7558178328311
 30
0.0
 10
128.5606160932679
 20
67.25451851315698
 30
0.0
 10
128.3364243746719
 20
66.74303058816992
 30
0.0
 10
128.2400064863842
 20
66.52305553324467
 30
0.0
  0
LINE
  5
119
330
1F
100
AcDbEntity
  8
0
  6
Continuous
 62
     7
370
    25
100
AcDbLine
 10
128.2400064864
 20
66.5230555332
 30
0.0
 11
128.2400064864
 21
68.8007580833
 31
0.0
  0
LINE
  5
11A
330
1F
100
AcDbEntity
  8
0
  6
Continuous
 62
     7
370
    25
100
AcDbLine
 10
130.948724048
 20
68.0415239
 30
0.0
 11
131.6558308292
 21
68.8007580833
 31
0.0
  0
LINE
  5
11B
330
1F
100
AcDbEntity
  8
0
  6
Continuous
 62
     7
370
    25
100
AcDbLine
 10
131.6558308292
 20
66.5230555332
 30
0.0
 11
131.6558308292
 21
68.8007580833
 31
0.0
  0
LINE
  5
11C
330
1F
100
AcDbEntity
  8
0
  6
Continuous
 62
     7
370
    25
100
AcDbLine
 10
131.6558308292
 20
66.5230555332
 30
0.0
 11
130.948724048
 21
68.0415239
 31
0.0
  0
LINE
  5
11D
330
1F
100
AcDbEntity
  8
0
  6
Continuous
 62
     7
370
    25
100
AcDbLine
 10
127.5328997052
 20
68.0415239
 30
0.0
 11
128.2400064864
 21
68.8007580833
 31
0.0
  0
LINE
  5
11E
330
1F
100
AcDbEntity
  8
0
  6
Continuous
 62
     7
370
    25
100
AcDbLine
 10
128.2400064864
 20
66.5230555332
 30
0.0
 11
127.5328997052
 21
68.0415239
 31
0.0
  0
LINE
  5
11F
330
1F
100
AcDbEntity
  8
0
  6
Continuous
 62
     7
370
    25
100
AcDbLine
 10
139.5119457286
 20
76.7017779378
 30
0.0
 11
132.3629376104
 21
76.7017779378
 31
0.0
  0
LINE
  5
120
330
1F
100
AcDbEntity
  8
0
  6
Continuous
 62
     7
370
    25
100
AcDbLine
 10
139.5119457286
 20
76.7017779378
 30
0.0
 11
139.5119457286
 21
68.0415239
 31
0.0
  0
LINE
  5
121
330
1F
100
AcDbEntity
  8
0
  6
Continuous
 62
     7
370
    25
100
AcDbLine
 10
139.5119457286
 20
68.0415239
 30
0.0
 11
132.3629376104
 21
68.0415239
 31
0.0
  0
LINE
  5
122
330
1F
100
AcDbEntity
  8
0
  6
Continuous
 62
     7
370
    25
100
AcDbLine
 10
131.6558308292
 20
68.8007580833
 30
0.0
 11
132.3629376104
 21
68.0415239
 31
0.0
  0
LINE
  5
123
330
1F
100
AcDbEntity
  8
0
  6
Continuous
 62
     7
370
    25
100
AcDbLine
 10
130.948724048
 20
68.0415239
 30
0.0
 11
128.9471132676
 21
68.0415239
 31
0.0
  0
LINE
  5
124
330
1F
100
AcDbEntity
  8
0
  6
Continuous
 62
     7
370
    25
100
AcDbLine
 10
127.5328997052
 20
68.0415239
 30
0.0
 11
123.5337239935
 21
68.0415239
 31
0.0
  0
SPLINE
  5
125
330
1F
100
AcDbEntity
  8
0
  6
Continuous
 62
     7
370
    25
100
AcDbSpline
210
0.0
220
0.0
230
1.0
 70
     8
 71
     3
 72
     9
 73
     5
 74
     0
 42
0.00000001
 43
0.00000001
 40
0.0
 40
0.0
 40
0.0
 40
0.0
 40
0.4989631660071377
 40
1.0
 40
1.0
 40
1.0
 40
1.0
 10
123.5337239935257
 20
76.70177793781667
 30
0.0
 10
123.3574266687161
 20
75.98420556709455
 30
0.0
 10
123.0040993355178
 20
74.546078627857
 30
0.0
 10
122.9427060340239
 20
73.09746147222172
 30
0.0
 10
122.911945728615
 20
72.37165091889447
 30
0.0
  0
LINE
  5
126
330
1F
100
AcDbEntity
  8
0
  6
Continuous
 62
     7
370
    25
100
AcDbLine
 10
127.5328997052
 20
76.7017779378
 30
0.0
 11
123.5337239935
 21
76.7017779378
 31
0.0
  0
LINE
  5
127
330
1F
100
AcDbEntity
  8
0
  6
Continuous
 62
     7
370
    25
100
AcDbLine
 10
128.2400064864
 20
75.9425437545
 30
0.0
 11
127.5328997052
 21
76.7017779378
 31
0.0
  0
LINE
  5
128
330
1F
100
AcDbEntity
  8
0
  6
Continuous
 62
     7
370
    25
100
AcDbLine
 10
128.9471132676
 20
76.7017779378
 30
0.0
 11
128.2400064864
 21
75.9425437545
 31
0.0
  0
LINE
  5
129
330
1F
100
AcDbEntity
  8
0
  6
Continuous
 62
     7
370
    25
100
AcDbLine
 10
130.948724048
 20
76.7017779378
 30
0.0
 11
128.9471132676
 21
76.7017779378
 31
0.0
  0
LINE
  5
12A
330
1F
100
AcDbEntity
  8
0
  6
Continuous
 62
     7
370
    25
100
AcDbLine
 10
131.6558308292
 20
75.9425437545
 30
0.0
 11
130.948724048
 21
76.7017779378
 31
0.0
  0
SPLINE
  5
12B
330
1F
100
AcDbEntity
  8
0
  6
Continuous
 62
     7
370
    25
100
AcDbSpline
210
0.0
220
0.0
230
1.0
 70
     8
 71
     3
 72
     9
 73
     5
 74
     0
 42
0.00000001
 43
0.00000001
 40
0.0
 40
0.0
 40
0.0
 40
0.0
 40
0.4997995207902806
 40
1.0
 40
1.0
 40
1.0
 40
1.0
 10
132.3629376103981
 20
76.70177793781667
 30
0.0
 10
132.2396678201036
 20
76.57656232222998
 30
0.0
 10
131.9930293477427
 20
76.3260306382686
 30
0.0
 10
131.7682603763924
 20
76.07040688055737
 30
0.0
 10
131.6558308292116
 20
75.94254375445283
 30
0.0
  0
SPLINE
  5
12C
330
1F
100
AcDbEntity
  8
0
  6
Continuous
 62
     7
370
    25
100
AcDbSpline
210
0.0
220
0.0
230
1.0
 70
     8
 71
     3
 72
     9
 73
     5
 74
     0
 42
0.00000001
 43
0.00000001
 40
0.0
 40
0.0
 40
0.0
 40
0.0
 40
0.5699310889288114
 40
0.9999999999999999
 40
0.9999999999999999
 40
0.9999999999999999
 40
0.9999999999999999
 10
127.5328997051977
 20
50.7210158242835
 30
0.0
 10
127.6732095296044
 20
51.00672189142467
 30
0.0
 10
127.9193968795005
 20
51.50802121109883
 30
0.0
 10
128.1435885980964
 20
52.01950913608592
 30
0.0
 10
128.2400064863842
 20
52.23948419101118
 30
0.0
  0
LINE
  5
12D
330
1F
100
AcDbEntity
  8
0
  6
Continuous
 62
     7
370
    25
100
AcDbLine
 10
128.2400064864
 20
49.9617816409
 30
0.0
 11
128.2400064864
 21
52.239484191
 31
0.0
  0
LINE
  5
12E
330
1F
100
AcDbEntity
  8
0
  6
Continuous
 62
     7
370
    25
100
AcDbLine
 10
128.2400064864
 20
49.9617816409
 30
0.0
 11
127.5328997052
 21
50.7210158243
 31
0.0
  0
LINE
  5
12F
330
1F
100
AcDbEntity
  8
0
  6
Continuous
 62
     7
370
    25
100
AcDbLine
 10
139.5119457286
 20
68.0415239
 30
0.0
 11
139.5119457286
 21
50.7210158243
 31
0.0
  0
LINE
  5
130
330
1F
100
AcDbEntity
  8
0
  6
Continuous
 62
     7
370
    25
100
AcDbLine
 10
139.5119457286
 20
50.7210158243
 30
0.0
 11
132.3629376104
 21
50.7210158243
 31
0.0
  0
LINE
  5
131
330
1F
100
AcDbEntity
  8
0
  6
Continuous
 62
     7
370
    25
100
AcDbLine
 10
131.6558308292
 20
52.239484191
 30
0.0
 11
132.3629376104
 21
50.7210158243
 31
0.0
  0
SPLINE
  5
132
330
1F
100
AcDbEntity
  8
0
  6
Continuous
 62
     7
370
    25
100
AcDbSpline
210
0.0
220
0.0
230
1.0
 70
     8
 71
     3
 72
     9
 73
     5
 74
     0
 42
0.00000001
 43
0.00000001
 40
0.0
 40
0.0
 40
0.0
 40
0.0
 40
0.5699310889288098
 40
0.9999999999999999
 40
0.9999999999999999
 40
0.9999999999999999
 40
0.9999999999999999
 10
130.948724048025
 20
50.7210158242835
 30
0.0
 10
131.0890338724318
 20
51.00672189142467
 30
0.0
 10
131.3352212223278
 20
51.50802121109884
 30
0.0
 10
131.5594129409238
 20
52.01950913608592
 30
0.0
 10
131.6558308292116
 20
52.23948419101118
 30
0.0
  0
LINE
  5
133
330
1F
100
AcDbEntity
  8
0
  6
Continuous
 62
     7
370
    25
100
AcDbLine
 10
130.948724048
 20
50.7210158243
 30
0.0
 11
128.9471132676
 21
50.7210158243
 31
0.0
  0
LINE
  5
134
330
1F
100
AcDbEntity
  8
0
  6
Continuous
 62
     7
370
    25
100
AcDbLine
 10
128.2400064864
 20
52.239484191
 30
0.0
 11
128.9471132676
 21
50.7210158243
 31
0.0
  0
LINE
  5
135
330
1F
100
AcDbEntity
  8
0
  6
Continuous
 62
     7
370
    25
100
AcDbLine
 10
127.5328997052
 20
50.7210158243
 30
0.0
 11
123.5337239935
 21
50.7210158243
 31
0.0
  0
SPLINE
  5
136
330
1F
100
AcDbEntity
  8
0
  6
Continuous
 62
     7
370
    25
100
AcDbSpline
210
0.0
220
0.0
230
1.0
 70
     8
 71
     3
 72
     9
 73
     5
 74
     0
 42
0.00000001
 43
0.00000001
 40
0.0
 40
0.0
 40
0.0
 40
0.0
 40
0.5699310889288214
 40
0.9999999999999999
 40
0.9999999999999999
 40
0.9999999999999999
 40
0.9999999999999999
 10
132.3629376103981
 20
68.04152389997228
 30
0.0
 10
132.2226277859914
 20
67.7558178328311
 30
0.0
 10
131.9764404360953
 20
67.25451851315698
 30
0.0
 10
131.7522487174993
 20
66.74303058816992
 30
0.0
 10
131.6558308292116
 20
66.52305553324467
 30
0.0
  0
LINE
  5
137
330
1F
100
AcDbEntity
  8
0
  6
Continuous
 62
     7
370
    25
100
AcDbLine
 10
139.5119457286
 20
50.7210158243
 30
0.0
 11
139.5119457286
 21
42.0607617864
 31
0.0
  0
LINE
  5
138
330
1F
100
AcDbEntity
  8
0
  6
Continuous
 62
     7
370
    25
100
AcDbLine
 10
139.5119457286
 20
42.0607617864
 30
0.0
 11
132.3629376104
 21
42.0607617864
 31
0.0
  0
SPLINE
  5
139
330
1F
100
AcDbEntity
  8
0
  6
Continuous
 62
     7
370
    25
100
AcDbSpline
210
0.0
220
0.0
230
1.0
 70
     8
 71
     3
 72
     9
 73
     5
 74
     0
 42
0.00000001
 43
0.00000001
 40
0.0
 40
0.0
 40
0.0
 40
0.0
 40
0.4997852953867715
 40
1.0
 40
1.0
 40
1.0
 40
1.0
 10
131.6558308292116
 20
42.81999596980296
 30
0.0
 10
131.7681653573088
 20
42.69223861880989
 30
0.0
 10
131.9929309299138
 20
42.43661414931803
 30
0.0
 10
132.2395667476715
 20
42.18608176770416
 30
0.0
 10
132.3629376103981
 20
42.06076178643913
 30
0.0
  0
LINE
  5
13A
330
1F
100
AcDbEntity
  8
0
  6
Continuous
 62
     7
370
    25
100
AcDbLine
 10
130.948724048
 20
42.0607617864
 30
0.0
 11
131.6558308292
 21
42.8199959698
 31
0.0
  0
LINE
  5
13B
330
1F
100
AcDbEntity
  8
0
  6
Continuous
 62
     7
370
    25
100
AcDbLine
 10
130.948724048
 20
42.0607617864
 30
0.0
 11
128.9471132676
 21
42.0607617864
 31
0.0
  0
LINE
  5
13C
330
1F
100
AcDbEntity
  8
0
  6
Continuous
 62
     7
370
    25
100
AcDbLine
 10
128.2400064864
 20
42.8199959698
 30
0.0
 11
128.9471132676
 21
42.0607617864
 31
0.0
  0
LINE
  5
13D
330
1F
100
AcDbEntity
  8
0
  6
Continuous
 62
     7
370
    25
100
AcDbLine
 10
127.5328997052
 20
42.0607617864
 30
0.0
 11
128.2400064864
 21
42.8199959698
 31
0.0
  0
LINE
  5
13E
330
1F
100
AcDbEntity
  8
0
  6
Continuous
 62
     7
370
    25
100
AcDbLine
 10
127.5328997052
 20
42.0607617864
 30
0.0
 11
123.5337239935
 21
42.0607617864
 31
0.0
  0
SPLINE
  5
13F
330
1F
100
AcDbEntity
  8
0
  6
Continuous
 62
     7
370
    25
100
AcDbSpline
210
0.0
220
0.0
230
1.0
 70
     8
 71
     3
 72
     9
 73
     5
 74
     0
 42
0.00000001
 43
0.00000001
 40
0.0
 40
0.0
 40
0.0
 40
0.0
 40
0.4987908233251052
 40
1.0
 40
1.0
 40
1.0
 40
1.0
 10
122.911945728615
 20
46.39088880536131
 30
0.0
 10
122.9424323747517
 20
45.66833253133613
 30
0.0
 10
123.0035534794535
 20
44.21971671838195
 30
0.0
 10
123.3567157984093
 20
42.78157274385283
 30
0.0
 10
123.5337239935257
 20
42.06076178643912
 30
0.0
  0
LINE
  5
140
330
1F
100
AcDbEntity
  8
0
  6
Continuous
 62
     7
370
    25
100
AcDbLine
 10
128.9471132676
 20
50.7210158243
 30
0.0
 11
128.2400064864
 21
49.9617816409
 31
0.0
  0
LINE
  5
141
330
1F
100
AcDbEntity
  8
0
  6
Continuous
 62
     7
370
    25
100
AcDbLine
 10
131.6558308292
 20
49.9617816409
 30
0.0
 11
130.948724048
 21
50.7210158243
 31
0.0
  0
LINE
  5
142
330
1F
100
AcDbEntity
  8
0
  6
Continuous
 62
     7
370
    25
100
AcDbLine
 10
132.3629376104
 20
50.7210158243
 30
0.0
 11
131.6558308292
 21
49.9617816409
 31
0.0
  0
LINE
  5
143
330
1F
100
AcDbEntity
  8
0
  6
Continuous
 62
     7
370
    25
100
AcDbLine
 10
131.6558308292
 20
49.9617816409
 30
0.0
 11
131.6558308292
 21
52.239484191
 31
0.0
  0
LINE
  5
144
330
1F
100
AcDbEntity
  8
0
  6
Continuous
 62
     7
370
    25
100
AcDbLine
 10
122.9119457286
 20
72.3716509189
 30
0.0
 11
122.9119457286
 21
74.3812698621
 31
0.0
  0
LINE
  5
145
330
1F
100
AcDbEntity
  8
0
  6
Continuous
 62
     7
370
    25
100
AcDbLine
 10
122.9119457286
 20
44.3812698621
 30
0.0
 11
122.9119457286
 21
46.3908888054
 31
0.0
  0
LINE
  5
146
330
1F
100
AcDbEntity
  8
0
  6
Continuous
 62
     7
370
    25
100
AcDbLine
 10
128.2400064864
 20
75.9425437545
 30
0.0
 11
128.2400064864
 21
75.9946711566
 31
0.0
  0
LINE
  5
147
330
1F
100
AcDbEntity
  8
0
  6
Continuous
 62
     7
370
    25
100
AcDbLine
 10
131.6558308292
 20
75.9425437545
 30
0.0
 11
131.6558308292
 21
75.9946711566
 31
0.0
  0
LINE
  5
148
330
1F
100
AcDbEntity
  8
0
  6
Continuous
 62
     7
370
    25
100
AcDbLine
 10
128.2400064864
 20
42.7678685676
 30
0.0
 11
128.2400064864
 21
42.8199959698
 31
0.0
  0
LINE
  5
149
330
1F
100
AcDbEntity
  8
0
  6
Continuous
 62
     7
370
    25
100
AcDbLine
 10
131.6558308292
 20
42.7678685676
 30
0.0
 11
131.6558308292
 21
42.8199959698
 31
0.0
  0
SPLINE
  5
14A
330
1F
100
AcDbEntity
  8
0
  6
Continuous
 62
     7
370
    25
100
AcDbSpline
210
0.0
220
0.0
230
1.0
 70
     8
 71
     3
 72
     9
 73
     5
 74
     0
 42
0.00000001
 43
0.00000001
 40
0.0
 40
0.0
 40
0.0
 40
0.0
 40
0.4987908233251052
 40
1.0
 40
1.0
 40
1.0
 40
1.0
 10
205.911945728615
 20
46.39088880536131
 30
0.0
 10
205.8814590824782
 20
47.1134450793865
 30
0.0
 10
205.8203379777764
 20
48.56206089234069
 30
0.0
 10
205.4671756588207
 20
50.00020486686981
 30
0.0
 10
205.2901674637043
 20
50.72101582428351
 30
0.0
  0
SPLINE
  5
14B
330
1F
100
AcDbEntity
  8
0
  6
Continuous
 62
     7
370
    25
100
AcDbSpline
210
0.0
220
0.0
230
1.0
 70
     8
 71
     3
 72
     9
 73
     5
 74
     0
 42
0.00000001
 43
0.00000001
 40
0.0
 40
0.0
 40
0.0
 40
0.0
 40
0.4989631660071377
 40
1.0
 40
1.0
 40
1.0
 40
1.0
 10
205.2901674637043
 20
50.72101582428351
 30
0.0
 10
205.4664647885138
 20
52.15616056572775
 30
0.0
 10
205.8197921217122
 20
55.03241444420283
 30
0.0
 10
205.8811854232061
 20
57.9296487554734
 30
0.0
 10
205.911945728615
 20
59.38126986212789
 30
0.0
  0
LINE
  5
14C
330
1F
100
AcDbEntity
  8
0
  6
Continuous
 62
     7
370
    25
100
AcDbLine
 10
205.9119457286
 20
46.3908888054
 30
0.0
 11
205.9119457286
 21
59.3812698621
 31
0.0
  0
SPLINE
  5
14D
330
1F
100
AcDbEntity
  8
0
  6
Continuous
 62
     7
370
    25
100
AcDbSpline
210
0.0
220
0.0
230
1.0
 70
     8
 71
     3
 72
    11
 73
     7
 74
     0
 42
0.00000001
 43
0.00000001
 40
0.0
 40
0.0
 40
0.0
 40
0.0
 40
0.2564837241299844
 40
0.5133500729626946
 40
0.7565707299855753
 40
1.0
 40
1.0
 40
1.0
 40
1.0
 10
205.911945728615
 20
59.38126986212789
 30
0.0
 10
205.903410733728
 20
60.12416092065778
 30
0.0
 10
205.8863280113725
 20
61.61105128921146
 30
0.0
 10
205.751972164123
 20
63.79888141938967
 30
0.0
 10
205.5567531532751
 20
65.94375890732168
 30
0.0
 10
205.3790547516459
 20
67.34206909714413
 30
0.0
 10
205.2901674637043
 20
68.04152389997229
 30
0.0
  0
SPLINE
  5
14E
330
1F
100
AcDbEntity
  8
0
  6
Continuous
 62
     7
370
    25
100
AcDbSpline
210
0.0
220
0.0
230
1.0
 70
     8
 71
     3
 72
     9
 73
     5
 74
     0
 42
0.00000001
 43
0.00000001
 40
0.0
 40
0.0
 40
0.0
 40
0.0
 40
0.4989631660071376
 40
1.0
 40
1.0
 40
1.0
 40
1.0
 10
205.2901674637043
 20
68.04152389997229
 30
0.0
 10
205.4664647885139
 20
68.7590962706944
 30
0.0
 10
205.8197921217122
 20
70.19722320993195
 30
0.0
 10
205.8811854232061
 20
71.64584036556724
 30
0.0
 10
205.911945728615
 20
72.37165091889449
 30
0.0
  0
LINE
  5
14F
330
1F
100
AcDbEntity
  8
0
  6
Continuous
 62
     7
370
    25
100
AcDbLine
 10
205.9119457286
 20
72.3716509189
 30
0.0
 11
205.9119457286
 21
59.3812698621
 31
0.0
  0
LINE
  5
150
330
1F
100
AcDbEntity
  8
0
  6
Continuous
 62
     7
370
    25
100
AcDbLine
 10
197.168060628
 20
66.5230555332
 30
0.0
 11
196.4609538468
 21
68.0415239
 31
0.0
  0
LINE
  5
151
330
1F
100
AcDbEntity
  8
0
  6
Continuous
 62
     7
370
    25
100
AcDbLine
 10
196.4609538468
 20
68.0415239
 30
0.0
 11
197.168060628
 21
68.8007580833
 31
0.0
  0
LINE
  5
152
330
1F
100
AcDbEntity
  8
0
  6
Continuous
 62
     7
370
    25
100
AcDbLine
 10
197.168060628
 20
68.8007580833
 30
0.0
 11
197.168060628
 21
66.5230555332
 31
0.0
  0
LINE
  5
153
330
1F
100
AcDbEntity
  8
0
  6
Continuous
 62
     7
370
    25
100
AcDbLine
 10
189.3119457286
 20
42.0607617864
 30
0.0
 11
196.4609538468
 21
42.0607617864
 31
0.0
  0
LINE
  5
154
330
1F
100
AcDbEntity
  8
0
  6
Continuous
 62
     7
370
    25
100
AcDbLine
 10
189.3119457286
 20
42.0607617864
 30
0.0
 11
189.3119457286
 21
50.7210158243
 31
0.0
  0
LINE
  5
155
330
1F
100
AcDbEntity
  8
0
  6
Continuous
 62
     7
370
    25
100
AcDbLine
 10
189.3119457286
 20
50.7210158243
 30
0.0
 11
196.4609538468
 21
50.7210158243
 31
0.0
  0
LINE
  5
156
330
1F
100
AcDbEntity
  8
0
  6
Continuous
 62
     7
370
    25
100
AcDbLine
 10
197.168060628
 20
49.9617816409
 30
0.0
 11
196.4609538468
 21
50.7210158243
 31
0.0
  0
LINE
  5
157
330
1F
100
AcDbEntity
  8
0
  6
Continuous
 62
     7
370
    25
100
AcDbLine
 10
197.8751674092
 20
50.7210158243
 30
0.0
 11
197.168060628
 21
49.9617816409
 31
0.0
  0
LINE
  5
158
330
1F
100
AcDbEntity
  8
0
  6
Continuous
 62
     7
370
    25
100
AcDbLine
 10
197.8751674092
 20
50.7210158243
 30
0.0
 11
199.8767781897
 21
50.7210158243
 31
0.0
  0
LINE
  5
159
330
1F
100
AcDbEntity
  8
0
  6
Continuous
 62
     7
370
    25
100
AcDbLine
 10
200.5838849708
 20
49.9617816409
 30
0.0
 11
199.8767781897
 21
50.7210158243
 31
0.0
  0
LINE
  5
15A
330
1F
100
AcDbEntity
  8
0
  6
Continuous
 62
     7
370
    25
100
AcDbLine
 10
201.290991752
 20
50.7210158243
 30
0.0
 11
200.5838849708
 21
49.9617816409
 31
0.0
  0
LINE
  5
15B
330
1F
100
AcDbEntity
  8
0
  6
Continuous
 62
     7
370
    25
100
AcDbLine
 10
201.290991752
 20
50.7210158243
 30
0.0
 11
205.2901674637
 21
50.7210158243
 31
0.0
  0
SPLINE
  5
15C
330
1F
100
AcDbEntity
  8
0
  6
Continuous
 62
     7
370
    25
100
AcDbSpline
210
0.0
220
0.0
230
1.0
 70
     8
 71
     3
 72
     9
 73
     5
 74
     0
 42
0.00000001
 43
0.00000001
 40
0.0
 40
0.0
 40
0.0
 40
0.0
 40
0.4989631660071377
 40
1.0
 40
1.0
 40
1.0
 40
1.0
 10
205.2901674637043
 20
42.06076178643912
 30
0.0
 10
205.4664647885138
 20
42.77833415716125
 30
0.0
 10
205.8197921217122
 20
44.21646109639879
 30
0.0
 10
205.8811854232061
 20
45.66507825203407
 30
0.0
 10
205.911945728615
 20
46.39088880536131
 30
0.0
  0
LINE
  5
15D
330
1F
100
AcDbEntity
  8
0
  6
Continuous
 62
     7
370
    25
100
AcDbLine
 10
201.290991752
 20
42.0607617864
 30
0.0
 11
205.2901674637
 21
42.0607617864
 31
0.0
  0
LINE
  5
15E
330
1F
100
AcDbEntity
  8
0
  6
Continuous
 62
     7
370
    25
100
AcDbLine
 10
200.5838849708
 20
42.8199959698
 30
0.0
 11
201.290991752
 21
42.0607617864
 31
0.0
  0
LINE
  5
15F
330
1F
100
AcDbEntity
  8
0
  6
Continuous
 62
     7
370
    25
100
AcDbLine
 10
199.8767781897
 20
42.0607617864
 30
0.0
 11
200.5838849708
 21
42.8199959698
 31
0.0
  0
LINE
  5
160
330
1F
100
AcDbEntity
  8
0
  6
Continuous
 62
     7
370
    25
100
AcDbLine
 10
197.8751674092
 20
42.0607617864
 30
0.0
 11
199.8767781897
 21
42.0607617864
 31
0.0
  0
LINE
  5
161
330
1F
100
AcDbEntity
  8
0
  6
Continuous
 62
     7
370
    25
100
AcDbLine
 10
197.168060628
 20
42.8199959698
 30
0.0
 11
197.8751674092
 21
42.0607617864
 31
0.0
  0
SPLINE
  5
162
330
1F
100
AcDbEntity
  8
0
  6
Continuous
 62
     7
370
    25
100
AcDbSpline
210
0.0
220
0.0
230
1.0
 70
     8
 71
     3
 72
     9
 73
     5
 74
     0
 42
0.00000001
 43
0.00000001
 40
0.0
 40
0.0
 40
0.0
 40
0.0
 40
0.4997995207902806
 40
1.0
 40
1.0
 40
1.0
 40
1.0
 10
196.4609538468319
 20
42.06076178643912
 30
0.0
 10
196.5842236371263
 20
42.18597740202581
 30
0.0
 10
196.8308621094872
 20
42.43650908598719
 30
0.0
 10
197.0556310808375
 20
42.69213284369842
 30
0.0
 10
197.1680606280184
 20
42.81999596980296
 30
0.0
  0
LINE
  5
163
330
1F
100
AcDbEntity
  8
0
  6
Continuous
 62
     7
370
    25
100
AcDbLine
 10
189.3119457286
 20
50.7210158243
 30
0.0
 11
189.3119457286
 21
68.0415239
 31
0.0
  0
LINE
  5
164
330
1F
100
AcDbEntity
  8
0
  6
Continuous
 62
     7
370
    25
100
AcDbLine
 10
189.3119457286
 20
68.0415239
 30
0.0
 11
196.4609538468
 21
68.0415239
 31
0.0
  0
SPLINE
  5
165
330
1F
100
AcDbEntity
  8
0
  6
Continuous
 62
     7
370
    25
100
AcDbSpline
210
0.0
220
0.0
230
1.0
 70
     8
 71
     3
 72
     9
 73
     5
 74
     0
 42
0.00000001
 43
0.00000001
 40
0.0
 40
0.0
 40
0.0
 40
0.0
 40
0.5699310889288098
 40
0.9999999999999999
 40
0.9999999999999999
 40
0.9999999999999999
 40
0.9999999999999999
 10
197.875167409205
 20
68.0415238999723
 30
0.0
 10
197.7348575847982
 20
67.75581783283113
 30
0.0
 10
197.4886702349021
 20
67.25451851315697
 30
0.0
 10
197.2644785163062
 20
66.74303058816987
 30
0.0
 10
197.1680606280184
 20
66.52305553324462
 30
0.0
  0
LINE
  5
166
330
1F
100
AcDbEntity
  8
0
  6
Continuous
 62
     7
370
    25
100
AcDbLine
 10
197.8751674092
 20
68.0415239
 30
0.0
 11
199.8767781897
 21
68.0415239
 31
0.0
  0
LINE
  5
167
330
1F
100
AcDbEntity
  8
0
  6
Continuous
 62
     7
370
    25
100
AcDbLine
 10
200.5838849708
 20
66.5230555332
 30
0.0
 11
199.8767781897
 21
68.0415239
 31
0.0
  0
SPLINE
  5
168
330
1F
100
AcDbEntity
  8
0
  6
Continuous
 62
     7
370
    25
100
AcDbSpline
210
0.0
220
0.0
230
1.0
 70
     8
 71
     3
 72
     9
 73
     5
 74
     0
 42
0.00000001
 43
0.00000001
 40
0.0
 40
0.0
 40
0.0
 40
0.0
 40
0.5699310889288114
 40
0.9999999999999999
 40
0.9999999999999999
 40
0.9999999999999999
 40
0.9999999999999999
 10
201.2909917520324
 20
68.04152389997229
 30
0.0
 10
201.1506819276256
 20
67.75581783283113
 30
0.0
 10
200.9044945777295
 20
67.25451851315698
 30
0.0
 10
200.6803028591335
 20
66.74303058816987
 30
0.0
 10
200.5838849708458
 20
66.52305553324462
 30
0.0
  0
LINE
  5
169
330
1F
100
AcDbEntity
  8
0
  6
Continuous
 62
     7
370
    25
100
AcDbLine
 10
201.290991752
 20
68.0415239
 30
0.0
 11
205.2901674637
 21
68.0415239
 31
0.0
  0
LINE
  5
16A
330
1F
100
AcDbEntity
  8
0
  6
Continuous
 62
     7
370
    25
100
AcDbLine
 10
200.5838849708
 20
52.239484191
 30
0.0
 11
201.290991752
 21
50.7210158243
 31
0.0
  0
SPLINE
  5
16B
330
1F
100
AcDbEntity
  8
0
  6
Continuous
 62
     7
370
    25
100
AcDbSpline
210
0.0
220
0.0
230
1.0
 70
     8
 71
     3
 72
     9
 73
     5
 74
     0
 42
0.00000001
 43
0.00000001
 40
0.0
 40
0.0
 40
0.0
 40
0.0
 40
0.5699310889288282
 40
1.0
 40
1.0
 40
1.0
 40
1.0
 10
199.8767781896593
 20
50.72101582428353
 30
0.0
 10
200.017088014066
 20
51.00672189142469
 30
0.0
 10
200.263275363962
 20
51.50802121109883
 30
0.0
 10
200.4874670825581
 20
52.01950913608589
 30
0.0
 10
200.5838849708458
 20
52.23948419101113
 30
0.0
  0
LINE
  5
16C
330
1F
100
AcDbEntity
  8
0
  6
Continuous
 62
     7
370
    25
100
AcDbLine
 10
197.168060628
 20
52.239484191
 30
0.0
 11
197.8751674092
 21
50.7210158243
 31
0.0
  0
SPLINE
  5
16D
330
1F
100
AcDbEntity
  8
0
  6
Continuous
 62
     7
370
    25
100
AcDbSpline
210
0.0
220
0.0
230
1.0
 70
     8
 71
     3
 72
     9
 73
     5
 74
     0
 42
0.00000001
 43
0.00000001
 40
0.0
 40
0.0
 40
0.0
 40
0.0
 40
0.5699310889288214
 40
0.9999999999999999
 40
0.9999999999999999
 40
0.9999999999999999
 40
0.9999999999999999
 10
196.4609538468319
 20
50.72101582428353
 30
0.0
 10
196.6012636712386
 20
51.00672189142468
 30
0.0
 10
196.8474510211346
 20
51.50802121109882
 30
0.0
 10
197.0716427397307
 20
52.01950913608589
 30
0.0
 10
197.1680606280184
 20
52.23948419101113
 30
0.0
  0
LINE
  5
16E
330
1F
100
AcDbEntity
  8
0
  6
Continuous
 62
     7
370
    25
100
AcDbLine
 10
199.8767781897
 20
68.0415239
 30
0.0
 11
200.5838849708
 21
68.8007580833
 31
0.0
  0
LINE
  5
16F
330
1F
100
AcDbEntity
  8
0
  6
Continuous
 62
     7
370
    25
100
AcDbLine
 10
200.5838849708
 20
68.8007580833
 30
0.0
 11
200.5838849708
 21
66.5230555332
 31
0.0
  0
LINE
  5
170
330
1F
100
AcDbEntity
  8
0
  6
Continuous
 62
     7
370
    25
100
AcDbLine
 10
197.168060628
 20
52.239484191
 30
0.0
 11
197.168060628
 21
49.9617816409
 31
0.0
  0
LINE
  5
171
330
1F
100
AcDbEntity
  8
0
  6
Continuous
 62
     7
370
    25
100
AcDbLine
 10
189.3119457286
 20
68.0415239
 30
0.0
 11
189.3119457286
 21
76.7017779378
 31
0.0
  0
LINE
  5
172
330
1F
100
AcDbEntity
  8
0
  6
Continuous
 62
     7
370
    25
100
AcDbLine
 10
189.3119457286
 20
76.7017779378
 30
0.0
 11
196.4609538468
 21
76.7017779378
 31
0.0
  0
SPLINE
  5
173
330
1F
100
AcDbEntity
  8
0
  6
Continuous
 62
     7
370
    25
100
AcDbSpline
210
0.0
220
0.0
230
1.0
 70
     8
 71
     3
 72
     9
 73
     5
 74
     0
 42
0.00000001
 43
0.00000001
 40
0.0
 40
0.0
 40
0.0
 40
0.0
 40
0.4997852953867715
 40
1.0
 40
1.0
 40
1.0
 40
1.0
 10
197.1680606280184
 20
75.94254375445283
 30
0.0
 10
197.0557260999212
 20
76.0703011054459
 30
0.0
 10
196.8309605273162
 20
76.32592557493777
 30
0.0
 10
196.5843247095585
 20
76.57645795655164
 30
0.0
 10
196.4609538468319
 20
76.70177793781666
 30
0.0
  0
LINE
  5
174
330
1F
100
AcDbEntity
  8
0
  6
Continuous
 62
     7
370
    25
100
AcDbLine
 10
197.8751674092
 20
76.7017779378
 30
0.0
 11
197.168060628
 21
75.9425437545
 31
0.0
  0
LINE
  5
175
330
1F
100
AcDbEntity
  8
0
  6
Continuous
 62
     7
370
    25
100
AcDbLine
 10
197.8751674092
 20
76.7017779378
 30
0.0
 11
199.8767781897
 21
76.7017779378
 31
0.0
  0
LINE
  5
176
330
1F
100
AcDbEntity
  8
0
  6
Continuous
 62
     7
370
    25
100
AcDbLine
 10
200.5838849708
 20
75.9425437545
 30
0.0
 11
199.8767781897
 21
76.7017779378
 31
0.0
  0
LINE
  5
177
330
1F
100
AcDbEntity
  8
0
  6
Continuous
 62
     7
370
    25
100
AcDbLine
 10
201.290991752
 20
76.7017779378
 30
0.0
 11
200.5838849708
 21
75.9425437545
 31
0.0
  0
LINE
  5
178
330
1F
100
AcDbEntity
  8
0
  6
Continuous
 62
     7
370
    25
100
AcDbLine
 10
201.290991752
 20
76.7017779378
 30
0.0
 11
205.2901674637
 21
76.7017779378
 31
0.0
  0
SPLINE
  5
179
330
1F
100
AcDbEntity
  8
0
  6
Continuous
 62
     7
370
    25
100
AcDbSpline
210
0.0
220
0.0
230
1.0
 70
     8
 71
     3
 72
     9
 73
     5
 74
     0
 42
0.00000001
 43
0.00000001
 40
0.0
 40
0.0
 40
0.0
 40
0.0
 40
0.4987908233251052
 40
1.0
 40
1.0
 40
1.0
 40
1.0
 10
205.911945728615
 20
72.37165091889449
 30
0.0
 10
205.8814590824782
 20
73.09420719291965
 30
0.0
 10
205.8203379777764
 20
74.54282300587386
 30
0.0
 10
205.4671756588207
 20
75.98096698040297
 30
0.0
 10
205.2901674637043
 20
76.70177793781667
 30
0.0
  0
LINE
  5
17A
330
1F
100
AcDbEntity
  8
0
  6
Continuous
 62
     7
370
    25
100
AcDbLine
 10
200.5838849708
 20
68.8007580833
 30
0.0
 11
201.290991752
 21
68.0415239
 31
0.0
  0
LINE
  5
17B
330
1F
100
AcDbEntity
  8
0
  6
Continuous
 62
     7
370
    25
100
AcDbLine
 10
197.168060628
 20
68.8007580833
 30
0.0
 11
197.8751674092
 21
68.0415239
 31
0.0
  0
LINE
  5
17C
330
1F
100
AcDbEntity
  8
0
  6
Continuous
 62
     7
370
    25
100
AcDbLine
 10
200.5838849708
 20
52.239484191
 30
0.0
 11
200.5838849708
 21
49.9617816409
 31
0.0
  0
LINE
  5
17D
330
1F
100
AcDbEntity
  8
0
  6
Continuous
 62
     7
370
    25
100
AcDbLine
 10
205.9119457286
 20
46.3908888054
 30
0.0
 11
205.9119457286
 21
44.3812698621
 31
0.0
  0
LINE
  5
17E
330
1F
100
AcDbEntity
  8
0
  6
Continuous
 62
     7
370
    25
100
AcDbLine
 10
205.9119457286
 20
74.3812698621
 30
0.0
 11
205.9119457286
 21
72.3716509189
 31
0.0
  0
LINE
  5
17F
330
1F
100
AcDbEntity
  8
0
  6
Continuous
 62
     7
370
    25
100
AcDbLine
 10
200.5838849708
 20
42.8199959698
 30
0.0
 11
200.5838849708
 21
42.7678685676
 31
0.0
  0
LINE
  5
180
330
1F
100
AcDbEntity
  8
0
  6
Continuous
 62
     7
370
    25
100
AcDbLine
 10
197.168060628
 20
42.8199959698
 30
0.0
 11
197.168060628
 21
42.7678685676
 31
0.0
  0
LINE
  5
181
330
1F
100
AcDbEntity
  8
0
  6
Continuous
 62
     7
370
    25
100
AcDbLine
 10
200.5838849708
 20
75.9946711566
 30
0.0
 11
200.5838849708
 21
75.9425437545
 31
0.0
  0
LINE
  5
182
330
1F
100
AcDbEntity
  8
0
  6
Continuous
 62
     7
370
    25
100
AcDbLine
 10
197.168060628
 20
75.9946711566
 30
0.0
 11
197.168060628
 21
75.9425437545
 31
0.0
  0
LINE
  5
183
330
1F
100
AcDbEntity
  8
0
  6
Continuous
 62
     7
370
    25
100
AcDbLine
 10
140.4119457286
 20
80.3812698621
 30
0.0
 11
140.4119457286
 21
79.3812698621
 31
0.0
  0
LINE
  5
184
330
1F
100
AcDbEntity
  8
0
  6
Continuous
 62
     7
370
    25
100
AcDbLine
 10
188.4119457286
 20
80.3812698621
 30
0.0
 11
140.4119457286
 21
80.3812698621
 31
0.0
  0
LINE
  5
185
330
1F
100
AcDbEntity
  8
0
  6
Continuous
 62
     7
370
    25
100
AcDbLine
 10
188.4119457286
 20
79.3812698621
 30
0.0
 11
188.4119457286
 21
80.3812698621
 31
0.0
  0
LINE
  5
186
330
1F
100
AcDbEntity
  8
0
  6
Continuous
 62
     7
370
    25
100
AcDbLine
 10
188.4119457286
 20
41.3812698621
 30
0.0
 11
188.4119457286
 21
79.3812698621
 31
0.0
  0
LINE
  5
187
330
1F
100
AcDbEntity
  8
0
  6
Continuous
 62
     7
370
    25
100
AcDbLine
 10
140.4119457286
 20
79.3812698621
 30
0.0
 11
140.4119457286
 21
41.3812698621
 31
0.0
  0
LINE
  5
188
330
1F
100
AcDbEntity
  8
0
  6
Continuous
 62
     7
370
    25
100
AcDbLine
 10
140.4119457286
 20
40.3812698621
 30
0.0
 11
188.4119457286
 21
40.3812698621
 31
0.0
  0
LINE
  5
189
330
1F
100
AcDbEntity
  8
0
  6
Continuous
 62
     7
370
    25
100
AcDbLine
 10
188.4119457286
 20
40.3812698621
 30
0.0
 11
188.4119457286
 21
41.3812698621
 31
0.0
  0
LINE
  5
18A
330
1F
100
AcDbEntity
  8
0
  6
Continuous
 62
     7
370
    25
100
AcDbLine
 10
140.4119457286
 20
41.3812698621
 30
0.0
 11
140.4119457286
 21
40.3812698621
 31
0.0
  0
LINE
  5
18B
330
1F
100
AcDbEntity
  8
0
  6
Continuous
 62
     7
370
    25
100
AcDbLine
 10
162.3219457286
 20
82.8812698621
 30
0.0
 11
166.5019457286
 21
82.8812698621
 31
0.0
  0
LINE
  5
18C
330
1F
100
AcDbEntity
  8
0
  6
Continuous
 62
     7
370
    25
100
AcDbLine
 10
161.9119457286
 20
80.9312698621
 30
0.0
 11
166.9119457286
 21
80.9312698621
 31
0.0
  0
LINE
  5
18D
330
1F
100
AcDbEntity
  8
0
  6
Continuous
 62
     7
370
    25
100
AcDbLine
 10
166.9118975047
 20
80.8812698621
 30
0.0
 11
168.2035392557
 21
80.8812698621
 31
0.0
  0
LINE
  5
18E
330
1F
100
AcDbEntity
  8
0
  6
Continuous
 62
     7
370
    25
100
AcDbLine
 10
168.2035392557
 20
83.8812698621
 30
0.0
 11
166.9118975047
 21
83.8812698621
 31
0.0
  0
LINE
  5
18F
330
1F
100
AcDbEntity
  8
0
  6
Continuous
 62
     7
370
    25
100
AcDbLine
 10
176.8467283373
 20
80.8812698621
 30
0.0
 11
168.2035392557
 21
80.8812698621
 31
0.0
  0
LINE
  5
190
330
1F
100
AcDbEntity
  8
0
  6
Continuous
 62
     7
370
    25
100
AcDbLine
 10
176.8467283373
 20
83.8812698621
 30
0.0
 11
168.2035392557
 21
83.8812698621
 31
0.0
  0
LINE
  5
191
330
1F
100
AcDbEntity
  8
0
  6
Continuous
 62
     7
370
    25
100
AcDbLine
 10
164.4119457286
 20
83.8812698621
 30
0.0
 11
166.9118975047
 21
83.8812698621
 31
0.0
  0
LINE
  5
192
330
1F
100
AcDbEntity
  8
0
  6
Continuous
 62
     7
370
    25
100
AcDbLine
 10
155.4119457286
 20
83.8812698621
 30
0.0
 11
155.4119457286
 21
80.8812698621
 31
0.0
  0
LINE
  5
193
330
1F
100
AcDbEntity
  8
0
  6
Continuous
 62
     7
370
    25
100
AcDbLine
 10
161.9119457286
 20
80.8812698621
 30
0.0
 11
155.4119457286
 21
80.8812698621
 31
0.0
  0
LINE
  5
194
330
1F
100
AcDbEntity
  8
0
  6
Continuous
 62
     7
370
    25
100
AcDbLine
 10
155.4119457286
 20
83.8812698621
 30
0.0
 11
164.4119457286
 21
83.8812698621
 31
0.0
  0
LINE
  5
195
330
1F
100
AcDbEntity
  8
0
  6
Continuous
 62
     7
370
    25
100
AcDbLine
 10
157.4119457286
 20
80.4812698621
 30
0.0
 11
157.4119457286
 21
80.3812698621
 31
0.0
  0
LINE
  5
196
330
1F
100
AcDbEntity
  8
0
  6
Continuous
 62
     7
370
    25
100
AcDbLine
 10
165.1200628686
 20
83.8812698621
 30
0.0
 11
165.1200628686
 21
84.0812698621
 31
0.0
  0
LINE
  5
197
330
1F
100
AcDbEntity
  8
0
  6
Continuous
 62
     7
370
    25
100
AcDbLine
 10
163.7038285886
 20
84.0812698621
 30
0.0
 11
163.7038285886
 21
83.8812698621
 31
0.0
  0
LINE
  5
198
330
1F
100
AcDbEntity
  8
0
  6
Continuous
 62
     7
370
    25
100
AcDbLine
 10
158.7561018379
 20
83.8812698621
 30
0.0
 11
158.7561018379
 21
84.0812698621
 31
0.0
  0
LINE
  5
199
330
1F
100
AcDbEntity
  8
0
  6
Continuous
 62
     7
370
    25
100
AcDbLine
 10
170.0677896193
 20
84.0812698621
 30
0.0
 11
170.0677896193
 21
83.8812698621
 31
0.0
  0
LINE
  5
19A
330
1F
100
AcDbEntity
  8
0
  6
Continuous
 62
     7
370
    25
100
AcDbLine
 10
176.8467283373
 20
80.8812698621
 30
0.0
 11
176.8902065982
 21
80.8812698621
 31
0.0
  0
LINE
  5
19B
330
1F
100
AcDbEntity
  8
0
  6
Continuous
 62
     7
370
    25
100
AcDbLine
 10
176.8902065982
 20
83.8812698621
 30
0.0
 11
176.8467283373
 21
83.8812698621
 31
0.0
  0
LINE
  5
19C
330
1F
100
AcDbEntity
  8
0
  6
Continuous
 62
     7
370
    25
100
AcDbLine
 10
158.745576745
 20
84.0812698621
 30
0.0
 11
158.7250788164
 21
84.0812698621
 31
0.0
  0
LINE
  5
19D
330
1F
100
AcDbEntity
  8
0
  6
Continuous
 62
     7
370
    25
100
AcDbLine
 10
155.4119457286
 20
80.8812698621
 30
0.0
 11
152.9274736789
 21
80.8812698621
 31
0.0
  0
LINE
  5
19E
330
1F
100
AcDbEntity
  8
0
  6
Continuous
 62
     7
370
    25
100
AcDbLine
 10
152.9274736789
 20
83.8812698621
 30
0.0
 11
155.4119457286
 21
83.8812698621
 31
0.0
  0
LINE
  5
19F
330
1F
100
AcDbEntity
  8
0
  6
Continuous
 62
     7
370
    25
100
AcDbLine
 10
151.933684859
 20
80.8812698621
 30
0.0
 11
152.9274736789
 21
80.8812698621
 31
0.0
  0
LINE
  5
1A0
330
1F
100
AcDbEntity
  8
0
  6
Continuous
 62
     7
370
    25
100
AcDbLine
 10
152.9274736789
 20
83.8812698621
 30
0.0
 11
151.933684859
 21
83.8812698621
 31
0.0
  0
ELLIPSE
  5
1A1
330
1F
100
AcDbEntity
  8
0
  6
Continuous
 62
     7
370
    25
100
AcDbEllipse
 10
158.7455773573
 20
84.4812697547
 30
0.0
 11
1.459629135069917E-5
 21
0.3999998715590181
 31
0.0
210
0.0
220
0.0
230
1.0
 40
0.9788010274
 41
1.793346502910766
 42
3.141628639322522
  0
ELLIPSE
  5
1A2
330
1F
100
AcDbEntity
  8
0
  6
Continuous
 62
     7
370
    25
100
AcDbEllipse
 10
158.7250782041
 20
84.4812699696
 30
0.0
 11
-1.459629135069917E-5
 21
0.3999998715590181
 31
0.0
210
0.0
220
0.0
230
1.0
 40
0.9788010274
 41
1.787882349819373
 42
3.141556667856062
  0
SPLINE
  5
1A3
330
1F
100
AcDbEntity
  8
0
  6
PHANTOM
 62
     8
370
    18
100
AcDbSpline
210
0.0
220
0.0
230
1.0
 70
    24
 71
     3
 72
    13
 73
     9
 74
     0
 42
0.00000001
 43
0.00000001
 40
0.0
 40
0.0
 40
0.0
 40
0.0
 40
0.1747884445046877
 40
0.3600466486448696
 40
0.5530067672170421
 40
0.7500617763567929
 40
0.9471167854965437
 40
1.0
 40
1.0
 40
1.0
 40
1.0
 10
167.786945728615
 20
96.86579980828996
 30
0.0
 10
168.1326009089138
 20
96.86579980828996
 30
0.0
 10
168.8446158799608
 20
96.86579980828996
 30
0.0
 10
169.7452220595423
 20
96.86579980828996
 30
0.0
 10
170.4859623775442
 20
96.86579980828998
 30
0.0
 10
170.9647022096321
 20
96.86579980828996
 30
0.0
 10
171.1806025686299
 20
96.86579980828998
 30
0.0
 10
171.1426059231592
 20
96.86579980828998
 30
0.0
 10
171.1345663975375
 20
96.86579980828996
 30
0.0
  0
SPLINE
  5
1A4
330
1F
100
AcDbEntity
  8
0
  6
PHANTOM
 62
     8
370
    18
100
AcDbSpline
210
0.0
220
0.0
230
1.0
 70
    24
 71
     3
 72
    18
 73
    14
 74
     0
 42
0.00000001
 43
0.00000001
 40
0.0
 40
0.0
 40
0.0
 40
0.0
 40
0.0700297996625801
 40
0.1626474585695868
 40
0.2500308843625513
 40
0.3374143101555159
 40
0.4300319690625225
 40
0.5265001094480893
 40
0.6250154421812759
 40
0.7235307749144619
 40
0.8199989153000287
 40
0.9126165742070352
 40
1.0
 40
1.0
 40
1.0
 40
1.0
 10
157.6893250596925
 20
96.86579980828996
 30
0.0
 10
157.6923249354773
 20
96.86579980828996
 30
0.0
 10
157.6992922861592
 20
96.86579980828996
 30
0.0
 10
158.009060219574
 20
96.86579980828996
 30
0.0
 10
158.5321902779763
 20
96.86579980828996
 30
0.0
 10
159.2639074205629
 20
96.86579980828998
 30
0.0
 10
160.2056229311226
 20
96.86579980828998
 30
0.0
 10
161.3533892855717
 20
96.86579980828996
 30
0.0
 10
162.6523460152663
 20
96.86579980828998
 30
0.0
 10
164.0262072298755
 20
96.86579980828996
 30
0.0
 10
165.3852139499956
 20
96.86579980828996
 30
0.0
 10
166.662474521345
 20
96.86579980828998
 30
0.0
 10
167.4194594216645
 20
96.86579980828996
 30
0.0
 10
167.786945728615
 20
96.86579980828996
 30
0.0
  0
SPLINE
  5
1A5
330
1F
100
AcDbEntity
  8
0
  6
PHANTOM
 62
     8
370
    18
100
AcDbSpline
210
0.0
220
0.0
230
1.0
 70
    24
 71
     3
 72
     9
 73
     5
 74
     0
 42
0.00000001
 43
0.00000001
 40
0.0
 40
0.0
 40
0.0
 40
0.0
 40
0.9817543137881475
 40
1.0
 40
1.0
 40
1.0
 40
1.0
 10
167.736945728615
 20
97.03900488904686
 30
0.0
 10
168.0921273551049
 20
97.03900488904678
 30
0.0
 10
168.4539099533594
 20
97.03900488904668
 30
0.0
 10
168.7398328127321
 20
97.03900488904688
 30
0.0
 10
168.745049671505
 20
97.03900488904686
 30
0.0
  0
SPLINE
  5
1A6
330
1F
100
AcDbEntity
  8
0
  6
PHANTOM
 62
     8
370
    18
100
AcDbSpline
210
0.0
220
0.0
230
1.0
 70
     8
 71
     3
 72
    11
 73
     7
 74
     0
 42
0.00000001
 43
0.00000001
 40
0.0
 40
0.0
 40
0.0
 40
0.0
 40
0.2519803780325575
 40
0.5000207188848935
 40
0.7481636611739628
 40
1.0
 40
1.0
 40
1.0
 40
1.0
 10
159.4657933059083
 20
98.02272174645529
 30
0.0
 10
159.6773030207785
 20
98.13340973442264
 30
0.0
 10
160.0970152241899
 20
98.35305496135459
 30
0.0
 10
160.7346563377132
 20
98.46051656904004
 30
0.0
 10
161.3514956896303
 20
98.34740285488571
 30
0.0
 10
161.7421163900993
 20
98.13148046264092
 30
0.0
 10
161.9388695172617
 20
98.02272174645529
 30
0.0
  0
SPLINE
  5
1A7
330
1F
100
AcDbEntity
  8
0
  6
PHANTOM
 62
     8
370
    18
100
AcDbSpline
210
0.0
220
0.0
230
1.0
 70
     8
 71
     3
 72
    11
 73
     7
 74
     0
 42
0.00000001
 43
0.00000001
 40
0.0
 40
0.0
 40
0.0
 40
0.0
 40
0.2519805309852629
 40
0.5000202912600126
 40
0.7481632336563508
 40
1.0
 40
1.0
 40
1.0
 40
1.0
 10
161.9388695172617
 20
98.02272174645529
 30
0.0
 10
162.3467013532626
 20
98.13341718396187
 30
0.0
 10
163.1559868668096
 20
98.3530768722988
 30
0.0
 10
164.4121184418179
 20
98.46057061150333
 30
0.0
 10
165.6669124871918
 20
98.3474179436499
 30
0.0
 10
166.4769905176644
 20
98.13148557786306
 30
0.0
 10
166.8850219399683
 20
98.02272174645529
 30
0.0
  0
SPLINE
  5
1A8
330
1F
100
AcDbEntity
  8
0
  6
PHANTOM
 62
     8
370
    18
100
AcDbSpline
210
0.0
220
0.0
230
1.0
 70
     8
 71
     3
 72
    11
 73
     7
 74
     0
 42
0.00000001
 43
0.00000001
 40
0.0
 40
0.0
 40
0.0
 40
0.0
 40
0.2519805309852625
 40
0.500020291260012
 40
0.7481632336563503
 40
1.0
 40
1.0
 40
1.0
 40
1.0
 10
166.8850219399683
 20
98.0227217464553
 30
0.0
 10
167.0813439592546
 20
98.13341718396187
 30
0.0
 10
167.4709176810039
 20
98.3530768722988
 30
0.0
 10
168.089404689107
 20
98.46057061150333
 30
0.0
 10
168.7273614330336
 20
98.34741794364992
 30
0.0
 10
169.1468196002228
 20
98.13148557786306
 30
0.0
 10
169.3580981513216
 20
98.02272174645529
 30
0.0
  0
SPLINE
  5
1A9
330
1F
100
AcDbEntity
  8
0
  6
PHANTOM
 62
     8
370
    18
100
AcDbSpline
210
0.0
220
0.0
230
1.0
 70
     8
 71
     3
 72
    11
 73
     7
 74
     0
 42
0.00000001
 43
0.00000001
 40
0.0
 40
0.0
 40
0.0
 40
0.0
 40
0.2804325661057824
 40
0.5597427362698699
 40
0.779450267430745
 40
1.0
 40
1.0
 40
1.0
 40
1.0
 10
169.0307051744213
 20
98.53517174452679
 30
0.0
 10
168.817415407788
 20
98.63196352660478
 30
0.0
 10
168.3916895398851
 20
98.8251596938728
 30
0.0
 10
167.7818701299897
 20
98.88426727056107
 30
0.0
 10
167.2224133827222
 20
98.77457188902521
 30
0.0
 10
166.888580728516
 20
98.6152998763538
 30
0.0
 10
166.7213450945501
 20
98.53551152828017
 30
0.0
  0
SPLINE
  5
1AA
330
1F
100
AcDbEntity
  8
0
  6
PHANTOM
 62
     8
370
    18
100
AcDbSpline
210
0.0
220
0.0
230
1.0
 70
     8
 71
     3
 72
    11
 73
     7
 74
     0
 42
0.00000001
 43
0.00000001
 40
0.0
 40
0.0
 40
0.0
 40
0.0
 40
0.2804325661058054
 40
0.5597427362699142
 40
0.7794502674307571
 40
0.9999999999999999
 40
0.9999999999999999
 40
0.9999999999999999
 40
0.9999999999999999
 10
166.7212613900331
 20
98.5351717445056
 30
0.0
 10
166.2946818567598
 20
98.6319635265884
 30
0.0
 10
165.44323012094
 20
98.82515969386598
 30
0.0
 10
164.2235913011276
 20
98.88426727056287
 30
0.0
 10
163.104677806572
 20
98.77457188902912
 30
0.0
 10
162.4370124981478
 20
98.61529987635515
 30
0.0
 10
162.1025412302099
 20
98.53551152828022
 30
0.0
  0
SPLINE
  5
1AB
330
1F
100
AcDbEntity
  8
0
  6
PHANTOM
 62
     8
370
    18
100
AcDbSpline
210
0.0
220
0.0
230
1.0
 70
     8
 71
     3
 72
    11
 73
     7
 74
     0
 42
0.00000001
 43
0.00000001
 40
0.0
 40
0.0
 40
0.0
 40
0.0
 40
0.2804312944588859
 40
0.5597413355502517
 40
0.7794498005208739
 40
0.9999999999999999
 40
0.9999999999999999
 40
0.9999999999999999
 40
0.9999999999999999
 10
162.1025017889631
 20
98.53517054603164
 30
0.0
 10
161.8892126557139
 20
98.63195445179221
 30
0.0
 10
161.4634871869013
 20
98.82513529052395
 30
0.0
 10
160.8536701358602
 20
98.884214790561
 30
0.0
 10
160.2942131476656
 20
98.77454866989102
 30
0.0
 10
159.9603785321838
 20
98.61529090927165
 30
0.0
 10
159.7931420937379
 20
98.53550978578801
 30
0.0
  0
LINE
  5
1AC
330
1F
100
AcDbEntity
  8
0
  6
PHANTOM
 62
     8
370
    18
100
AcDbLine
 10
158.5295927874
 20
87.4567217016
 30
0.0
 11
158.5295927874
 21
85.9052452182
 31
0.0
  0
LINE
  5
1AD
330
1F
100
AcDbEntity
  8
0
  6
PHANTOM
 62
     8
370
    18
100
AcDbLine
 10
158.5295927874
 20
88.876512886
 30
0.0
 11
158.5295927874
 21
87.4567217016
 31
0.0
  0
SPLINE
  5
1AE
330
1F
100
AcDbEntity
  8
0
  6
PHANTOM
 62
     8
370
    18
100
AcDbSpline
210
0.0
220
0.0
230
1.0
 70
    24
 71
     3
 72
     9
 73
     5
 74
     0
 42
0.00000001
 43
0.00000001
 40
0.0
 40
0.0
 40
0.0
 40
0.0
 40
0.5256915871068343
 40
1.0
 40
1.0
 40
1.0
 40
1.0
 10
158.5295927874385
 20
92.01668458330866
 30
0.0
 10
158.5295927874385
 20
91.47040458349598
 30
0.0
 10
158.5295927874385
 20
90.431240150945
 30
0.0
 10
158.5295927874385
 20
89.37992043123951
 30
0.0
 10
158.5295927874385
 20
88.88127064354272
 30
0.0
  0
LINE
  5
1AF
330
1F
100
AcDbEntity
  8
0
  6
PHANTOM
 62
     8
370
    18
100
AcDbLine
 10
158.5295927874
 20
93.3812698621
 30
0.0
 11
158.5280642074
 21
92.0187682452
 31
0.0
  0
LINE
  5
1B0
330
1F
100
AcDbEntity
  8
0
  6
PHANTOM
 62
     8
370
    18
100
AcDbLine
 10
158.5295927874
 20
87.4567217016
 30
0.0
 11
151.9119457286
 21
87.2878832397
 31
0.0
  0
LINE
  5
1B1
330
1F
100
AcDbEntity
  8
0
  6
PHANTOM
 62
     8
370
    18
100
AcDbLine
 10
158.5295927874
 20
93.3812698621
 30
0.0
 11
151.9119457286
 21
91.8183661093
 31
0.0
  0
SPLINE
  5
1B2
330
1F
100
AcDbEntity
  8
0
  6
PHANTOM
 62
     8
370
    18
100
AcDbSpline
210
0.0
220
0.0
230
1.0
 70
    24
 71
     3
 72
    12
 73
     8
 74
     0
 42
0.00000001
 43
0.00000001
 40
0.0
 40
0.0
 40
0.0
 40
0.0
 40
0.1953079019820321
 40
0.389745681498958
 40
0.5803286157885684
 40
0.7963349348810661
 40
1.0
 40
1.0
 40
1.0
 40
1.0
 10
65.53584915300249
 20
122.3812698621279
 30
0.0
 10
65.18698849272037
 20
122.3812698621279
 30
0.0
 10
64.49082139241362
 20
122.3812698621279
 30
0.0
 10
63.20358110966494
 20
122.3812698621279
 30
0.0
 10
61.73392903984251
 20
122.3812698621279
 30
0.0
 10
60.1196366347828
 20
122.3812698621279
 30
0.0
 10
58.9699060083023
 20
122.3812698621279
 30
0.0
 10
58.411945728615
 20
122.3812698621279
 30
0.0
  0
LINE
  5
1B3
330
1F
100
AcDbEntity
  8
0
  6
PHANTOM
 62
     8
370
    18
100
AcDbLine
 10
151.9119457286
 20
85.944173615
 30
0.0
 11
131.9119457286
 21
109.4178745425
 31
0.0
  0
LINE
  5
1B4
330
1F
100
AcDbEntity
  8
0
  6
PHANTOM
 62
     8
370
    18
100
AcDbLine
 10
151.9119457286
 20
87.2878832397
 30
0.0
 11
131.9119457286
 21
110.126852019
 31
0.0
  0
LINE
  5
1B5
330
1F
100
AcDbEntity
  8
0
  6
PHANTOM
 62
     8
370
    18
100
AcDbLine
 10
151.9119457286
 20
90.4746564846
 30
0.0
 11
131.9119457286
 21
112.6356877052
 31
0.0
  0
LINE
  5
1B6
330
1F
100
AcDbEntity
  8
0
  6
PHANTOM
 62
     8
370
    18
100
AcDbLine
 10
151.9119457286
 20
91.8183661093
 30
0.0
 11
131.9119457286
 21
113.3446651818
 31
0.0
  0
LINE
  5
1B7
330
1F
100
AcDbEntity
  8
0
  6
PHANTOM
 62
     8
370
    18
100
AcDbLine
 10
131.9119457286
 20
110.126852019
 30
0.0
 11
67.4119457286
 21
121.0577404504
 31
0.0
  0
LINE
  5
1B8
330
1F
100
AcDbEntity
  8
0
  6
PHANTOM
 62
     8
370
    18
100
AcDbLine
 10
131.9119457286
 20
112.6356877052
 30
0.0
 11
67.4119457286
 21
123.7047992739
 31
0.0
  0
LINE
  5
1B9
330
1F
100
AcDbEntity
  8
0
  6
PHANTOM
 62
     8
370
    18
100
AcDbLine
 10
131.9119457286
 20
109.4178745425
 30
0.0
 11
67.4119457286
 21
120.6504857929
 31
0.0
  0
LINE
  5
1BA
330
1F
100
AcDbEntity
  8
0
  6
PHANTOM
 62
     8
370
    18
100
AcDbLine
 10
131.9119457286
 20
113.3446651818
 30
0.0
 11
67.4119457286
 21
124.1120539314
 31
0.0
  0
LINE
  5
1BB
330
1F
100
AcDbEntity
  8
0
  6
PHANTOM
 62
     8
370
    18
100
AcDbLine
 10
67.4119457286
 20
123.7047992739
 30
0.0
 11
65.9685945346
 21
123.7047992739
 31
0.0
  0
LINE
  5
1BC
330
1F
100
AcDbEntity
  8
0
  6
PHANTOM
 62
     8
370
    18
100
AcDbLine
 10
67.4119457286
 20
121.0577404504
 30
0.0
 11
65.9685945346
 21
121.0577404504
 31
0.0
  0
LINE
  5
1BD
330
1F
100
AcDbEntity
  8
0
  6
PHANTOM
 62
     8
370
    18
100
AcDbLine
 10
140.4119457286
 20
79.3812698621
 30
0.0
 11
188.4119457286
 21
79.3812698621
 31
0.0
  0
LINE
  5
1BE
330
1F
100
AcDbEntity
  8
0
  6
PHANTOM
 62
     8
370
    18
100
AcDbLine
 10
188.4119457286
 20
41.3812698621
 30
0.0
 11
140.4119457286
 21
41.3812698621
 31
0.0
  0
LINE
  5
1BF
330
1F
100
AcDbEntity
  8
0
  6
PHANTOM
 62
     8
370
    18
100
AcDbLine
 10
166.9118975047
 20
83.8812698621
 30
0.0
 11
166.9118975047
 21
80.9314992198
 31
0.0
  0
LINE
  5
1C0
330
1F
100
AcDbEntity
  8
0
  6
PHANTOM
 62
     8
370
    18
100
AcDbLine
 10
168.2035392557
 20
80.8812698621
 30
0.0
 11
168.2035392557
 21
83.8812698621
 31
0.0
  0
LINE
  5
1C1
330
1F
100
AcDbEntity
  8
0
  6
PHANTOM
 62
     8
370
    18
100
AcDbLine
 10
176.8467283373
 20
83.8812698621
 30
0.0
 11
176.8467283373
 21
80.8812698621
 31
0.0
  0
LINE
  5
1C2
330
1F
100
AcDbEntity
  8
0
  6
PHANTOM
 62
     8
370
    18
100
AcDbLine
 10
164.4119457286
 20
83.8812698621
 30
0.0
 11
164.4119457286
 21
83.3812698621
 31
0.0
  0
LINE
  5
1C3
330
1F
100
AcDbEntity
  8
0
  6
PHANTOM
 62
     8
370
    18
100
AcDbLine
 10
157.4119457286
 20
80.4812698621
 30
0.0
 11
161.9119457286
 21
80.4812698621
 31
0.0
  0
LINE
  5
1C4
330
1F
100
AcDbEntity
  8
0
  6
PHANTOM
 62
     8
370
    18
100
AcDbLine
 10
166.9119457286
 20
80.4812698621
 30
0.0
 11
171.4119457286
 21
80.4812698621
 31
0.0
  0
LINE
  5
1C5
330
1F
100
AcDbEntity
  8
0
  6
PHANTOM
 62
     8
370
    18
100
AcDbLine
 10
152.9274736789
 20
80.8812698621
 30
0.0
 11
152.9274736789
 21
83.8812698621
 31
0.0
  0
POINT
  5
1C6
330
1F
100
AcDbEntity
  8
0
  6
Continuous
 62
     7
370
     0
100
AcDbPoint
 10
58.4119457286
 20
131.3812698621
 30
0.0
  0
DIMENSION
  5
1C7
330
1F
100
AcDbEntity
  8
0
  6
Continuous
 62
     7
370
    18
100
AcDbDimension
  2
_D
 10
39.407128571
 20
40.3812698621
 30
0.0
 11
39.407128571
 21
85.7054155132
 31
0.0
 70
   160
  1
<>
 71
     2
 42
-1.0
  3
SLDDIMSTYLE0
100
AcDbAlignedDimension
 13
58.4119457286
 23
131.3812698621
 33
0.0
 14
140.4119457286
 24
40.3812698621
 34
0.0
 50
90.0
100
AcDbRotatedDimension
  0
DIMENSION
  5
1DA
330
1F
100
AcDbEntity
  8
0
  6
Continuous
 62
     7
370
    18
100
AcDbDimension
  2
_D_1
 10
205.9119457286
 20
30.3812698621
 30
0.0
 11
164.0787124475
 21
30.3812698621
 31
0.0
 70
   160
  1
<>
 71
     2
 42
-1.0
  3
SLDDIMSTYLE1
100
AcDbAlignedDimension
 13
122.9119457286
 23
59.3812698621
 33
0.0
 14
205.9119457286
 24
59.3812698621
 34
0.0
 50
0.0
100
AcDbRotatedDimension
  0
ARC
  5
1E5
330
1F
100
AcDbEntity
  8
0
  6
Continuous
 62
     7
370
    25
100
AcDbCircle
 10
58.4119457286
 20
223.0134226553
 30
0.0
 40
9.000000000000039
100
AcDbArc
 50
90.0
 51
269.1777405858
  0
LINE
  5
1E6
330
1F
100
AcDbEntity
  8
0
  6
Continuous
 62
     7
370
    25
100
AcDbLine
 10
67.422396183
 20
228.5134226553
 30
0.0
 11
65.535849153
 21
228.5134226553
 31
0.0
  0
LINE
  5
1E7
330
1F
100
AcDbEntity
  8
0
  6
Continuous
 62
     7
370
    25
100
AcDbLine
 10
65.535849153
 20
217.5134226553
 30
0.0
 11
67.4224113146
 21
217.5134226553
 31
0.0
  0
LWPOLYLINE
  5
1E8
330
1F
100
AcDbEntity
  8
0
  6
Continuous
 62
     7
370
    25
100
AcDbPolyline
 90
        4
 70
   128
 43
0.0
 10
67.4119457286
 20
217.513566869
 10
94.1793190475
 20
217.0985179789
 10
105.9905979808
 20
216.9153788839
 10
131.9119457286
 20
216.5134479782
  0
LWPOLYLINE
  5
1E9
330
1F
100
AcDbEntity
  8
0
  6
Continuous
 62
     7
370
    25
100
AcDbPolyline
 90
        5
 70
   128
 43
0.0
 10
131.9119457286
 20
229.5133973324
 10
96.9441066465
 20
228.9711965947
 10
86.8255963053
 20
228.8143041534
 10
79.7900735014
 20
228.7052137614
 10
67.4119457286
 20
228.5132784416
  0
LWPOLYLINE
  5
1EA
330
1F
100
AcDbEntity
  8
0
  6
Continuous
 62
     7
370
    25
100
AcDbPolyline
 90
        3
 70
   128
 43
0.0
 10
131.9119457286
 20
216.5126822233
 10
142.6178284803
 20
215.9777961121
 10
151.9119457286
 20
215.5134226553
  0
LWPOLYLINE
  5
1EB
330
1F
100
AcDbEntity
  8
0
  6
Continuous
 62
     7
370
    25
100
AcDbPolyline
 90
        3
 70
   128
 43
0.0
 10
151.9119457286
 20
230.5134226553
 10
142.6178279055
 20
230.0490491701
 10
131.9119457286
 20
229.5141630878
  0
ARC
  5
1EC
330
1F
100
AcDbEntity
  8
0
  6
Continuous
 62
     7
370
    25
100
AcDbCircle
 10
164.4119457286
 20
223.0134226553
 30
0.0
 40
12.50000000000009
100
AcDbArc
 50
241.9208668775
 51
90.0
  0
ARC
  5
1ED
330
1F
100
AcDbEntity
  8
0
  6
Continuous
 62
     7
370
    25
100
AcDbCircle
 10
164.4119457286
 20
223.0134226553
 30
0.0
 40
12.50000000000009
100
AcDbArc
 50
90.0
 51
118.0717274254
  0
SPLINE
  5
1EE
330
1F
100
AcDbEntity
  8
0
  6
Continuous
 62
     7
370
    25
100
AcDbSpline
210
0.0
220
0.0
230
1.0
 70
     8
 71
     3
 72
    17
 73
    13
 74
     0
 42
0.00000001
 43
0.00000001
 40
0.0
 40
0.0
 40
0.0
 40
0.0
 40
0.0088899747990511
 40
0.0619746061067698
 40
0.1215857734102812
 40
0.187120306083969
 40
0.2604817767879518
 40
0.3885339830029876
 40
0.5328089888361454
 40
0.6794770871216838
 40
0.8427452088103916
 40
1.0
 40
1.0
 40
1.0
 40
1.0
 10
151.9118606815492
 20
215.5132551608193
 30
0.0
 10
151.9181350018795
 20
215.5100846572875
 30
0.0
 10
151.9618751181173
 20
215.4879821528384
 30
0.0
 10
152.137909423222
 20
215.394418785483
 30
0.0
 10
152.4379737993569
 20
215.2336910379644
 30
0.0
 10
152.8558229096496
 20
215.010041796322
 30
0.0
 10
153.4756777434637
 20
214.6797961960541
 30
0.0
 10
154.2956306709238
 20
214.2432569347545
 30
0.0
 10
155.2661207744844
 20
213.7255075153502
 30
0.0
 10
156.3141886986206
 20
213.16670045976
 30
0.0
 10
157.4074104624499
 20
212.5840818249072
 30
0.0
 10
158.160239957262
 20
212.1826227525614
 30
0.0
 10
158.5295927874386
 20
211.9856591032984
 30
0.0
  0
SPLINE
  5
1EF
330
1F
100
AcDbEntity
  8
0
  6
Continuous
 62
     7
370
    25
100
AcDbSpline
210
0.0
220
0.0
230
1.0
 70
     8
 71
     3
 72
    12
 73
     8
 74
     0
 42
0.00000001
 43
0.00000001
 40
0.0
 40
0.0
 40
0.0
 40
0.0
 40
0.2732666273832264
 40
0.540150654185704
 40
0.8265182673808996
 40
0.9282904578835298
 40
1.0
 40
1.0
 40
1.0
 40
1.0
 10
158.5295927874386
 20
234.0427527693567
 30
0.0
 10
157.9266982853118
 20
233.7212155127909
 30
0.0
 10
156.7349908937172
 20
233.085651041775
 30
0.0
 10
154.9144800435353
 20
232.1147071888937
 30
0.0
 10
153.4710974153318
 20
231.3450178159839
 30
0.0
 10
152.4481063363563
 20
230.7993105207241
 30
0.0
 10
152.0687458048095
 20
230.5970484016662
 30
0.0
 10
151.9119352311336
 20
230.5134423428254
 30
0.0
  0
LINE
  5
1F0
330
1F
100
AcDbEntity
  8
0
  6
Continuous
 62
     7
370
    25
100
AcDbLine
 10
139.5119457286
 20
208.5134226553
 30
0.0
 11
140.4119457286
 21
208.5134226553
 31
0.0
  0
LINE
  5
1F1
330
1F
100
AcDbEntity
  8
0
  6
Continuous
 62
     7
370
    25
100
AcDbLine
 10
140.4119457286
 20
237.5134226553
 30
0.0
 11
139.5119457286
 21
237.5134226553
 31
0.0
  0
LINE
  5
1F2
330
1F
100
AcDbEntity
  8
0
  6
Continuous
 62
     7
370
    25
100
AcDbLine
 10
189.3119457286
 20
237.5134226553
 30
0.0
 11
188.4119457286
 21
237.5134226553
 31
0.0
  0
LINE
  5
1F3
330
1F
100
AcDbEntity
  8
0
  6
Continuous
 62
     7
370
    25
100
AcDbLine
 10
188.4119457286
 20
208.5134226553
 30
0.0
 11
189.3119457286
 21
208.5134226553
 31
0.0
  0
SPLINE
  5
1F4
330
1F
100
AcDbEntity
  8
0
  6
Continuous
 62
     7
370
    25
100
AcDbSpline
210
0.0
220
0.0
230
1.0
 70
     8
 71
     3
 72
    16
 73
    12
 74
     0
 42
0.00000001
 43
0.00000001
 40
0.0
 40
0.0
 40
0.0
 40
0.0
 40
0.1041997197396797
 40
0.2140295189846902
 40
0.3282478159868166
 40
0.4452432110273836
 40
0.563147446205159
 40
0.677943366094153
 40
0.789968517633101
 40
0.8977094860753313
 40
1.0
 40
1.0
 40
1.0
 40
1.0
 10
153.413309449512
 20
223.1866277360553
 30
0.0
 10
153.4506085451556
 20
223.7801334038095
 30
0.0
 10
153.5272220669493
 20
224.9992128111386
 30
0.0
 10
154.0333929735916
 20
226.8126971896776
 30
0.0
 10
154.8552961342515
 20
228.5813856069532
 30
0.0
 10
156.013592126831
 20
230.2118351821224
 30
0.0
 10
157.4495792267645
 20
231.6069970394135
 30
0.0
 10
159.0895543956633
 20
232.7063821377566
 30
0.0
 10
160.8429299065454
 20
233.4712895507479
 30
0.0
 10
162.6315355542889
 20
233.9312006974493
 30
0.0
 10
163.8288325508979
 20
233.9864936319695
 30
0.0
 10
164.411945728615
 20
234.0134226552985
 30
0.0
  0
SPLINE
  5
1F5
330
1F
100
AcDbEntity
  8
0
  6
Continuous
 62
     7
370
    25
100
AcDbSpline
210
0.0
220
0.0
230
1.0
 70
     8
 71
     3
 72
    16
 73
    12
 74
     0
 42
0.00000001
 43
0.00000001
 40
0.0
 40
0.0
 40
0.0
 40
0.0
 40
0.10419971973968
 40
0.2140295189846907
 40
0.3282478159868175
 40
0.4452432110273845
 40
0.5631474462051599
 40
0.6779433660941541
 40
0.7899685176331017
 40
0.8977094860753314
 40
1.0
 40
1.0
 40
1.0
 40
1.0
 10
164.411945728615
 20
234.0134226552985
 30
0.0
 10
165.0059651251684
 20
233.985473474443
 30
0.0
 10
166.2260997476945
 20
233.9280649732544
 30
0.0
 10
168.0473294249805
 20
233.4505117924375
 30
0.0
 10
169.8287401882527
 20
232.6565601469288
 30
0.0
 10
171.4772260609471
 20
231.5240806764208
 30
0.0
 10
172.894825886441
 20
230.1102397044671
 30
0.0
 10
174.0198976008873
 20
228.4877786767637
 30
0.0
 10
174.8123186890365
 20
226.7466647081601
 30
0.0
 10
175.300336053485
 20
224.9655225246169
 30
0.0
 10
175.3744746715377
 20
223.7692446003828
 30
0.0
 10
175.410582007718
 20
223.1866277360554
 30
0.0
  0
LINE
  5
1F6
330
1F
100
AcDbEntity
  8
0
  6
Continuous
 62
     7
370
    25
100
AcDbLine
 10
171.12660874
 20
223.1866277361
 30
0.0
 11
175.4105820077
 21
223.1866277361
 31
0.0
  0
LINE
  5
1F7
330
1F
100
AcDbEntity
  8
0
  6
Continuous
 62
     7
370
    25
100
AcDbLine
 10
153.4133094495
 20
223.1866277361
 30
0.0
 11
157.6814734454
 21
223.1866277361
 31
0.0
  0
LINE
  5
1F8
330
1F
100
AcDbEntity
  8
0
  6
Continuous
 62
     7
370
    25
100
AcDbLine
 10
157.6893780813
 20
223.0134226553
 30
0.0
 11
153.4119457286
 21
223.0134226553
 31
0.0
  0
SPLINE
  5
1F9
330
1F
100
AcDbEntity
  8
0
  6
Continuous
 62
     7
370
    25
100
AcDbSpline
210
0.0
220
0.0
230
1.0
 70
     8
 71
     3
 72
     9
 73
     5
 74
     0
 42
0.00000001
 43
0.00000001
 40
0.0
 40
0.0
 40
0.0
 40
0.0
 40
0.560012142875518
 40
1.0
 40
1.0
 40
1.0
 40
1.0
 10
153.411945728615
 20
223.0134226552985
 30
0.0
 10
153.4120170022981
 20
223.0457553538821
 30
0.0
 10
153.4121442739726
 20
223.1034910637144
 30
0.0
 10
153.412953430476
 20
223.1612253507986
 30
0.0
 10
153.413309449512
 20
223.1866277360553
 30
0.0
  0
LINE
  5
1FA
330
1F
100
AcDbEntity
  8
0
  6
Continuous
 62
     7
370
    25
100
AcDbLine
 10
175.4105820077
 20
222.8402175745
 30
0.0
 11
171.1424180119
 21
222.8402175745
 31
0.0
  0
LINE
  5
1FB
330
1F
100
AcDbEntity
  8
0
  6
Continuous
 62
     7
370
    25
100
AcDbLine
 10
157.6972827173
 20
222.8402175745
 30
0.0
 11
153.4133094495
 21
222.8402175745
 31
0.0
  0
SPLINE
  5
1FC
330
1F
100
AcDbEntity
  8
0
  6
Continuous
 62
     7
370
    25
100
AcDbSpline
210
0.0
220
0.0
230
1.0
 70
     8
 71
     3
 72
    23
 73
    19
 74
     0
 42
0.00000001
 43
0.00000001
 40
0.0
 40
0.0
 40
0.0
 40
0.0
 40
0.058343093746039
 40
0.1201088138988291
 40
0.184387292337165
 40
0.2499999999999998
 40
0.3156127076628347
 40
0.3798911861011706
 40
0.4416569062539609
 40
0.5000000000000001
 40
0.5583430937460393
 40
0.6201088138988295
 40
0.6843872923371656
 40
0.7500000000000004
 40
0.8156127076628352
 40
0.879891186101171
 40
0.9416569062539611
 40
1.0
 40
1.0
 40
1.0
 40
1.0
 10
175.410582007718
 20
222.8402175745416
 30
0.0
 10
175.3650395207009
 20
222.1756932002781
 30
0.0
 10
175.271282852235
 20
220.8076609401603
 30
0.0
 10
174.6386355291776
 20
218.7857858014932
 30
0.0
 10
173.6126661657443
 20
216.8466014084655
 30
0.0
 10
172.182029856103
 20
215.1196401508128
 30
0.0
 10
170.433226376096
 20
213.7181170050048
 30
0.0
 10
168.4780051089234
 20
212.716490023221
 30
0.0
 10
166.4464494626743
 20
212.1379465605934
 30
0.0
 10
164.411945728615
 20
211.9529349221803
 30
0.0
 10
162.3774419945558
 20
212.1379465605934
 30
0.0
 10
160.3458863483067
 20
212.716490023221
 30
0.0
 10
158.390665081134
 20
213.7181170050048
 30
0.0
 10
156.641861601127
 20
215.1196401508128
 30
0.0
 10
155.2112252914858
 20
216.8466014084655
 30
0.0
 10
154.1852559280524
 20
218.7857858014932
 30
0.0
 10
153.5526086049951
 20
220.8076609401603
 30
0.0
 10
153.4588519365291
 20
222.175693200278
 30
0.0
 10
153.413309449512
 20
222.8402175745416
 30
0.0
  0
LINE
  5
1FD
330
1F
100
AcDbEntity
  8
0
  6
Continuous
 62
     7
370
    25
100
AcDbLine
 10
171.1345133759
 20
223.0134226553
 30
0.0
 11
175.4119457286
 21
223.0134226553
 31
0.0
  0
SPLINE
  5
1FE
330
1F
100
AcDbEntity
  8
0
  6
Continuous
 62
     7
370
    25
100
AcDbSpline
210
0.0
220
0.0
230
1.0
 70
     8
 71
     3
 72
     9
 73
     5
 74
     0
 42
0.00000001
 43
0.00000001
 40
0.0
 40
0.0
 40
0.0
 40
0.0
 40
0.5600121428755168
 40
1.0
 40
1.0
 40
1.0
 40
1.0
 10
175.411945728615
 20
223.0134226552985
 30
0.0
 10
175.4118744549319
 20
222.9810899567148
 30
0.0
 10
175.4117471832575
 20
222.9233542468824
 30
0.0
 10
175.4109380267541
 20
222.8656199597984
 30
0.0
 10
175.410582007718
 20
222.8402175745416
 30
0.0
  0
SPLINE
  5
1FF
330
1F
100
AcDbEntity
  8
0
  6
Continuous
 62
     7
370
    25
100
AcDbSpline
210
0.0
220
0.0
230
1.0
 70
     8
 71
     3
 72
     9
 73
     5
 74
     0
 42
0.00000001
 43
0.00000001
 40
0.0
 40
0.0
 40
0.0
 40
0.0
 40
0.5599892317495103
 40
0.9999999999999999
 40
0.9999999999999999
 40
0.9999999999999999
 40
0.9999999999999999
 10
153.413309449512
 20
222.8402175745416
 30
0.0
 10
153.412871606389
 20
222.8725482287797
 30
0.0
 10
153.4120897286346
 20
222.9302826500956
 30
0.0
 10
153.4119897293688
 20
222.9880183330752
 30
0.0
 10
153.411945728615
 20
223.0134226552985
 30
0.0
  0
SPLINE
  5
200
330
1F
100
AcDbEntity
  8
0
  6
Continuous
 62
     7
370
    25
100
AcDbSpline
210
0.0
220
0.0
230
1.0
 70
     8
 71
     3
 72
     9
 73
     5
 74
     0
 42
0.00000001
 43
0.00000001
 40
0.0
 40
0.0
 40
0.0
 40
0.0
 40
0.5599892317495132
 40
0.9999999999999999
 40
0.9999999999999999
 40
0.9999999999999999
 40
0.9999999999999999
 10
175.410582007718
 20
223.1866277360554
 30
0.0
 10
175.411019850841
 20
223.1542970818172
 30
0.0
 10
175.4118017285955
 20
223.0965626605013
 30
0.0
 10
175.4119017278612
 20
223.0388269775218
 30
0.0
 10
175.411945728615
 20
223.0134226552985
 30
0.0
  0
SPLINE
  5
201
330
1F
100
AcDbEntity
  8
0
  6
Continuous
 62
     7
370
    25
100
AcDbSpline
210
0.0
220
0.0
230
1.0
 70
     8
 71
     3
 72
    11
 73
     7
 74
     0
 42
0.00000001
 43
0.00000001
 40
0.0
 40
0.0
 40
0.0
 40
0.0
 40
0.2757314499394166
 40
0.5610422027418017
 40
0.7842685108023567
 40
1.0
 40
1.0
 40
1.0
 40
1.0
 10
164.411945728615
 20
227.0134226552985
 30
0.0
 10
164.0265755643504
 20
226.9812308969398
 30
0.0
 10
163.242446928036
 20
226.9157289927371
 30
0.0
 10
162.242220352865
 20
226.4237977752908
 30
0.0
 10
161.4565088576682
 20
225.7750795239116
 30
0.0
 10
161.1154579801417
 20
225.2644018204121
 30
0.0
 10
160.9478441134773
 20
225.0134226552985
 30
0.0
  0
SPLINE
  5
202
330
1F
100
AcDbEntity
  8
0
  6
Continuous
 62
     7
370
    25
100
AcDbSpline
210
0.0
220
0.0
230
1.0
 70
    24
 71
     3
 72
     9
 73
     5
 74
     0
 42
0.00000001
 43
0.00000001
 40
0.0
 40
0.0
 40
0.0
 40
0.0
 40
0.5778119623600694
 40
1.0
 40
1.0
 40
1.0
 40
1.0
 10
162.1025446518565
 20
227.0134226552985
 30
0.0
 10
161.880862248277
 20
226.6294574691548
 30
0.0
 10
161.4972038645461
 20
225.964941655783
 30
0.0
 10
161.1109260049879
 20
225.2958887771893
 30
0.0
 10
160.9478441134773
 20
225.0134226552985
 30
0.0
  0
SPLINE
  5
203
330
1F
100
AcDbEntity
  8
0
  6
Continuous
 62
     7
370
    25
100
AcDbSpline
210
0.0
220
0.0
230
1.0
 70
    24
 71
     3
 72
     9
 73
     5
 74
     0
 42
0.00000001
 43
0.00000001
 40
0.0
 40
0.0
 40
0.0
 40
0.0
 40
0.5398560076902732
 40
1.0
 40
1.0
 40
1.0
 40
1.0
 10
164.411945728615
 20
227.0134226552985
 30
0.0
 10
163.9948506307351
 20
227.0134226552985
 30
0.0
 10
163.2222462845051
 20
227.0134226552985
 30
0.0
 10
162.4554029878537
 20
227.0134226552985
 30
0.0
 10
162.1025446518565
 20
227.0134226552985
 30
0.0
  0
SPLINE
  5
204
330
1F
100
AcDbEntity
  8
0
  6
Continuous
 62
     7
370
    25
100
AcDbSpline
210
0.0
220
0.0
230
1.0
 70
     8
 71
     3
 72
    11
 73
     7
 74
     0
 42
0.00000001
 43
0.00000001
 40
0.0
 40
0.0
 40
0.0
 40
0.0
 40
0.2757314499394152
 40
0.561042202741801
 40
0.7842685108023562
 40
1.0
 40
1.0
 40
1.0
 40
1.0
 10
160.9478441134773
 20
221.0134226552984
 30
0.0
 10
161.1684080761406
 20
220.695778182364
 30
0.0
 10
161.6171987073337
 20
220.0494538155823
 30
0.0
 10
162.5433369261422
 20
219.4291978006671
 30
0.0
 10
163.4979991593336
 20
219.0731108114707
 30
0.0
 10
164.1107844624738
 20
219.0330909392996
 30
0.0
 10
164.411945728615
 20
219.0134226552984
 30
0.0
  0
SPLINE
  5
205
330
1F
100
AcDbEntity
  8
0
  6
Continuous
 62
     7
370
    25
100
AcDbSpline
210
0.0
220
0.0
230
1.0
 70
     8
 71
     3
 72
    11
 73
     7
 74
     0
 42
0.00000001
 43
0.00000001
 40
0.0
 40
0.0
 40
0.0
 40
0.0
 40
0.2757314499394157
 40
0.5610422027418012
 40
0.7842685108023563
 40
1.0
 40
1.0
 40
1.0
 40
1.0
 10
160.9478441134773
 20
225.0134226552985
 30
0.0
 10
160.783037911876
 20
224.6635864240054
 30
0.0
 10
160.4476999067547
 20
223.9517601530209
 30
0.0
 10
160.3736115503923
 20
222.8395729206594
 30
0.0
 10
160.5425622883868
 20
221.8347676800839
 30
0.0
 10
160.8142967140004
 20
221.2840701044132
 30
0.0
 10
160.9478441134773
 20
221.0134226552984
 30
0.0
  0
SPLINE
  5
206
330
1F
100
AcDbEntity
  8
0
  6
Continuous
 62
     7
370
    25
100
AcDbSpline
210
0.0
220
0.0
230
1.0
 70
     8
 71
     3
 72
    11
 73
     7
 74
     0
 42
0.00000001
 43
0.00000001
 40
0.0
 40
0.0
 40
0.0
 40
0.0
 40
0.275731449939416
 40
0.561042202741802
 40
0.7842685108023569
 40
1.0
 40
1.0
 40
1.0
 40
1.0
 10
167.8760473437528
 20
225.0134226552985
 30
0.0
 10
167.6554833810894
 20
225.3310671282329
 30
0.0
 10
167.2066927498963
 20
225.9773914950146
 30
0.0
 10
166.2805545310878
 20
226.5976475099298
 30
0.0
 10
165.3258922978964
 20
226.9537344991262
 30
0.0
 10
164.7131069947563
 20
226.9937543712973
 30
0.0
 10
164.411945728615
 20
227.0134226552985
 30
0.0
  0
SPLINE
  5
207
330
1F
100
AcDbEntity
  8
0
  6
Continuous
 62
     7
370
    25
100
AcDbSpline
210
0.0
220
0.0
230
1.0
 70
     8
 71
     3
 72
    11
 73
     7
 74
     0
 42
0.00000001
 43
0.00000001
 40
0.0
 40
0.0
 40
0.0
 40
0.0
 40
0.2757314499394155
 40
0.5610422027418013
 40
0.7842685108023562
 40
1.0
 40
1.0
 40
1.0
 40
1.0
 10
167.8760473437528
 20
221.0134226552985
 30
0.0
 10
168.0408535453541
 20
221.3632588865915
 30
0.0
 10
168.3761915504754
 20
222.075085157576
 30
0.0
 10
168.4502799068378
 20
223.1872723899375
 30
0.0
 10
168.2813291688433
 20
224.192077630513
 30
0.0
 10
168.0095947432296
 20
224.7427752061837
 30
0.0
 10
167.8760473437528
 20
225.0134226552985
 30
0.0
  0
SPLINE
  5
208
330
1F
100
AcDbEntity
  8
0
  6
Continuous
 62
     7
370
    25
100
AcDbSpline
210
0.0
220
0.0
230
1.0
 70
     8
 71
     3
 72
    11
 73
     7
 74
     0
 42
0.00000001
 43
0.00000001
 40
0.0
 40
0.0
 40
0.0
 40
0.0
 40
0.2757314499394164
 40
0.5610422027418018
 40
0.7842685108023568
 40
1.0
 40
1.0
 40
1.0
 40
1.0
 10
164.411945728615
 20
219.0134226552984
 30
0.0
 10
164.7973158928796
 20
219.045614413657
 30
0.0
 10
165.581444529194
 20
219.1111163178599
 30
0.0
 10
166.581671104365
 20
219.6030475353061
 30
0.0
 10
167.3673825995619
 20
220.2517657866853
 30
0.0
 10
167.7084334770883
 20
220.7624434901848
 30
0.0
 10
167.8760473437528
 20
221.0134226552984
 30
0.0
  0
SPLINE
  5
209
330
1F
100
AcDbEntity
  8
0
  6
Continuous
 62
     7
370
    25
100
AcDbSpline
210
0.0
220
0.0
230
1.0
 70
     8
 71
     3
 72
    19
 73
    15
 74
     0
 42
0.00000001
 43
0.00000001
 40
0.0
 40
0.0
 40
0.0
 40
0.0
 40
0.0785035252242152
 40
0.1626765933322123
 40
0.2500000000000002
 40
0.3373234066677879
 40
0.4214964747757849
 40
0.4999999999999999
 40
0.5785035252242154
 40
0.6626765933322124
 40
0.7500000000000001
 40
0.8373234066677878
 40
0.9214964747757848
 40
1.0
 40
1.0
 40
1.0
 40
1.0
 10
162.711945728615
 20
225.9579090281655
 30
0.0
 10
162.4800287484148
 20
225.8008261186864
 30
0.0
 10
161.9994456896652
 20
225.4753157354037
 30
0.0
 10
161.4492746606812
 20
224.7594463779356
 30
0.0
 10
161.0859238752746
 20
223.9052008185083
 30
0.0
 10
160.9707960006826
 20
222.9810457340502
 30
0.0
 10
161.1003565119239
 20
222.0926537746527
 30
0.0
 10
161.4374964017467
 20
221.2961235357402
 30
0.0
 10
161.958741878616
 20
220.6058867070682
 30
0.0
 10
162.6633316283516
 20
220.0494880333071
 30
0.0
 10
163.5212373458247
 20
219.6871141551586
 30
0.0
 10
164.4427110940622
 20
219.574662386092
 30
0.0
 10
165.3377576579124
 20
219.6931897948844
 30
0.0
 10
165.8599494484056
 20
219.9466317407485
 30
0.0
 10
166.111945728615
 20
220.0689362824313
 30
0.0
  0
SPLINE
  5
20A
330
1F
100
AcDbEntity
  8
0
  6
Continuous
 62
     7
370
    25
100
AcDbSpline
210
0.0
220
0.0
230
1.0
 70
     8
 71
     3
 72
    19
 73
    15
 74
     0
 42
0.00000001
 43
0.00000001
 40
0.0
 40
0.0
 40
0.0
 40
0.0
 40
0.0785035252242149
 40
0.1626765933322117
 40
0.2499999999999992
 40
0.3373234066677867
 40
0.4214964747757835
 40
0.5
 40
0.578503525224214
 40
0.6626765933322113
 40
0.7499999999999992
 40
0.8373234066677873
 40
0.9214964747757846
 40
1.0
 40
1.0
 40
1.0
 40
1.0
 10
166.111945728615
 20
220.0689362824313
 30
0.0
 10
166.3438627088153
 20
220.2260191919105
 30
0.0
 10
166.8244457675648
 20
220.5515295751933
 30
0.0
 10
167.3746167965488
 20
221.2673989326613
 30
0.0
 10
167.7379675819554
 20
222.1216444920886
 30
0.0
 10
167.8530954565474
 20
223.0457995765466
 30
0.0
 10
167.7235349453062
 20
223.9341915359443
 30
0.0
 10
167.3863950554833
 20
224.7307217748568
 30
0.0
 10
166.865149578614
 20
225.4209586035287
 30
0.0
 10
166.1605598288785
 20
225.9773572772897
 30
0.0
 10
165.3026541114053
 20
226.3397311554384
 30
0.0
 10
164.3811803631679
 20
226.4521829245049
 30
0.0
 10
163.4861337993177
 20
226.3336555157125
 30
0.0
 10
162.9639420088245
 20
226.0802135698484
 30
0.0
 10
162.711945728615
 20
225.9579090281655
 30
0.0
  0
SPLINE
  5
20B
330
1F
100
AcDbEntity
  8
0
  6
Continuous
 62
     7
370
    25
100
AcDbSpline
210
0.0
220
0.0
230
1.0
 70
    24
 71
     3
 72
     9
 73
     5
 74
     0
 42
0.00000001
 43
0.00000001
 40
0.0
 40
0.0
 40
0.0
 40
0.0
 40
0.5398560076902722
 40
1.0
 40
1.0
 40
1.0
 40
1.0
 10
167.8760473437528
 20
225.0134226552985
 30
0.0
 10
167.6674997948128
 20
225.3746376058564
 30
0.0
 10
167.2811976216978
 20
226.0437325967659
 30
0.0
 10
166.8977759733721
 20
226.7078383723878
 30
0.0
 10
166.7213468053735
 20
227.0134226552985
 30
0.0
  0
SPLINE
  5
20C
330
1F
100
AcDbEntity
  8
0
  6
Continuous
 62
     7
370
    25
100
AcDbSpline
210
0.0
220
0.0
230
1.0
 70
    24
 71
     3
 72
     9
 73
     5
 74
     0
 42
0.00000001
 43
0.00000001
 40
0.0
 40
0.0
 40
0.0
 40
0.0
 40
0.5778119623600679
 40
1.0
 40
1.0
 40
1.0
 40
1.0
 10
166.7213468053735
 20
227.0134226552985
 30
0.0
 10
166.2779819982146
 20
227.0134226552985
 30
0.0
 10
165.5106652307526
 20
227.0134226552985
 30
0.0
 10
164.7381095116363
 20
227.0134226552985
 30
0.0
 10
164.411945728615
 20
227.0134226552985
 30
0.0
  0
SPLINE
  5
20D
330
1F
100
AcDbEntity
  8
0
  6
Continuous
 62
     7
370
    25
100
AcDbSpline
210
0.0
220
0.0
230
1.0
 70
    24
 71
     3
 72
     9
 73
     5
 74
     0
 42
0.00000001
 43
0.00000001
 40
0.0
 40
0.0
 40
0.0
 40
0.0
 40
0.539856007690271
 40
0.9999999999999999
 40
0.9999999999999999
 40
0.9999999999999999
 40
0.9999999999999999
 10
167.8760473437528
 20
221.0134226552985
 30
0.0
 10
168.0845948926927
 20
221.3746376058564
 30
0.0
 10
168.4708970658077
 20
222.0437325967659
 30
0.0
 10
168.8543187141335
 20
222.7078383723878
 30
0.0
 10
169.030747882132
 20
223.0134226552985
 30
0.0
  0
SPLINE
  5
20E
330
1F
100
AcDbEntity
  8
0
  6
Continuous
 62
     7
370
    25
100
AcDbSpline
210
0.0
220
0.0
230
1.0
 70
    24
 71
     3
 72
     9
 73
     5
 74
     0
 42
0.00000001
 43
0.00000001
 40
0.0
 40
0.0
 40
0.0
 40
0.0
 40
0.577811962360066
 40
1.0
 40
1.0
 40
1.0
 40
1.0
 10
169.030747882132
 20
223.0134226552985
 30
0.0
 10
168.8090654785525
 20
223.3973878414421
 30
0.0
 10
168.4254070948216
 20
224.0619036548139
 30
0.0
 10
168.0391292352634
 20
224.7309565334076
 30
0.0
 10
167.8760473437528
 20
225.0134226552985
 30
0.0
  0
SPLINE
  5
20F
330
1F
100
AcDbEntity
  8
0
  6
Continuous
 62
     7
370
    25
100
AcDbSpline
210
0.0
220
0.0
230
1.0
 70
    24
 71
     3
 72
     9
 73
     5
 74
     0
 42
0.00000001
 43
0.00000001
 40
0.0
 40
0.0
 40
0.0
 40
0.0
 40
0.5778119623600688
 40
1.0
 40
1.0
 40
1.0
 40
1.0
 10
159.793143575098
 20
223.0134226552985
 30
0.0
 10
160.0148259786775
 20
222.6294574691548
 30
0.0
 10
160.3984843624085
 20
221.964941655783
 30
0.0
 10
160.7847622219666
 20
221.2958887771893
 30
0.0
 10
160.9478441134773
 20
221.0134226552984
 30
0.0
  0
SPLINE
  5
210
330
1F
100
AcDbEntity
  8
0
  6
Continuous
 62
     7
370
    25
100
AcDbSpline
210
0.0
220
0.0
230
1.0
 70
    24
 71
     3
 72
     9
 73
     5
 74
     0
 42
0.00000001
 43
0.00000001
 40
0.0
 40
0.0
 40
0.0
 40
0.0
 40
0.5398560076902675
 40
0.9999999999999999
 40
0.9999999999999999
 40
0.9999999999999999
 40
0.9999999999999999
 10
160.9478441134773
 20
225.0134226552985
 30
0.0
 10
160.7392965645373
 20
224.6522077047405
 30
0.0
 10
160.3529943914223
 20
223.983112713831
 30
0.0
 10
159.9695727430966
 20
223.3190069382091
 30
0.0
 10
159.793143575098
 20
223.0134226552985
 30
0.0
  0
SPLINE
  5
211
330
1F
100
AcDbEntity
  8
0
  6
Continuous
 62
     7
370
    25
100
AcDbSpline
210
0.0
220
0.0
230
1.0
 70
    24
 71
     3
 72
     9
 73
     5
 74
     0
 42
0.00000001
 43
0.00000001
 40
0.0
 40
0.0
 40
0.0
 40
0.0
 40
0.5778119623600652
 40
1.0
 40
1.0
 40
1.0
 40
1.0
 10
162.1025446518565
 20
219.0134226552984
 30
0.0
 10
162.5459094590155
 20
219.0134226552984
 30
0.0
 10
163.3132262264774
 20
219.0134226552984
 30
0.0
 10
164.0857819455938
 20
219.0134226552984
 30
0.0
 10
164.411945728615
 20
219.0134226552984
 30
0.0
  0
SPLINE
  5
212
330
1F
100
AcDbEntity
  8
0
  6
Continuous
 62
     7
370
    25
100
AcDbSpline
210
0.0
220
0.0
230
1.0
 70
    24
 71
     3
 72
     9
 73
     5
 74
     0
 42
0.00000001
 43
0.00000001
 40
0.0
 40
0.0
 40
0.0
 40
0.0
 40
0.5398560076902701
 40
1.0
 40
1.0
 40
1.0
 40
1.0
 10
160.9478441134773
 20
221.0134226552984
 30
0.0
 10
161.1563916624172
 20
220.6522077047405
 30
0.0
 10
161.5426938355322
 20
219.983112713831
 30
0.0
 10
161.9261154838579
 20
219.3190069382091
 30
0.0
 10
162.1025446518565
 20
219.0134226552984
 30
0.0
  0
SPLINE
  5
213
330
1F
100
AcDbEntity
  8
0
  6
Continuous
 62
     7
370
    25
100
AcDbSpline
210
0.0
220
0.0
230
1.0
 70
    24
 71
     3
 72
     9
 73
     5
 74
     0
 42
0.00000001
 43
0.00000001
 40
0.0
 40
0.0
 40
0.0
 40
0.0
 40
0.5398560076902729
 40
1.0
 40
1.0
 40
1.0
 40
1.0
 10
164.411945728615
 20
219.0134226552984
 30
0.0
 10
164.8290408264949
 20
219.0134226552984
 30
0.0
 10
165.6016451727249
 20
219.0134226552984
 30
0.0
 10
166.3684884693764
 20
219.0134226552984
 30
0.0
 10
166.7213468053735
 20
219.0134226552984
 30
0.0
  0
SPLINE
  5
214
330
1F
100
AcDbEntity
  8
0
  6
Continuous
 62
     7
370
    25
100
AcDbSpline
210
0.0
220
0.0
230
1.0
 70
    24
 71
     3
 72
     9
 73
     5
 74
     0
 42
0.00000001
 43
0.00000001
 40
0.0
 40
0.0
 40
0.0
 40
0.0
 40
0.5778119623600674
 40
1.0
 40
1.0
 40
1.0
 40
1.0
 10
166.7213468053735
 20
219.0134226552984
 30
0.0
 10
166.943029208953
 20
219.3973878414421
 30
0.0
 10
167.326687592684
 20
220.0619036548139
 30
0.0
 10
167.7129654522421
 20
220.7309565334076
 30
0.0
 10
167.8760473437528
 20
221.0134226552985
 30
0.0
  0
SPLINE
  5
215
330
1F
100
AcDbEntity
  8
0
  6
Continuous
 62
     7
370
    25
100
AcDbSpline
210
0.0
220
0.0
230
1.0
 70
     8
 71
     3
 72
     9
 73
     5
 74
     0
 42
0.00000001
 43
0.00000001
 40
0.0
 40
0.0
 40
0.0
 40
0.0
 40
0.5690804999109608
 40
1.0
 40
1.0
 40
1.0
 40
1.0
 10
165.8337797455039
 20
223.5907492925759
 30
0.0
 10
165.7854310085723
 20
223.5241808412708
 30
0.0
 10
165.7004716101408
 20
223.4072053846958
 30
0.0
 10
165.6483294134447
 20
223.2725999037886
 30
0.0
 10
165.6258603241109
 20
223.2145957772468
 30
0.0
  0
LINE
  5
216
330
1F
100
AcDbEntity
  8
0
  6
Continuous
 62
     7
370
    25
100
AcDbLine
 10
165.9229565783
 20
223.4362904873
 30
0.0
 11
165.8337797455
 21
223.5907492926
 31
0.0
  0
SPLINE
  5
217
330
1F
100
AcDbEntity
  8
0
  6
Continuous
 62
     7
370
    25
100
AcDbSpline
210
0.0
220
0.0
230
1.0
 70
     8
 71
     3
 72
    10
 73
     6
 74
     0
 42
0.00000001
 43
0.00000001
 40
0.0
 40
0.0
 40
0.0
 40
0.0
 40
0.2298180414041955
 40
0.5105092302075602
 40
1.0
 40
1.0
 40
1.0
 40
1.0
 10
165.7357725449239
 20
222.8938868553933
 30
0.0
 10
165.7372182791423
 20
222.9385764768795
 30
0.0
 10
165.7404297792424
 20
223.0378483361459
 30
0.0
 10
165.7965084718273
 20
223.2261714416479
 30
0.0
 10
165.8738206562711
 20
223.354641237383
 30
0.0
 10
165.9229565783157
 20
223.4362904872877
 30
0.0
  0
LINE
  5
218
330
1F
100
AcDbEntity
  8
0
  6
Continuous
 62
     7
370
    25
100
AcDbLine
 10
165.6328000081
 20
222.8344356335
 30
0.0
 11
165.7357725449
 21
222.8938868554
 31
0.0
  0
LINE
  5
219
330
1F
100
AcDbEntity
  8
0
  6
Continuous
 62
     7
370
    25
100
AcDbLine
 10
164.8799417464
 20
224.1384243935
 30
0.0
 11
165.6328000081
 21
222.8344356335
 31
0.0
  0
LINE
  5
21A
330
1F
100
AcDbEntity
  8
0
  6
Continuous
 62
     7
370
    25
100
AcDbLine
 10
165.0393511545
 20
224.2304594582
 30
0.0
 11
164.8799417464
 21
224.1384243935
 31
0.0
  0
LINE
  5
21B
330
1F
100
AcDbEntity
  8
0
  6
Continuous
 62
     7
370
    25
100
AcDbLine
 10
165.6258603241
 20
223.2145957772
 30
0.0
 11
165.0393511545
 21
224.2304594582
 31
0.0
  0
SPLINE
  5
21C
330
1F
100
AcDbEntity
  8
0
  6
Continuous
 62
     7
370
    25
100
AcDbSpline
210
0.0
220
0.0
230
1.0
 70
     8
 71
     3
 72
    12
 73
     8
 74
     0
 42
0.00000001
 43
0.00000001
 40
0.0
 40
0.0
 40
0.0
 40
0.0
 40
0.1194719429101263
 40
0.2419269204089505
 40
0.3852845301339702
 40
0.633374055169426
 40
1.0
 40
1.0
 40
1.0
 40
1.0
 10
164.1101314667105
 20
223.5487565411348
 30
0.0
 10
164.1381687952462
 20
223.5612379768524
 30
0.0
 10
164.1949435022101
 20
223.5865124909509
 30
0.0
 10
164.2953885314161
 20
223.577187013789
 30
0.0
 10
164.4171581713553
 20
223.5257365849918
 30
0.0
 10
164.5475995159427
 20
223.3780329441227
 30
0.0
 10
164.6283539417512
 20
223.2457367058455
 30
0.0
 10
164.6765171475149
 20
223.1668331549613
 30
0.0
  0
SPLINE
  5
21D
330
1F
100
AcDbEntity
  8
0
  6
Continuous
 62
     7
370
    25
100
AcDbSpline
210
0.0
220
0.0
230
1.0
 70
     8
 71
     3
 72
    12
 73
     8
 74
     0
 42
0.00000001
 43
0.00000001
 40
0.0
 40
0.0
 40
0.0
 40
0.0
 40
0.3189556322940092
 40
0.551572104651438
 40
0.7113715777570401
 40
0.8604355822665908
 40
0.9999999999999999
 40
0.9999999999999999
 40
0.9999999999999999
 40
0.9999999999999999
 10
164.1586841015807
 20
222.8678621064959
 30
0.0
 10
164.1201193004199
 20
222.9384194330155
 30
0.0
 10
164.0534289322684
 20
223.0604346888902
 30
0.0
 10
163.988465764099
 20
223.2306276826805
 30
0.0
 10
163.9847717937416
 20
223.3689068373906
 30
0.0
 10
164.0227468385669
 20
223.4816212594531
 30
0.0
 10
164.081649475404
 20
223.5268745860377
 30
0.0
 10
164.1101314667105
 20
223.5487565411348
 30
0.0
  0
SPLINE
  5
21E
330
1F
100
AcDbEntity
  8
0
  6
Continuous
 62
     7
370
    25
100
AcDbSpline
210
0.0
220
0.0
230
1.0
 70
     8
 71
     3
 72
    10
 73
     6
 74
     0
 42
0.00000001
 43
0.00000001
 40
0.0
 40
0.0
 40
0.0
 40
0.0
 40
0.2919261392676127
 40
0.5635127627568411
 40
1.0
 40
1.0
 40
1.0
 40
1.0
 10
164.8475764814683
 20
222.6807631045378
 30
0.0
 10
164.8440867582706
 20
222.6578119216903
 30
0.0
 10
164.8373504531034
 20
222.6135086452267
 30
0.0
 10
164.8006648878462
 20
222.5407445910338
 30
0.0
 10
164.7545110916079
 20
222.5071930080862
 30
0.0
 10
164.7260599029318
 20
222.4865103666866
 30
0.0
  0
SPLINE
  5
21F
330
1F
100
AcDbEntity
  8
0
  6
Continuous
 62
     7
370
    25
100
AcDbSpline
210
0.0
220
0.0
230
1.0
 70
     8
 71
     3
 72
    10
 73
     6
 74
     0
 42
0.00000001
 43
0.00000001
 40
0.0
 40
0.0
 40
0.0
 40
0.0
 40
0.6567497629929498
 40
0.84514242279017
 40
1.0
 40
1.0
 40
1.0
 40
1.0
 10
164.6765171475149
 20
223.1668331549613
 30
0.0
 10
164.7310785242902
 20
223.0661922565227
 30
0.0
 10
164.8012911634977
 20
222.9366819048926
 30
0.0
 10
164.847044899417
 20
222.7675486528705
 30
0.0
 10
164.8474112170292
 20
222.7077440098118
 30
0.0
 10
164.8475764814683
 20
222.6807631045378
 30
0.0
  0
SPLINE
  5
220
330
1F
100
AcDbEntity
  8
0
  6
Continuous
 62
     7
370
    25
100
AcDbSpline
210
0.0
220
0.0
230
1.0
 70
     8
 71
     3
 72
    12
 73
     8
 74
     0
 42
0.00000001
 43
0.00000001
 40
0.0
 40
0.0
 40
0.0
 40
0.0
 40
0.1644820175587973
 40
0.3160875864187359
 40
0.4763353976125842
 40
0.7011919144233006
 40
1.0
 40
1.0
 40
1.0
 40
1.0
 10
164.0346741466389
 20
223.6794524533018
 30
0.0
 10
163.987860621917
 20
223.6473010823892
 30
0.0
 10
163.8978983618431
 20
223.5855153055448
 30
0.0
 10
163.822019627398
 20
223.4350010116907
 30
0.0
 10
163.8053706590323
 20
223.2502122944658
 30
0.0
 10
163.8608162850531
 20
223.0198818456681
 30
0.0
 10
163.9458200949648
 20
222.8626734440793
 30
0.0
 10
163.9943240908253
 20
222.7729688100422
 30
0.0
  0
SPLINE
  5
221
330
1F
100
AcDbEntity
  8
0
  6
Continuous
 62
     7
370
    25
100
AcDbSpline
210
0.0
220
0.0
230
1.0
 70
     8
 71
     3
 72
    10
 73
     6
 74
     0
 42
0.00000001
 43
0.00000001
 40
0.0
 40
0.0
 40
0.0
 40
0.0
 40
0.2761144361987165
 40
0.5455083397130146
 40
1.0
 40
1.0
 40
1.0
 40
1.0
 10
164.4069023287254
 20
223.7161367960198
 30
0.0
 10
164.3728237906531
 20
223.7267840722619
 30
0.0
 10
164.305496174685
 20
223.7478194736166
 30
0.0
 10
164.1736432174741
 20
223.7447634819334
 30
0.0
 10
164.0882735224936
 20
223.7046424495364
 30
0.0
 10
164.0346741466389
 20
223.6794524533018
 30
0.0
  0
SPLINE
  5
222
330
1F
100
AcDbEntity
  8
0
  6
Continuous
 62
     7
370
    25
100
AcDbSpline
210
0.0
220
0.0
230
1.0
 70
     8
 71
     3
 72
     9
 73
     5
 74
     0
 42
0.00000001
 43
0.00000001
 40
0.0
 40
0.0
 40
0.0
 40
0.0
 40
0.6316065132316521
 40
1.0
 40
1.0
 40
1.0
 40
1.0
 10
164.8408771582703
 20
223.2617264514149
 30
0.0
 10
164.7705939937137
 20
223.3793988852009
 30
0.0
 10
164.6593171732818
 20
223.565705440502
 30
0.0
 10
164.4748564556614
 20
223.6756382609754
 30
0.0
 10
164.4069023287254
 20
223.7161367960198
 30
0.0
  0
SPLINE
  5
223
330
1F
100
AcDbEntity
  8
0
  6
Continuous
 62
     7
370
    25
100
AcDbSpline
210
0.0
220
0.0
230
1.0
 70
     8
 71
     3
 72
    12
 73
     8
 74
     0
 42
0.00000001
 43
0.00000001
 40
0.0
 40
0.0
 40
0.0
 40
0.0
 40
0.1648154227007101
 40
0.3155823586924696
 40
0.4751090844167877
 40
0.6998460527381948
 40
1.0
 40
1.0
 40
1.0
 40
1.0
 10
164.8001086282741
 20
222.3536810412445
 30
0.0
 10
164.8471806464065
 20
222.3858730057084
 30
0.0
 10
164.9373123723533
 20
222.447512965792
 30
0.0
 10
165.0135672991375
 20
222.5977669078067
 30
0.0
 10
165.0301403305691
 20
222.7823866596221
 30
0.0
 10
164.9752289984266
 20
223.0135152682246
 30
0.0
 10
164.8897547853678
 20
223.1714264329018
 30
0.0
 10
164.8408771582703
 20
223.2617264514149
 30
0.0
  0
SPLINE
  5
224
330
1F
100
AcDbEntity
  8
0
  6
Continuous
 62
     7
370
    25
100
AcDbSpline
210
0.0
220
0.0
230
1.0
 70
     8
 71
     3
 72
    12
 73
     8
 74
     0
 42
0.00000001
 43
0.00000001
 40
0.0
 40
0.0
 40
0.0
 40
0.0
 40
0.2764954345015497
 40
0.4721937840823145
 40
0.6353320315828614
 40
0.8112872334423376
 40
1.0
 40
1.0
 40
1.0
 40
1.0
 10
163.9943240908253
 20
222.7729688100422
 30
0.0
 10
164.0430238125302
 20
222.691920842319
 30
0.0
 10
164.1261922956448
 20
222.5535086235407
 30
0.0
 10
164.2818583577505
 20
222.400171228442
 30
0.0
 10
164.4380490455351
 20
222.3030182339851
 30
0.0
 10
164.6253241765876
 20
222.2741525695419
 30
0.0
 10
164.7405039920004
 20
222.3265604044631
 30
0.0
 10
164.8001086282741
 20
222.3536810412445
 30
0.0
  0
SPLINE
  5
225
330
1F
100
AcDbEntity
  8
0
  6
Continuous
 62
     7
370
    25
100
AcDbSpline
210
0.0
220
0.0
230
1.0
 70
     8
 71
     3
 72
    12
 73
     8
 74
     0
 42
0.00000001
 43
0.00000001
 40
0.0
 40
0.0
 40
0.0
 40
0.0
 40
0.1202056296560066
 40
0.2429066195475245
 40
0.3861263041295134
 40
0.6338761023791976
 40
1.0
 40
1.0
 40
1.0
 40
1.0
 10
164.7260599029318
 20
222.4865103666866
 30
0.0
 10
164.6978316474055
 20
222.473899807483
 30
0.0
 10
164.6407891432795
 20
222.4484169052637
 30
0.0
 10
164.5399614902665
 20
222.4574493351095
 30
0.0
 10
164.4180419327752
 20
222.508951139778
 30
0.0
 10
164.2876070350282
 20
222.6566604934276
 30
0.0
 10
164.2068492881076
 20
222.788957874206
 30
0.0
 10
164.1586841015807
 20
222.8678621064959
 30
0.0
  0
SPLINE
  5
226
330
1F
100
AcDbEntity
  8
0
  6
Continuous
 62
     7
370
    25
100
AcDbSpline
210
0.0
220
0.0
230
1.0
 70
     8
 71
     3
 72
    12
 73
     8
 74
     0
 42
0.00000001
 43
0.00000001
 40
0.0
 40
0.0
 40
0.0
 40
0.0
 40
0.1202056296560075
 40
0.2429066195475268
 40
0.3861263041295135
 40
0.6338761023791961
 40
1.0
 40
1.0
 40
1.0
 40
1.0
 10
163.7171270658247
 20
221.9040027215886
 30
0.0
 10
163.6888988102985
 20
221.891392162385
 30
0.0
 10
163.6318563061725
 20
221.8659092601657
 30
0.0
 10
163.5310286531594
 20
221.8749416900115
 30
0.0
 10
163.4091090956682
 20
221.92644349468
 30
0.0
 10
163.2786741979212
 20
222.0741528483296
 30
0.0
 10
163.1979164510006
 20
222.206450229108
 30
0.0
 10
163.1497512644737
 20
222.2853544613979
 30
0.0
  0
SPLINE
  5
227
330
1F
100
AcDbEntity
  8
0
  6
Continuous
 62
     7
370
    25
100
AcDbSpline
210
0.0
220
0.0
230
1.0
 70
     8
 71
     3
 72
    10
 73
     6
 74
     0
 42
0.00000001
 43
0.00000001
 40
0.0
 40
0.0
 40
0.0
 40
0.0
 40
0.2919261392676118
 40
0.5635127627568426
 40
1.0
 40
1.0
 40
1.0
 40
1.0
 10
163.8386436443613
 20
222.0982554594398
 30
0.0
 10
163.8351539211636
 20
222.0753042765923
 30
0.0
 10
163.8284176159964
 20
222.0310010001287
 30
0.0
 10
163.7917320507392
 20
221.9582369459358
 30
0.0
 10
163.7455782545009
 20
221.9246853629882
 30
0.0
 10
163.7171270658247
 20
221.9040027215886
 30
0.0
  0
SPLINE
  5
228
330
1F
100
AcDbEntity
  8
0
  6
Continuous
 62
     7
370
    25
100
AcDbSpline
210
0.0
220
0.0
230
1.0
 70
     8
 71
     3
 72
     9
 73
     5
 74
     0
 42
0.00000001
 43
0.00000001
 40
0.0
 40
0.0
 40
0.0
 40
0.0
 40
0.6316065132316528
 40
1.0
 40
1.0
 40
1.0
 40
1.0
 10
163.8319443211633
 20
222.679218806317
 30
0.0
 10
163.7616611566067
 20
222.7968912401029
 30
0.0
 10
163.6503843361748
 20
222.983197795404
 30
0.0
 10
163.4659236185544
 20
223.0931306158774
 30
0.0
 10
163.3979694916184
 20
223.1336291509218
 30
0.0
  0
SPLINE
  5
229
330
1F
100
AcDbEntity
  8
0
  6
Continuous
 62
     7
370
    25
100
AcDbSpline
210
0.0
220
0.0
230
1.0
 70
     8
 71
     3
 72
    12
 73
     8
 74
     0
 42
0.00000001
 43
0.00000001
 40
0.0
 40
0.0
 40
0.0
 40
0.0
 40
0.1648154227007073
 40
0.3155823586924672
 40
0.4751090844167854
 40
0.6998460527381933
 40
1.0
 40
1.0
 40
1.0
 40
1.0
 10
163.7911757911671
 20
221.7711733961465
 30
0.0
 10
163.8382478092995
 20
221.8033653606103
 30
0.0
 10
163.9283795352463
 20
221.865005320694
 30
0.0
 10
164.0046344620305
 20
222.0152592627087
 30
0.0
 10
164.021207493462
 20
222.1998790145242
 30
0.0
 10
163.9662961613196
 20
222.4310076231266
 30
0.0
 10
163.8808219482607
 20
222.5889187878038
 30
0.0
 10
163.8319443211633
 20
222.679218806317
 30
0.0
  0
SPLINE
  5
22A
330
1F
100
AcDbEntity
  8
0
  6
Continuous
 62
     7
370
    25
100
AcDbSpline
210
0.0
220
0.0
230
1.0
 70
     8
 71
     3
 72
    10
 73
     6
 74
     0
 42
0.00000001
 43
0.00000001
 40
0.0
 40
0.0
 40
0.0
 40
0.0
 40
0.2761144361987208
 40
0.5455083397130206
 40
1.0
 40
1.0
 40
1.0
 40
1.0
 10
163.3979694916184
 20
223.1336291509218
 30
0.0
 10
163.3638909535461
 20
223.1442764271639
 30
0.0
 10
163.296563337578
 20
223.1653118285186
 30
0.0
 10
163.1647103803671
 20
223.1622558368354
 30
0.0
 10
163.0793406853865
 20
223.1221348044385
 30
0.0
 10
163.0257413095319
 20
223.0969448082037
 30
0.0
  0
SPLINE
  5
22B
330
1F
100
AcDbEntity
  8
0
  6
Continuous
 62
     7
370
    25
100
AcDbSpline
210
0.0
220
0.0
230
1.0
 70
     8
 71
     3
 72
    12
 73
     8
 74
     0
 42
0.00000001
 43
0.00000001
 40
0.0
 40
0.0
 40
0.0
 40
0.0
 40
0.1644820175588031
 40
0.3160875864187383
 40
0.4763353976125864
 40
0.7011919144233021
 40
1.0
 40
1.0
 40
1.0
 40
1.0
 10
163.0257413095319
 20
223.0969448082037
 30
0.0
 10
162.97892778481
 20
223.0647934372912
 30
0.0
 10
162.8889655247361
 20
223.0030076604468
 30
0.0
 10
162.813086790291
 20
222.8524933665927
 30
0.0
 10
162.7964378219253
 20
222.6677046493677
 30
0.0
 10
162.8518834479461
 20
222.4373742005701
 30
0.0
 10
162.9368872578578
 20
222.2801657989813
 30
0.0
 10
162.9853912537182
 20
222.1904611649442
 30
0.0
  0
SPLINE
  5
22C
330
1F
100
AcDbEntity
  8
0
  6
Continuous
 62
     7
370
    25
100
AcDbSpline
210
0.0
220
0.0
230
1.0
 70
     8
 71
     3
 72
    12
 73
     8
 74
     0
 42
0.00000001
 43
0.00000001
 40
0.0
 40
0.0
 40
0.0
 40
0.0
 40
0.2764954345015493
 40
0.4721937840823134
 40
0.6353320315828596
 40
0.8112872334423309
 40
1.0
 40
1.0
 40
1.0
 40
1.0
 10
162.9853912537182
 20
222.1904611649442
 30
0.0
 10
163.0340909754232
 20
222.109413197221
 30
0.0
 10
163.1172594585378
 20
221.9710009784427
 30
0.0
 10
163.2729255206434
 20
221.817663583344
 30
0.0
 10
163.429116208428
 20
221.7205105888871
 30
0.0
 10
163.6163913394806
 20
221.6916449244439
 30
0.0
 10
163.7315711548934
 20
221.7440527593651
 30
0.0
 10
163.7911757911671
 20
221.7711733961465
 30
0.0
  0
SPLINE
  5
22D
330
1F
100
AcDbEntity
  8
0
  6
Continuous
 62
     7
370
    25
100
AcDbSpline
210
0.0
220
0.0
230
1.0
 70
     8
 71
     3
 72
    12
 73
     8
 74
     0
 42
0.00000001
 43
0.00000001
 40
0.0
 40
0.0
 40
0.0
 40
0.0
 40
0.1194719429101225
 40
0.241926920408945
 40
0.3852845301339661
 40
0.6333740551694229
 40
1.0
 40
1.0
 40
1.0
 40
1.0
 10
163.1011986296035
 20
222.9662488960368
 30
0.0
 10
163.1292359581392
 20
222.9787303317544
 30
0.0
 10
163.1860106651031
 20
223.0040048458529
 30
0.0
 10
163.286455694309
 20
222.994679368691
 30
0.0
 10
163.4082253342482
 20
222.9432289398939
 30
0.0
 10
163.5386666788357
 20
222.7955252990247
 30
0.0
 10
163.6194211046442
 20
222.6632290607475
 30
0.0
 10
163.6675843104079
 20
222.5843255098633
 30
0.0
  0
SPLINE
  5
22E
330
1F
100
AcDbEntity
  8
0
  6
Continuous
 62
     7
370
    25
100
AcDbSpline
210
0.0
220
0.0
230
1.0
 70
     8
 71
     3
 72
    10
 73
     6
 74
     0
 42
0.00000001
 43
0.00000001
 40
0.0
 40
0.0
 40
0.0
 40
0.0
 40
0.6567497629929494
 40
0.8451424227901695
 40
1.0
 40
1.0
 40
1.0
 40
1.0
 10
163.6675843104079
 20
222.5843255098633
 30
0.0
 10
163.7221456871832
 20
222.4836846114247
 30
0.0
 10
163.7923583263907
 20
222.3541742597946
 30
0.0
 10
163.83811206231
 20
222.1850410077725
 30
0.0
 10
163.8384783799221
 20
222.1252363647138
 30
0.0
 10
163.8386436443613
 20
222.0982554594398
 30
0.0
  0
SPLINE
  5
22F
330
1F
100
AcDbEntity
  8
0
  6
Continuous
 62
     7
370
    25
100
AcDbSpline
210
0.0
220
0.0
230
1.0
 70
     8
 71
     3
 72
    12
 73
     8
 74
     0
 42
0.00000001
 43
0.00000001
 40
0.0
 40
0.0
 40
0.0
 40
0.0
 40
0.3189556322940068
 40
0.5515721046514325
 40
0.7113715777570305
 40
0.8604355822665841
 40
1.0
 40
1.0
 40
1.0
 40
1.0
 10
163.1497512644737
 20
222.2853544613979
 30
0.0
 10
163.1111864633129
 20
222.3559117879175
 30
0.0
 10
163.0444960951613
 20
222.4779270437922
 30
0.0
 10
162.979532926992
 20
222.6481200375825
 30
0.0
 10
162.9758389566346
 20
222.7863991922926
 30
0.0
 10
163.0138140014599
 20
222.8991136143552
 30
0.0
 10
163.072716638297
 20
222.9443669409397
 30
0.0
 10
163.1011986296035
 20
222.9662488960368
 30
0.0
  0
SPLINE
  5
230
330
1F
100
AcDbEntity
  8
0
  6
Continuous
 62
     7
370
    25
100
AcDbSpline
210
0.0
220
0.0
230
1.0
 70
     8
 71
     3
 72
    19
 73
    15
 74
     0
 42
0.00000001
 43
0.00000001
 40
0.0
 40
0.0
 40
0.0
 40
0.0
 40
0.305734617847582
 40
0.5020581146560376
 40
0.7745380345683146
 40
0.8930060660155074
 40
0.9479520738934574
 40
0.9745161477737385
 40
0.9936176329445062
 40
0.9983977216310425
 40
0.9995957643931777
 40
0.9998969061304491
 40
0.9999730877037446
 40
1.0
 40
1.0
 40
1.0
 40
1.0
 10
166.8850219399683
 20
227.2969163043524
 30
0.0
 10
166.8564629645743
 20
227.2477259046965
 30
0.0
 10
166.8095652156579
 20
227.1669485315477
 30
0.0
 10
166.7541837720923
 20
227.0700343794748
 30
0.0
 10
166.7274111004478
 20
227.0242448544861
 30
0.0
 10
166.7222487533458
 20
227.0148018529565
 30
0.0
 10
166.7215139801422
 20
227.0136229071056
 30
0.0
 10
166.7213741720874
 20
227.0134453579307
 30
0.0
 10
166.7213501029676
 20
227.0134249361095
 30
0.0
 10
166.721373108449
 20
227.0133777843488
 30
0.0
 10
166.7213781026798
 20
227.0133685399379
 30
0.0
 10
166.7213858843174
 20
227.0133549872408
 30
0.0
 10
166.7213867901519
 20
227.0133534035626
 30
0.0
 10
166.7213893151481
 20
227.0133490270229
 30
0.0
 10
166.7213899742897
 20
227.0133478845424
 30
0.0
  0
SPLINE
  5
231
330
1F
100
AcDbEntity
  8
0
  6
Continuous
 62
     7
370
    25
100
AcDbSpline
210
0.0
220
0.0
230
1.0
 70
     8
 71
     3
 72
    11
 73
     7
 74
     0
 42
0.00000001
 43
0.00000001
 40
0.0
 40
0.0
 40
0.0
 40
0.0
 40
0.2256175012924757
 40
0.498031176605111
 40
0.6941334434903592
 40
1.0
 40
1.0
 40
1.0
 40
1.0
 10
162.1025446509488
 20
227.0134226558226
 30
0.0
 10
162.1022096695238
 20
227.0140340745464
 30
0.0
 10
162.1014702269173
 20
227.0153837286497
 30
0.0
 10
162.0696289959666
 20
227.0701732404596
 30
0.0
 10
162.0143452244722
 20
227.1668980581665
 30
0.0
 10
161.967446496234
 20
227.2476881642714
 30
0.0
 10
161.9388695172617
 20
227.2969163043524
 30
0.0
  0
SPLINE
  5
232
330
1F
100
AcDbEntity
  8
0
  6
Continuous
 62
     7
370
    25
100
AcDbSpline
210
0.0
220
0.0
230
1.0
 70
     8
 71
     3
 72
    19
 73
    15
 74
     0
 42
0.00000001
 43
0.00000001
 40
0.0
 40
0.0
 40
0.0
 40
0.0
 40
0.3057358733432871
 40
0.502057109799269
 40
0.7745366138409907
 40
0.893004451064352
 40
0.9479503447689228
 40
0.9745143604530669
 40
0.9936172590808313
 40
0.9983976689481739
 40
0.9995957745852021
 40
0.9998969224407289
 40
0.9999730999065325
 40
1.0
 40
1.0
 40
1.0
 40
1.0
 10
166.8850219399683
 20
218.7299290062446
 30
0.0
 10
166.8567011305792
 20
218.7792573891556
 30
0.0
 10
166.8101947669211
 20
218.8602608549398
 30
0.0
 10
166.7539553725835
 20
218.9566793543714
 30
0.0
 10
166.727686914046
 20
219.0027603884007
 30
0.0
 10
166.7220902602466
 20
219.0119521955456
 30
0.0
 10
166.7214366273397
 20
219.0131778295982
 30
0.0
 10
166.7213528020684
 20
219.0133876287284
 30
0.0
 10
166.7213470944702
 20
219.0134186665094
 30
0.0
 10
166.7212949445177
 20
219.0134223133089
 30
0.0
 10
166.7212844884151
 20
219.0134226091173
 30
0.0
 10
166.7212689344779
 20
219.0134226460699
 30
0.0
 10
166.7212671221479
 20
219.0134226533548
 30
0.0
 10
166.7212620951268
 20
219.0134226548962
 30
0.0
 10
166.7212607832279
 20
219.0134226552985
 30
0.0
  0
SPLINE
  5
233
330
1F
100
AcDbEntity
  8
0
  6
Continuous
 62
     7
370
    25
100
AcDbSpline
210
0.0
220
0.0
230
1.0
 70
     8
 71
     3
 72
    19
 73
    15
 74
     0
 42
0.00000001
 43
0.00000001
 40
0.0
 40
0.0
 40
0.0
 40
0.0
 40
0.3057360504268158
 40
0.5020571787530791
 40
0.7745366675738729
 40
0.8930044771280493
 40
0.9479503587109336
 40
0.974514368464875
 40
0.9936172609942087
 40
0.9983976693774896
 40
0.9995957746644898
 40
0.9998969224440227
 40
0.9999730998975868
 40
1.0
 40
1.0
 40
1.0
 40
1.0
 10
169.3580981513216
 20
223.0134226552985
 30
0.0
 10
169.301218081306
 20
223.0135603094542
 30
0.0
 10
169.2078138280638
 20
223.01378635495
 30
0.0
 10
169.0961932734313
 20
223.0132908498131
 30
0.0
 10
169.0431517230552
 20
223.0135822173334
 30
0.0
 10
169.0323930640426
 20
223.0133312762362
 30
0.0
 10
169.0310048182294
 20
223.0133780306
 30
0.0
 10
169.0307812143452
 20
223.0134103352888
 30
0.0
 10
169.0307514810955
 20
223.0134209113132
 30
0.0
 10
169.0307222477941
 20
223.0133775713439
 30
0.0
 10
169.0307167635385
 20
223.0133686639511
 30
0.0
 10
169.0307089545244
 20
223.0133552122472
 30
0.0
 10
169.0307080420433
 20
223.0133536463534
 30
0.0
 10
169.0307055271827
 20
223.0133492935698
 30
0.0
 10
169.0307048708807
 20
223.0133481576258
 30
0.0
  0
SPLINE
  5
234
330
1F
100
AcDbEntity
  8
0
  6
Continuous
 62
     7
370
    25
100
AcDbSpline
210
0.0
220
0.0
230
1.0
 70
     8
 71
     3
 72
    19
 73
    15
 74
     0
 42
0.00000001
 43
0.00000001
 40
0.0
 40
0.0
 40
0.0
 40
0.0
 40
0.305735968660748
 40
0.5020571786944118
 40
0.7745366675474002
 40
0.893004477118003
 40
0.9479503587064106
 40
0.9745143684626821
 40
0.9936172609936503
 40
0.9983976693773572
 40
0.9995957746644547
 40
0.9998969224440115
 40
0.9999730998975733
 40
1.0
 40
1.0
 40
1.0
 40
1.0
 10
159.4657933059084
 20
223.0134226552985
 30
0.0
 10
159.5226733608852
 20
223.0132850029284
 30
0.0
 10
159.6160776144009
 20
223.0130589603045
 30
0.0
 10
159.7276981763496
 20
223.0135544592948
 30
0.0
 10
159.7807397341601
 20
223.0132630934577
 30
0.0
 10
159.7914983931857
 20
223.0135140343463
 30
0.0
 10
159.7928866390004
 20
223.0134672799981
 30
0.0
 10
159.7931102428849
 20
223.013434975308
 30
0.0
 10
159.7931399761345
 20
223.0134243992837
 30
0.0
 10
159.793169209436
 20
223.0134677392529
 30
0.0
 10
159.7931746936916
 20
223.0134766466458
 30
0.0
 10
159.7931825027056
 20
223.0134900983497
 30
0.0
 10
159.7931834151867
 20
223.0134916642435
 30
0.0
 10
159.7931859300473
 20
223.0134960170271
 30
0.0
 10
159.7931865863493
 20
223.0134971529711
 30
0.0
  0
SPLINE
  5
235
330
1F
100
AcDbEntity
  8
0
  6
Continuous
 62
     7
370
    25
100
AcDbSpline
210
0.0
220
0.0
230
1.0
 70
     8
 71
     3
 72
    19
 73
    15
 74
     0
 42
0.00000001
 43
0.00000001
 40
0.0
 40
0.0
 40
0.0
 40
0.0
 40
0.3057346352433624
 40
0.5020581146322088
 40
0.7745380345574963
 40
0.8930060660102506
 40
0.9479520738908762
 40
0.9745161477724572
 40
0.9936176329441117
 40
0.998397721630903
 40
0.9995957643931304
 40
0.9998969061304235
 40
0.9999730877037264
 40
1.0
 40
1.0
 40
1.0
 40
1.0
 10
161.9388695172617
 20
218.7299290062446
 30
0.0
 10
161.9674284945845
 20
218.7791194084813
 30
0.0
 10
162.0143262439975
 20
218.8598967812685
 30
0.0
 10
162.0697076856523
 20
218.956810932647
 30
0.0
 10
162.0964803568183
 20
219.0026004560906
 30
0.0
 10
162.1016427038816
 20
219.0120434576421
 30
0.0
 10
162.1023774770881
 20
219.0132224034911
 30
0.0
 10
162.1025172851425
 20
219.0133999526663
 30
0.0
 10
162.1025413542625
 20
219.0134203744872
 30
0.0
 10
162.1025183487811
 20
219.0134675262479
 30
0.0
 10
162.1025133545503
 20
219.0134767706589
 30
0.0
 10
162.1025055729126
 20
219.0134903233561
 30
0.0
 10
162.1025046670782
 20
219.0134919070343
 30
0.0
 10
162.1025021420819
 20
219.013496283574
 30
0.0
 10
162.1025014829404
 20
219.0134974260544
 30
0.0
  0
SPLINE
  5
236
330
1F
100
AcDbEntity
  8
0
  6
Continuous
 62
     7
370
    25
100
AcDbSpline
210
0.0
220
0.0
230
1.0
 70
     8
 71
     3
 72
    23
 73
    19
 74
     0
 42
0.00000001
 43
0.00000001
 40
0.0
 40
0.0
 40
0.0
 40
0.0
 40
0.0582580162109017
 40
0.1200056648645963
 40
0.1843204068813871
 40
0.2499999999999992
 40
0.3156795931186112
 40
0.3799943351354022
 40
0.4417419837890968
 40
0.5
 40
0.5582580162109005
 40
0.6200056648645955
 40
0.6843204068813868
 40
0.7499999999999992
 40
0.8156795931186116
 40
0.8799943351354028
 40
0.9417419837890979
 40
1.0
 40
1.0
 40
1.0
 40
1.0
 10
167.786945728615
 20
217.1677511797535
 30
0.0
 10
168.1325333691337
 20
217.3925627479849
 30
0.0
 10
168.8444092150137
 20
217.8556520096788
 30
0.0
 10
169.7461222270374
 20
218.809900425334
 30
0.0
 10
170.4824049675064
 20
219.9540564143021
 30
0.0
 10
170.9782768101597
 20
221.2541505195878
 30
0.0
 10
171.1980837170881
 20
222.6271972583771
 30
0.0
 10
171.1359112112222
 20
223.9882520129628
 30
0.0
 10
170.8201221940762
 20
225.2585577410937
 30
0.0
 10
170.2903212818311
 20
226.4073043633454
 30
0.0
 10
169.560377980572
 20
227.4404987234238
 30
0.0
 10
168.6181554580108
 20
228.3491328985738
 30
0.0
 10
167.470533717531
 20
229.0835032453634
 30
0.0
 10
166.1715369076919
 20
229.5796682494308
 30
0.0
 10
164.7976864638774
 20
229.8002776893146
 30
0.0
 10
163.4386769413044
 20
229.7347161261844
 30
0.0
 10
162.161417065814
 20
229.4309339586764
 30
0.0
 10
161.4044320780274
 20
229.0459760226508
 30
0.0
 10
161.036945728615
 20
228.8590941308434
 30
0.0
  0
SPLINE
  5
237
330
1F
100
AcDbEntity
  8
0
  6
Continuous
 62
     7
370
    25
100
AcDbSpline
210
0.0
220
0.0
230
1.0
 70
     8
 71
     3
 72
    23
 73
    19
 74
     0
 42
0.00000001
 43
0.00000001
 40
0.0
 40
0.0
 40
0.0
 40
0.0
 40
0.058258016210902
 40
0.1200056648645969
 40
0.1843204068813881
 40
0.2500000000000002
 40
0.3156795931186124
 40
0.3799943351354034
 40
0.4417419837890981
 40
0.5
 40
0.558258016210902
 40
0.6200056648645967
 40
0.6843204068813877
 40
0.7500000000000001
 40
0.8156795931186123
 40
0.8799943351354031
 40
0.9417419837890979
 40
1.0
 40
1.0
 40
1.0
 40
1.0
 10
161.036945728615
 20
228.8590941308434
 30
0.0
 10
160.6913580880964
 20
228.634282562612
 30
0.0
 10
159.9794822422164
 20
228.1711933009181
 30
0.0
 10
159.0777692301926
 20
227.2169448852629
 30
0.0
 10
158.3414864897236
 20
226.0727888962948
 30
0.0
 10
157.8456146470704
 20
224.7726947910091
 30
0.0
 10
157.625807740142
 20
223.3996480522198
 30
0.0
 10
157.6879802460078
 20
222.0385932976341
 30
0.0
 10
158.0037692631539
 20
220.7682875695032
 30
0.0
 10
158.5335701753989
 20
219.6195409472514
 30
0.0
 10
159.263513476658
 20
218.5863465871732
 30
0.0
 10
160.2057359992192
 20
217.6777124120231
 30
0.0
 10
161.3533577396991
 20
216.9433420652335
 30
0.0
 10
162.6523545495382
 20
216.4471770611661
 30
0.0
 10
164.0262049933526
 20
216.2265676212824
 30
0.0
 10
165.3852145159256
 20
216.2921291844125
 30
0.0
 10
166.662474391416
 20
216.5959113519205
 30
0.0
 10
167.4194593792027
 20
216.9808692879461
 30
0.0
 10
167.786945728615
 20
217.1677511797535
 30
0.0
  0
SPLINE
  5
238
330
1F
100
AcDbEntity
  8
0
  6
Continuous
 62
     7
370
    25
100
AcDbSpline
210
0.0
220
0.0
230
1.0
 70
     8
 71
     3
 72
    11
 73
     7
 74
     0
 42
0.00000001
 43
0.00000001
 40
0.0
 40
0.0
 40
0.0
 40
0.0
 40
0.2495476897152814
 40
0.5042081491783704
 40
0.751800497191818
 40
0.9999999999999999
 40
0.9999999999999999
 40
0.9999999999999999
 40
0.9999999999999999
 10
65.96859453456531
 20
227.7193050082396
 30
0.0
 10
65.9106325521398
 20
227.8280526711514
 30
0.0
 10
65.79352105367303
 20
228.0477760350774
 30
0.0
 10
65.65432038343688
 20
228.3013304740662
 30
0.0
 10
65.55515195271319
 20
228.479119117507
 30
0.0
 10
65.54228867043456
 20
228.5019788112499
 30
0.0
 10
65.5358491530025
 20
228.5134226552985
 30
0.0
  0
SPLINE
  5
239
330
1F
100
AcDbEntity
  8
0
  6
Continuous
 62
     7
370
    25
100
AcDbSpline
210
0.0
220
0.0
230
1.0
 70
     8
 71
     3
 72
    15
 73
    11
 74
     0
 42
0.00000001
 43
0.00000001
 40
0.0
 40
0.0
 40
0.0
 40
0.0
 40
0.1190739163544782
 40
0.2429400141535933
 40
0.3703245869770077
 40
0.4999997435275025
 40
0.6296678660301248
 40
0.7570496369573395
 40
0.8809181219165461
 40
1.0
 40
1.0
 40
1.0
 40
1.0
 10
65.9685945345653
 20
218.3075403023572
 30
0.0
 10
66.12748485625258
 20
218.6384958807495
 30
0.0
 10
66.45166010958573
 20
219.313726488429
 30
0.0
 10
66.78933297855869
 20
220.4632291651332
 30
0.0
 10
67.0086024286615
 20
221.7084292806797
 30
0.0
 10
67.08254973151581
 20
223.0133985605191
 30
0.0
 10
67.00859761488024
 20
224.3183605279708
 30
0.0
 10
66.78934382480881
 20
225.5635398669221
 30
0.0
 10
66.45167991574637
 20
226.7130680923857
 30
0.0
 10
66.12749395823754
 20
227.3883273545255
 30
0.0
 10
65.96859453456531
 20
227.7193050082396
 30
0.0
  0
SPLINE
  5
23A
330
1F
100
AcDbEntity
  8
0
  6
Continuous
 62
     7
370
    25
100
AcDbSpline
210
0.0
220
0.0
230
1.0
 70
     8
 71
     3
 72
    11
 73
     7
 74
     0
 42
0.00000001
 43
0.00000001
 40
0.0
 40
0.0
 40
0.0
 40
0.0
 40
0.2511681577535577
 40
0.495750515692212
 40
0.7414255250192119
 40
1.0
 40
1.0
 40
1.0
 40
1.0
 10
65.53584915300252
 20
217.5134226552985
 30
0.0
 10
65.54260366507658
 20
217.5253445796436
 30
0.0
 10
65.55593558132712
 20
217.5488758273742
 30
0.0
 10
65.65361069338934
 20
217.7243292423803
 30
0.0
 10
65.79093892940418
 20
217.9747817071792
 30
0.0
 10
65.90837460535023
 20
218.1947451049912
 30
0.0
 10
65.96859453456531
 20
218.3075403023573
 30
0.0
  0
SPLINE
  5
23B
330
1F
100
AcDbEntity
  8
0
  6
Continuous
 62
     7
370
    25
100
AcDbSpline
210
0.0
220
0.0
230
1.0
 70
     8
 71
     3
 72
    12
 73
     8
 74
     0
 42
0.00000001
 43
0.00000001
 40
0.0
 40
0.0
 40
0.0
 40
0.0
 40
0.1953079019820321
 40
0.389745681498958
 40
0.5803286157885684
 40
0.7963349348810661
 40
1.0
 40
1.0
 40
1.0
 40
1.0
 10
65.53584915300252
 20
217.5134226552985
 30
0.0
 10
65.1869884927204
 20
217.1068206281878
 30
0.0
 10
64.49082139241365
 20
216.2954280396296
 30
0.0
 10
63.20358110966497
 20
215.3429287551942
 30
0.0
 10
61.73392903984254
 20
214.595723812059
 30
0.0
 10
60.11963663478283
 20
214.1058309837116
 30
0.0
 10
58.96990600830233
 20
214.0436155763831
 30
0.0
 10
58.41194572861502
 20
214.0134226552985
 30
0.0
  0
SPLINE
  5
23C
330
1F
100
AcDbEntity
  8
0
  6
Continuous
 62
     7
370
    25
100
AcDbSpline
210
0.0
220
0.0
230
1.0
 70
     8
 71
     3
 72
    12
 73
     8
 74
     0
 42
0.00000001
 43
0.00000001
 40
0.0
 40
0.0
 40
0.0
 40
0.0
 40
0.1720243806436076
 40
0.353257764448101
 40
0.5418093386599167
 40
0.769924885037854
 40
1.0
 40
1.0
 40
1.0
 40
1.0
 10
58.41194572861502
 20
232.0134226552985
 30
0.0
 10
58.88302206814217
 20
231.9918971197013
 30
0.0
 10
59.85039293710356
 20
231.9476937192579
 30
0.0
 10
61.29791628124681
 20
231.5811821051706
 30
0.0
 10
62.80259416959255
 20
230.9292681036592
 30
0.0
 10
64.29220831432637
 20
229.9363200429827
 30
0.0
 10
65.12012194589471
 20
228.989072166465
 30
0.0
 10
65.53584915300252
 20
228.5134226552985
 30
0.0
  0
SPLINE
  5
23D
330
1F
100
AcDbEntity
  8
0
  6
Continuous
 62
     7
370
    25
100
AcDbSpline
210
0.0
220
0.0
230
1.0
 70
    24
 71
     3
 72
     9
 73
     5
 74
     0
 42
0.00000001
 43
0.00000001
 40
0.0
 40
0.0
 40
0.0
 40
0.0
 40
0.5600000000000213
 40
1.0
 40
1.0
 40
1.0
 40
1.0
 10
67.41194572861501
 20
226.8595408889325
 30
0.0
 10
67.41194572861501
 20
227.0226509342641
 30
0.0
 10
67.41194572861497
 20
227.3139188723563
 30
0.0
 10
67.41194572861501
 20
227.5954370222753
 30
0.0
 10
67.41194572861501
 20
227.7193050082396
 30
0.0
  0
SPLINE
  5
23E
330
1F
100
AcDbEntity
  8
0
  6
Continuous
 62
     7
370
    25
100
AcDbSpline
210
0.0
220
0.0
230
1.0
 70
    24
 71
     3
 72
    11
 73
     7
 74
     0
 42
0.00000001
 43
0.00000001
 40
0.0
 40
0.0
 40
0.0
 40
0.0
 40
0.2475488322023327
 40
0.4999999999999998
 40
0.7524511677976671
 40
1.0
 40
1.0
 40
1.0
 40
1.0
 10
67.41194572861501
 20
219.1673044216645
 30
0.0
 10
67.41194572861501
 20
219.7830307469849
 30
0.0
 10
67.41194572861498
 20
221.0266769396221
 30
0.0
 10
67.41194572861501
 20
223.0134226552985
 30
0.0
 10
67.41194572861501
 20
225.0001683709747
 30
0.0
 10
67.411945728615
 20
226.2438145636119
 30
0.0
 10
67.41194572861501
 20
226.8595408889324
 30
0.0
  0
SPLINE
  5
23F
330
1F
100
AcDbEntity
  8
0
  6
Continuous
 62
     7
370
    25
100
AcDbSpline
210
0.0
220
0.0
230
1.0
 70
    24
 71
     3
 72
     9
 73
     5
 74
     0
 42
0.00000001
 43
0.00000001
 40
0.0
 40
0.0
 40
0.0
 40
0.0
 40
0.560000000000013
 40
1.0
 40
1.0
 40
1.0
 40
1.0
 10
67.41194572861501
 20
218.3075403023573
 30
0.0
 10
67.41194572861501
 20
218.4654402710615
 30
0.0
 10
67.41194572861504
 20
218.7474045008903
 30
0.0
 10
67.41194572861504
 20
219.0390016680946
 30
0.0
 10
67.41194572861501
 20
219.1673044216645
 30
0.0
  0
SPLINE
  5
240
330
1F
100
AcDbEntity
  8
0
  6
Continuous
 62
     7
370
    25
100
AcDbSpline
210
0.0
220
0.0
230
1.0
 70
    24
 71
     3
 72
    20
 73
    16
 74
     0
 42
0.00000001
 43
0.00000001
 40
0.0
 40
0.0
 40
0.0
 40
0.0
 40
0.0161707381141227
 40
0.0687726591577556
 40
0.1536057440939585
 40
0.2537026089377685
 40
0.3718463793863722
 40
0.5000203239935426
 40
0.6281389419729774
 40
0.7461782868657677
 40
0.8462772224310513
 40
0.9063584483674564
 40
0.9524846640355008
 40
0.9838443240711813
 40
1.0
 40
1.0
 40
1.0
 40
1.0
 10
131.911945728615
 20
227.9280219957102
 30
0.0
 10
131.911945728615
 20
227.8797110562903
 30
0.0
 10
131.911945728615
 20
227.6742490825162
 30
0.0
 10
131.911945728615
 20
227.1981728588841
 30
0.0
 10
131.911945728615
 20
226.4381821878463
 30
0.0
 10
131.911945728615
 20
225.4394197382321
 30
0.0
 10
131.911945728615
 20
224.2788002908499
 30
0.0
 10
131.911945728615
 20
223.0132584603524
 30
0.0
 10
131.911945728615
 20
221.7479966714392
 30
0.0
 10
131.911945728615
 20
220.5879484695831
 30
0.0
 10
131.911945728615
 20
219.6713543228744
 30
0.0
 10
131.911945728615
 20
219.0082973058144
 30
0.0
 10
131.911945728615
 20
218.5764260776268
 30
0.0
 10
131.911945728615
 20
218.2889141483636
 30
0.0
 10
131.911945728615
 20
218.147056346079
 30
0.0
 10
131.911945728615
 20
218.0988233148867
 30
0.0
  0
LINE
  5
241
330
1F
100
AcDbEntity
  8
0
  6
Continuous
 62
     7
370
    25
100
AcDbLine
 10
131.9119457286
 20
228.9179116793
 30
0.0
 11
131.9119457286
 21
227.9280219957
 31
0.0
  0
LINE
  5
242
330
1F
100
AcDbEntity
  8
0
  6
Continuous
 62
     7
370
    25
100
AcDbLine
 10
131.9119457286
 20
218.0988233149
 30
0.0
 11
131.9119457286
 21
217.1089336313
 31
0.0
  0
SPLINE
  5
243
330
1F
100
AcDbEntity
  8
0
  6
Continuous
 62
     7
370
    25
100
AcDbSpline
210
0.0
220
0.0
230
1.0
 70
    24
 71
     3
 72
    11
 73
     7
 74
     0
 42
0.00000001
 43
0.00000001
 40
0.0
 40
0.0
 40
0.0
 40
0.0
 40
0.2439893296272837
 40
0.4970916494928516
 40
0.751716140187552
 40
0.9999999999999999
 40
0.9999999999999999
 40
0.9999999999999999
 40
0.9999999999999999
 10
67.41194572861501
 20
227.7193050082396
 30
0.0
 10
67.41194572861501
 20
227.821971388258
 30
0.0
 10
67.411945728615
 20
228.031138732866
 30
0.0
 10
67.41194572861498
 20
228.2729766571498
 30
0.0
 10
67.41194572861502
 20
228.4472862206561
 30
0.0
 10
67.41194572861501
 20
228.4874439724445
 30
0.0
 10
67.41194572861501
 20
228.5072696953726
 30
0.0
  0
SPLINE
  5
244
330
1F
100
AcDbEntity
  8
0
  6
Continuous
 62
     7
370
    25
100
AcDbSpline
210
0.0
220
0.0
230
1.0
 70
    24
 71
     3
 72
    11
 73
     7
 74
     0
 42
0.00000001
 43
0.00000001
 40
0.0
 40
0.0
 40
0.0
 40
0.0
 40
0.2482838598124483
 40
0.5029083505071403
 40
0.756010670372716
 40
1.0
 40
1.0
 40
1.0
 40
1.0
 10
67.41194572861501
 20
217.5195756152243
 30
0.0
 10
67.41194572861501
 20
217.5394013381524
 30
0.0
 10
67.41194572861501
 20
217.5795590899407
 30
0.0
 10
67.41194572861501
 20
217.7538686534471
 30
0.0
 10
67.41194572861498
 20
217.9957065777309
 30
0.0
 10
67.41194572861501
 20
218.2048739223389
 30
0.0
 10
67.41194572861501
 20
218.3075403023573
 30
0.0
  0
SPLINE
  5
245
330
1F
100
AcDbEntity
  8
0
  6
Continuous
 62
     7
370
    25
100
AcDbSpline
210
0.0
220
0.0
230
1.0
 70
    24
 71
     3
 72
    10
 73
     6
 74
     0
 42
0.00000001
 43
0.00000001
 40
0.0
 40
0.0
 40
0.0
 40
0.0
 40
0.4058341963373358
 40
0.6965048340556129
 40
1.0
 40
1.0
 40
1.0
 40
1.0
 10
131.911945728615
 20
217.1089336312637
 30
0.0
 10
131.911945728615
 20
216.9849146354941
 30
0.0
 10
131.911945728615
 20
216.7720695109389
 30
0.0
 10
131.911945728615
 20
216.5664348612019
 30
0.0
 10
131.911945728615
 20
216.5315233223385
 30
0.0
 10
131.911945728615
 20
216.5136907860071
 30
0.0
  0
SPLINE
  5
246
330
1F
100
AcDbEntity
  8
0
  6
Continuous
 62
     7
370
    25
100
AcDbSpline
210
0.0
220
0.0
230
1.0
 70
    24
 71
     3
 72
    10
 73
     6
 74
     0
 42
0.00000001
 43
0.00000001
 40
0.0
 40
0.0
 40
0.0
 40
0.0
 40
0.3033447683631391
 40
0.5940896395930976
 40
0.9999999999999999
 40
0.9999999999999999
 40
0.9999999999999999
 40
0.9999999999999999
 10
131.911945728615
 20
229.513376118146
 30
0.0
 10
131.911945728615
 20
229.4954497069416
 30
0.0
 10
131.911945728615
 20
229.460341485926
 30
0.0
 10
131.911945728615
 20
229.2552574806212
 30
0.0
 10
131.911945728615
 20
229.0421057923825
 30
0.0
 10
131.911945728615
 20
228.9179116793332
 30
0.0
  0
SPLINE
  5
247
330
1F
100
AcDbEntity
  8
0
  6
Continuous
 62
     7
370
    25
100
AcDbSpline
210
0.0
220
0.0
230
1.0
 70
    24
 71
     3
 72
    23
 73
    19
 74
     0
 42
0.00000001
 43
0.00000001
 40
0.0
 40
0.0
 40
0.0
 40
0.0
 40
0.0062917332032957
 40
0.0246849308731639
 40
0.0528613464459135
 40
0.1038023298564335
 40
0.1676018490706093
 40
0.2682386188051166
 40
0.3810655793106547
 40
0.4999946200888958
 40
0.6189415883075693
 40
0.7317904595068777
 40
0.8324187083619279
 40
0.8962036311638042
 40
0.9471372985326307
 40
0.9825847159978717
 40
0.993707808656953
 40
1.0
 40
1.0
 40
1.0
 40
1.0
 10
151.911945728615
 20
216.3467559886318
 30
0.0
 10
151.911945728615
 20
216.3726612111052
 30
0.0
 10
151.911945728615
 20
216.4742975337761
 30
0.0
 10
151.911945728615
 20
216.693618484165
 30
0.0
 10
151.911945728615
 20
217.1030449874541
 30
0.0
 10
151.911945728615
 20
217.7125553656399
 30
0.0
 10
151.911945728615
 20
218.6490888864673
 30
0.0
 10
151.911945728615
 20
219.8849283658684
 30
0.0
 10
151.911945728615
 20
221.3976968196469
 30
0.0
 10
151.911945728615
 20
223.0134174175776
 30
0.0
 10
151.911945728615
 20
224.6290942179012
 30
0.0
 10
151.911945728615
 20
226.1421601135556
 30
0.0
 10
151.911945728615
 20
227.3782045539755
 30
0.0
 10
151.911945728615
 20
228.3144308366032
 30
0.0
 10
151.911945728615
 20
228.9546667355239
 30
0.0
 10
151.911945728615
 20
229.3635556275826
 30
0.0
 10
151.911945728615
 20
229.5824530825491
 30
0.0
 10
151.911945728615
 20
229.6541757275618
 30
0.0
 10
151.911945728615
 20
229.6800893219651
 30
0.0
  0
SPLINE
  5
248
330
1F
100
AcDbEntity
  8
0
  6
Continuous
 62
     7
370
    25
100
AcDbSpline
210
0.0
220
0.0
230
1.0
 70
    24
 71
     3
 72
    11
 73
     7
 74
     0
 42
0.00000001
 43
0.00000001
 40
0.0
 40
0.0
 40
0.0
 40
0.0
 40
0.2500442827497105
 40
0.4999999999999979
 40
0.7499557172502863
 40
1.0
 40
1.0
 40
1.0
 40
1.0
 10
151.911945728615
 20
229.6800893219651
 30
0.0
 10
151.911945728615
 20
229.7994071912785
 30
0.0
 10
151.911945728615
 20
230.0380006676045
 30
0.0
 10
151.911945728615
 20
230.3028553225343
 30
0.0
 10
151.911945728615
 20
230.4793379746326
 30
0.0
 10
151.911945728615
 20
230.5020597534994
 30
0.0
 10
151.911945728615
 20
230.5134226552985
 30
0.0
  0
SPLINE
  5
249
330
1F
100
AcDbEntity
  8
0
  6
Continuous
 62
     7
370
    25
100
AcDbSpline
210
0.0
220
0.0
230
1.0
 70
    24
 71
     3
 72
    11
 73
     7
 74
     0
 42
0.00000001
 43
0.00000001
 40
0.0
 40
0.0
 40
0.0
 40
0.0
 40
0.2500442827497136
 40
0.5000000000000021
 40
0.7499557172502894
 40
1.0
 40
1.0
 40
1.0
 40
1.0
 10
151.911945728615
 20
215.5134226552985
 30
0.0
 10
151.911945728615
 20
215.5247855570975
 30
0.0
 10
151.911945728615
 20
215.5475073359643
 30
0.0
 10
151.911945728615
 20
215.7239899880626
 30
0.0
 10
151.911945728615
 20
215.9888446429924
 30
0.0
 10
151.911945728615
 20
216.2274381193184
 30
0.0
 10
151.911945728615
 20
216.3467559886318
 30
0.0
  0
LWPOLYLINE
  5
24A
330
1F
100
AcDbEntity
  8
0
  6
Continuous
 62
     7
370
    25
100
AcDbPolyline
 90
        2
 70
   128
 43
0.0
 10
151.9119457286
 20
215.5134226553
 10
151.9119457286
 20
215.5134226553
  0
LWPOLYLINE
  5
24B
330
1F
100
AcDbEntity
  8
0
  6
Continuous
 62
     7
370
    25
100
AcDbPolyline
 90
        2
 70
   128
 43
0.0
 10
151.9119457286
 20
230.5134226553
 10
151.9119457286
 20
230.5134226553
  0
LINE
  5
24C
330
1F
100
AcDbEntity
  8
0
  6
Continuous
 62
     7
370
    25
100
AcDbLine
 10
158.5295927874
 20
233.4727689004
 30
0.0
 11
158.5295927874
 21
232.2601744227
 31
0.0
  0
SPLINE
  5
24D
330
1F
100
AcDbEntity
  8
0
  6
Continuous
 62
     7
370
    25
100
AcDbSpline
210
0.0
220
0.0
230
1.0
 70
     8
 71
     3
 72
    31
 73
    27
 74
     0
 42
0.00000001
 43
0.00000001
 40
0.0
 40
0.0
 40
0.0
 40
0.0
 40
0.0394589169330126
 40
0.0807512133391363
 40
0.1233630508960022
 40
0.1666666666666669
 40
0.2099702824373315
 40
0.2525821199941973
 40
0.293874416400321
 40
0.3333333333333332
 40
0.3727922502663461
 40
0.4140845466724696
 40
0.4566963842293355
 40
0.4999999999999999
 40
0.5433036157706644
 40
0.5859154533275304
 40
0.627207749733654
 40
0.6666666666666669
 40
0.706125583599679
 40
0.7474178800058027
 40
0.7900297175626687
 40
0.8333333333333333
 40
0.8766369491039978
 40
0.9192487866608638
 40
0.9605410830669875
 40
1.0
 40
1.0
 40
1.0
 40
1.0
 10
158.5295927874386
 20
212.5540764101723
 30
0.0
 10
159.1180316802649
 20
212.2591290001851
 30
0.0
 10
160.3222500994459
 20
211.6555300400782
 30
0.0
 10
162.3248679818365
 20
211.1382329601773
 30
0.0
 10
164.4424883777906
 20
210.9481788901946
 30
0.0
 10
166.5965436869558
 20
211.1478088433454
 30
0.0
 10
168.6791109487311
 20
211.7289803409616
 30
0.0
 10
170.5944984353422
 20
212.6572727064138
 30
0.0
 10
172.266566303373
 20
213.8663156604583
 30
0.0
 10
173.675039387565
 20
215.2999530293581
 30
0.0
 10
174.8299713238206
 20
216.9447054583152
 30
0.0
 10
175.7163237581993
 20
218.8080571542209
 30
0.0
 10
176.2824088383967
 20
220.8597907204155
 30
0.0
 10
176.4772356794316
 20
223.0134226552985
 30
0.0
 10
176.2824088383967
 20
225.1670545901814
 30
0.0
 10
175.7163237581993
 20
227.218788156376
 30
0.0
 10
174.8299713238206
 20
229.0821398522817
 30
0.0
 10
173.675039387565
 20
230.7268922812388
 30
0.0
 10
172.266566303373
 20
232.1605296501386
 30
0.0
 10
170.5944984353422
 20
233.3695726041831
 30
0.0
 10
168.6791109487311
 20
234.2978649696353
 30
0.0
 10
166.5965436869558
 20
234.8790364672515
 30
0.0
 10
164.4424883777906
 20
235.0786664204023
 30
0.0
 10
162.3248679818365
 20
234.8886123504196
 30
0.0
 10
160.3222500994459
 20
234.3713152705187
 30
0.0
 10
159.1180316802649
 20
233.7677163104118
 30
0.0
 10
158.5295927874386
 20
233.4727689004246
 30
0.0
  0
LINE
  5
24E
330
1F
100
AcDbEntity
  8
0
  6
Continuous
 62
     7
370
    25
100
AcDbLine
 10
158.5295927874
 20
213.7292115273
 30
0.0
 11
158.5295927874
 21
212.5540764102
 31
0.0
  0
LINE
  5
24F
330
1F
100
AcDbEntity
  8
0
  6
Continuous
 62
     7
370
    25
100
AcDbLine
 10
158.5295927874
 20
233.4727689004
 30
0.0
 11
151.9119457286
 21
230.5134226553
 31
0.0
  0
LINE
  5
250
330
1F
100
AcDbEntity
  8
0
  6
Continuous
 62
     7
370
    25
100
AcDbLine
 10
158.5295927874
 20
212.5540764102
 30
0.0
 11
151.9119457286
 21
215.5134226553
 31
0.0
  0
LINE
  5
251
330
1F
100
AcDbEntity
  8
0
  6
Continuous
 62
     7
370
    25
100
AcDbLine
 10
139.5119457286
 20
238.0134226553
 30
0.0
 11
132.3629376104
 21
238.0134226553
 31
0.0
  0
LINE
  5
252
330
1F
100
AcDbEntity
  8
0
  6
Continuous
 62
     7
370
    25
100
AcDbLine
 10
139.5119457286
 20
238.0134226553
 30
0.0
 11
139.5119457286
 21
229.8938734337
 31
0.0
  0
LINE
  5
253
330
1F
100
AcDbEntity
  8
0
  6
Continuous
 62
     7
370
    25
100
AcDbLine
 10
122.9119457286
 20
230.5134226553
 30
0.0
 11
122.9617851096
 21
229.3746188485
 31
0.0
  0
SPLINE
  5
254
330
1F
100
AcDbEntity
  8
0
  6
Continuous
 62
     7
370
    25
100
AcDbSpline
210
0.0
220
0.0
230
1.0
 70
     8
 71
     3
 72
     9
 73
     5
 74
     0
 42
0.00000001
 43
0.00000001
 40
0.0
 40
0.0
 40
0.0
 40
0.0
 40
0.4989631660071377
 40
1.0
 40
1.0
 40
1.0
 40
1.0
 10
123.5337239935257
 20
238.0134226552985
 30
0.0
 10
123.3574266687162
 20
236.7705508511001
 30
0.0
 10
123.0040993355178
 20
234.2796419246071
 30
0.0
 10
122.9427060340239
 20
231.7705634103309
 30
0.0
 10
122.911945728615
 20
230.5134226552985
 30
0.0
  0
LINE
  5
255
330
1F
100
AcDbEntity
  8
0
  6
Continuous
 62
     7
370
    25
100
AcDbLine
 10
127.5328997052
 20
238.0134226553
 30
0.0
 11
123.5337239935
 21
238.0134226553
 31
0.0
  0
LINE
  5
256
330
1F
100
AcDbEntity
  8
0
  6
Continuous
 62
     7
370
    25
100
AcDbLine
 10
128.2400064864
 20
236.6983904749
 30
0.0
 11
127.5328997052
 21
238.0134226553
 31
0.0
  0
LINE
  5
257
330
1F
100
AcDbEntity
  8
0
  6
Continuous
 62
     7
370
    25
100
AcDbLine
 10
128.9471132676
 20
238.0134226553
 30
0.0
 11
128.2400064864
 21
236.6983904749
 31
0.0
  0
LINE
  5
258
330
1F
100
AcDbEntity
  8
0
  6
Continuous
 62
     7
370
    25
100
AcDbLine
 10
130.948724048
 20
238.0134226553
 30
0.0
 11
128.9471132676
 21
238.0134226553
 31
0.0
  0
LINE
  5
259
330
1F
100
AcDbEntity
  8
0
  6
Continuous
 62
     7
370
    25
100
AcDbLine
 10
131.6558308292
 20
236.6983904749
 30
0.0
 11
130.948724048
 21
238.0134226553
 31
0.0
  0
LINE
  5
25A
330
1F
100
AcDbEntity
  8
0
  6
Continuous
 62
     7
370
    25
100
AcDbLine
 10
132.3629376104
 20
238.0134226553
 30
0.0
 11
131.6558308292
 21
236.6983904749
 31
0.0
  0
LINE
  5
25B
330
1F
100
AcDbEntity
  8
0
  6
Continuous
 62
     7
370
    25
100
AcDbLine
 10
122.962000242
 20
216.6522239296
 30
0.0
 11
122.9119457286
 21
215.5134226553
 31
0.0
  0
LINE
  5
25C
330
1F
100
AcDbEntity
  8
0
  6
Continuous
 62
     7
370
    25
100
AcDbLine
 10
122.9119457286
 20
215.5134226553
 30
0.0
 11
122.9119457286
 21
216.6267014082
 31
0.0
  0
LINE
  5
25D
330
1F
100
AcDbEntity
  8
0
  6
Continuous
 62
     7
370
    25
100
AcDbLine
 10
122.9119457286
 20
229.3866476011
 30
0.0
 11
122.9119457286
 21
230.5134226553
 31
0.0
  0
LINE
  5
25E
330
1F
100
AcDbEntity
  8
0
  6
Continuous
 62
     7
370
    25
100
AcDbLine
 10
139.5119457286
 20
208.0134226553
 30
0.0
 11
132.3629376104
 21
208.0134226553
 31
0.0
  0
LINE
  5
25F
330
1F
100
AcDbEntity
  8
0
  6
Continuous
 62
     7
370
    25
100
AcDbLine
 10
131.6558308292
 20
209.3284548357
 30
0.0
 11
132.3629376104
 21
208.0134226553
 31
0.0
  0
LINE
  5
260
330
1F
100
AcDbEntity
  8
0
  6
Continuous
 62
     7
370
    25
100
AcDbLine
 10
130.948724048
 20
208.0134226553
 30
0.0
 11
131.6558308292
 21
209.3284548357
 31
0.0
  0
LINE
  5
261
330
1F
100
AcDbEntity
  8
0
  6
Continuous
 62
     7
370
    25
100
AcDbLine
 10
130.948724048
 20
208.0134226553
 30
0.0
 11
128.9471132676
 21
208.0134226553
 31
0.0
  0
LINE
  5
262
330
1F
100
AcDbEntity
  8
0
  6
Continuous
 62
     7
370
    25
100
AcDbLine
 10
128.2400064864
 20
209.3284548357
 30
0.0
 11
128.9471132676
 21
208.0134226553
 31
0.0
  0
LINE
  5
263
330
1F
100
AcDbEntity
  8
0
  6
Continuous
 62
     7
370
    25
100
AcDbLine
 10
127.5328997052
 20
208.0134226553
 30
0.0
 11
128.2400064864
 21
209.3284548357
 31
0.0
  0
LINE
  5
264
330
1F
100
AcDbEntity
  8
0
  6
Continuous
 62
     7
370
    25
100
AcDbLine
 10
127.5328997052
 20
208.0134226553
 30
0.0
 11
123.5337239935
 21
208.0134226553
 31
0.0
  0
SPLINE
  5
265
330
1F
100
AcDbEntity
  8
0
  6
Continuous
 62
     7
370
    25
100
AcDbSpline
210
0.0
220
0.0
230
1.0
 70
     8
 71
     3
 72
     9
 73
     5
 74
     0
 42
0.00000001
 43
0.00000001
 40
0.0
 40
0.0
 40
0.0
 40
0.0
 40
0.4987908233251052
 40
1.0
 40
1.0
 40
1.0
 40
1.0
 10
122.911945728615
 20
215.5134226552985
 30
0.0
 10
122.9424323747518
 20
214.2619184773592
 30
0.0
 10
123.0035534794536
 20
211.7528422886748
 30
0.0
 10
123.3567157984093
 20
209.2619038561913
 30
0.0
 10
123.5337239935257
 20
208.0134226552985
 30
0.0
  0
LINE
  5
266
330
1F
100
AcDbEntity
  8
0
  6
Continuous
 62
     7
370
    25
100
AcDbLine
 10
139.5119457286
 20
216.1329718772
 30
0.0
 11
139.5119457286
 21
208.0134226553
 31
0.0
  0
SPLINE
  5
267
330
1F
100
AcDbEntity
  8
0
  6
Continuous
 62
     7
370
    25
100
AcDbSpline
210
0.0
220
0.0
230
1.0
 70
    24
 71
     3
 72
     9
 73
     5
 74
     0
 42
0.00000001
 43
0.00000001
 40
0.0
 40
0.0
 40
0.0
 40
0.0
 40
0.5133297506650132
 40
1.0
 40
1.0
 40
1.0
 40
1.0
 10
122.911945728615
 20
238.0134226552985
 30
0.0
 10
122.9442247098207
 20
238.0134226552985
 30
0.0
 10
123.0071062809041
 20
238.0134226552985
 30
0.0
 10
123.3613325882222
 20
238.0134226552985
 30
0.0
 10
123.5337239935257
 20
238.0134226552985
 30
0.0
  0
LINE
  5
268
330
1F
100
AcDbEntity
  8
0
  6
Continuous
 62
     7
370
    25
100
AcDbLine
 10
122.9119457286
 20
230.5134226553
 30
0.0
 11
122.9119457286
 21
238.0134226553
 31
0.0
  0
SPLINE
  5
269
330
1F
100
AcDbEntity
  8
0
  6
Continuous
 62
     7
370
    25
100
AcDbSpline
210
0.0
220
0.0
230
1.0
 70
    24
 71
     3
 72
     9
 73
     5
 74
     0
 42
0.00000001
 43
0.00000001
 40
0.0
 40
0.0
 40
0.0
 40
0.0
 40
0.4989631660071377
 40
1.0
 40
1.0
 40
1.0
 40
1.0
 10
123.5337239935257
 20
208.0134226552985
 30
0.0
 10
123.3574266687162
 20
208.0134226552985
 30
0.0
 10
123.0040993355178
 20
208.0134226552985
 30
0.0
 10
122.9427060340239
 20
208.0134226552985
 30
0.0
 10
122.911945728615
 20
208.0134226552985
 30
0.0
  0
LINE
  5
26A
330
1F
100
AcDbEntity
  8
0
  6
Continuous
 62
     7
370
    25
100
AcDbLine
 10
122.9119457286
 20
215.5134226553
 30
0.0
 11
122.9119457286
 21
208.0134226553
 31
0.0
  0
SPLINE
  5
26B
330
1F
100
AcDbEntity
  8
0
  6
Continuous
 62
     7
370
    25
100
AcDbSpline
210
0.0
220
0.0
230
1.0
 70
    24
 71
     3
 72
     9
 73
     5
 74
     0
 42
0.00000001
 43
0.00000001
 40
0.0
 40
0.0
 40
0.0
 40
0.0
 40
0.5699310889288092
 40
1.0
 40
1.0
 40
1.0
 40
1.0
 10
127.5328997051977
 20
238.0134226552985
 30
0.0
 10
127.6732095296044
 20
238.0134226552985
 30
0.0
 10
127.9193968795005
 20
238.0134226552985
 30
0.0
 10
128.1435885980965
 20
238.0134226552985
 30
0.0
 10
128.2400064863842
 20
238.0134226552985
 30
0.0
  0
LINE
  5
26C
330
1F
100
AcDbEntity
  8
0
  6
Continuous
 62
     7
370
    25
100
AcDbLine
 10
128.2400064864
 20
236.6983904749
 30
0.0
 11
128.2400064864
 21
238.0134226553
 31
0.0
  0
LINE
  5
26D
330
1F
100
AcDbEntity
  8
0
  6
Continuous
 62
     7
370
    25
100
AcDbLine
 10
128.2400064864
 20
238.0134226553
 30
0.0
 11
128.9471132676
 21
238.0134226553
 31
0.0
  0
SPLINE
  5
26E
330
1F
100
AcDbEntity
  8
0
  6
Continuous
 62
     7
370
    25
100
AcDbSpline
210
0.0
220
0.0
230
1.0
 70
    24
 71
     3
 72
     9
 73
     5
 74
     0
 42
0.00000001
 43
0.00000001
 40
0.0
 40
0.0
 40
0.0
 40
0.0
 40
0.5699310889288023
 40
0.9999999999999999
 40
0.9999999999999999
 40
0.9999999999999999
 40
0.9999999999999999
 10
130.948724048025
 20
238.0134226552985
 30
0.0
 10
131.0890338724318
 20
238.0134226552985
 30
0.0
 10
131.3352212223279
 20
238.0134226552985
 30
0.0
 10
131.5594129409239
 20
238.0134226552985
 30
0.0
 10
131.6558308292116
 20
238.0134226552985
 30
0.0
  0
LINE
  5
26F
330
1F
100
AcDbEntity
  8
0
  6
Continuous
 62
     7
370
    25
100
AcDbLine
 10
131.6558308292
 20
236.6983904749
 30
0.0
 11
131.6558308292
 21
238.0134226553
 31
0.0
  0
LINE
  5
270
330
1F
100
AcDbEntity
  8
0
  6
Continuous
 62
     7
370
    25
100
AcDbLine
 10
131.6558308292
 20
238.0134226553
 30
0.0
 11
132.3629376104
 21
238.0134226553
 31
0.0
  0
LINE
  5
271
330
1F
100
AcDbEntity
  8
0
  6
Continuous
 62
     7
370
    25
100
AcDbLine
 10
128.2400064864
 20
208.0134226553
 30
0.0
 11
128.2400064864
 21
209.3284548357
 31
0.0
  0
LINE
  5
272
330
1F
100
AcDbEntity
  8
0
  6
Continuous
 62
     7
370
    25
100
AcDbLine
 10
128.2400064864
 20
208.0134226553
 30
0.0
 11
127.5328997052
 21
208.0134226553
 31
0.0
  0
LINE
  5
273
330
1F
100
AcDbEntity
  8
0
  6
Continuous
 62
     7
370
    25
100
AcDbLine
 10
131.6558308292
 20
208.0134226553
 30
0.0
 11
131.6558308292
 21
209.3284548357
 31
0.0
  0
LINE
  5
274
330
1F
100
AcDbEntity
  8
0
  6
Continuous
 62
     7
370
    25
100
AcDbLine
 10
131.6558308292
 20
208.0134226553
 30
0.0
 11
130.948724048
 21
208.0134226553
 31
0.0
  0
SPLINE
  5
275
330
1F
100
AcDbEntity
  8
0
  6
Continuous
 62
     7
370
    25
100
AcDbSpline
210
0.0
220
0.0
230
1.0
 70
    24
 71
     3
 72
     9
 73
     5
 74
     0
 42
0.00000001
 43
0.00000001
 40
0.0
 40
0.0
 40
0.0
 40
0.0
 40
0.5699310889288282
 40
1.0
 40
1.0
 40
1.0
 40
1.0
 10
128.9471132675708
 20
208.0134226552985
 30
0.0
 10
128.806803443164
 20
208.0134226552985
 30
0.0
 10
128.560616093268
 20
208.0134226552985
 30
0.0
 10
128.336424374672
 20
208.0134226552985
 30
0.0
 10
128.2400064863842
 20
208.0134226552985
 30
0.0
  0
SPLINE
  5
276
330
1F
100
AcDbEntity
  8
0
  6
Continuous
 62
     7
370
    25
100
AcDbSpline
210
0.0
220
0.0
230
1.0
 70
    24
 71
     3
 72
     9
 73
     5
 74
     0
 42
0.00000001
 43
0.00000001
 40
0.0
 40
0.0
 40
0.0
 40
0.0
 40
0.5699310889288214
 40
0.9999999999999999
 40
0.9999999999999999
 40
0.9999999999999999
 40
0.9999999999999999
 10
132.3629376103981
 20
208.0134226552985
 30
0.0
 10
132.2226277859914
 20
208.0134226552985
 30
0.0
 10
131.9764404360953
 20
208.0134226552985
 30
0.0
 10
131.7522487174994
 20
208.0134226552985
 30
0.0
 10
131.6558308292116
 20
208.0134226552985
 30
0.0
  0
LINE
  5
277
330
1F
100
AcDbEntity
  8
0
  6
Continuous
 62
     7
370
    25
100
AcDbLine
 10
189.3119457286
 20
223.0134226553
 30
0.0
 11
196.4609538468
 21
223.0134226553
 31
0.0
  0
LINE
  5
278
330
1F
100
AcDbEntity
  8
0
  6
Continuous
 62
     7
370
    25
100
AcDbLine
 10
189.3119457286
 20
223.0134226553
 30
0.0
 11
189.3119457286
 21
238.0134226553
 31
0.0
  0
LINE
  5
279
330
1F
100
AcDbEntity
  8
0
  6
Continuous
 62
     7
370
    25
100
AcDbLine
 10
189.3119457286
 20
238.0134226553
 30
0.0
 11
196.4609538468
 21
238.0134226553
 31
0.0
  0
LINE
  5
27A
330
1F
100
AcDbEntity
  8
0
  6
Continuous
 62
     7
370
    25
100
AcDbLine
 10
197.168060628
 20
236.6983904749
 30
0.0
 11
196.4609538468
 21
238.0134226553
 31
0.0
  0
LINE
  5
27B
330
1F
100
AcDbEntity
  8
0
  6
Continuous
 62
     7
370
    25
100
AcDbLine
 10
197.8751674092
 20
238.0134226553
 30
0.0
 11
197.168060628
 21
236.6983904749
 31
0.0
  0
LINE
  5
27C
330
1F
100
AcDbEntity
  8
0
  6
Continuous
 62
     7
370
    25
100
AcDbLine
 10
197.8751674092
 20
238.0134226553
 30
0.0
 11
199.8767781897
 21
238.0134226553
 31
0.0
  0
LINE
  5
27D
330
1F
100
AcDbEntity
  8
0
  6
Continuous
 62
     7
370
    25
100
AcDbLine
 10
200.5838849708
 20
236.6983904749
 30
0.0
 11
199.8767781897
 21
238.0134226553
 31
0.0
  0
LINE
  5
27E
330
1F
100
AcDbEntity
  8
0
  6
Continuous
 62
     7
370
    25
100
AcDbLine
 10
201.290991752
 20
238.0134226553
 30
0.0
 11
200.5838849708
 21
236.6983904749
 31
0.0
  0
LINE
  5
27F
330
1F
100
AcDbEntity
  8
0
  6
Continuous
 62
     7
370
    25
100
AcDbLine
 10
201.290991752
 20
238.0134226553
 30
0.0
 11
205.2901674637
 21
238.0134226553
 31
0.0
  0
SPLINE
  5
280
330
1F
100
AcDbEntity
  8
0
  6
Continuous
 62
     7
370
    25
100
AcDbSpline
210
0.0
220
0.0
230
1.0
 70
     8
 71
     3
 72
     9
 73
     5
 74
     0
 42
0.00000001
 43
0.00000001
 40
0.0
 40
0.0
 40
0.0
 40
0.0
 40
0.4987908233251053
 40
1.0
 40
1.0
 40
1.0
 40
1.0
 10
205.9119457286151
 20
230.5134226552985
 30
0.0
 10
205.8814590824783
 20
231.7649268332378
 30
0.0
 10
205.8203379777765
 20
234.2740030219221
 30
0.0
 10
205.4671756588207
 20
236.7649414544055
 30
0.0
 10
205.2901674637043
 20
238.0134226552985
 30
0.0
  0
SPLINE
  5
281
330
1F
100
AcDbEntity
  8
0
  6
Continuous
 62
     7
370
    25
100
AcDbSpline
210
0.0
220
0.0
230
1.0
 70
     8
 71
     3
 72
     9
 73
     5
 74
     0
 42
0.00000001
 43
0.00000001
 40
0.0
 40
0.0
 40
0.0
 40
0.0
 40
0.4989631660071376
 40
1.0
 40
1.0
 40
1.0
 40
1.0
 10
205.2901674637043
 20
223.0134226552985
 30
0.0
 10
205.4664647885139
 20
224.2562944594968
 30
0.0
 10
205.8197921217123
 20
226.7472033859897
 30
0.0
 10
205.8811854232061
 20
229.256281900266
 30
0.0
 10
205.9119457286151
 20
230.5134226552985
 30
0.0
  0
LINE
  5
282
330
1F
100
AcDbEntity
  8
0
  6
Continuous
 62
     7
370
    25
100
AcDbLine
 10
201.290991752
 20
223.0134226553
 30
0.0
 11
205.2901674637
 21
223.0134226553
 31
0.0
  0
LINE
  5
283
330
1F
100
AcDbEntity
  8
0
  6
Continuous
 62
     7
370
    25
100
AcDbLine
 10
200.5838849708
 20
224.3284548357
 30
0.0
 11
201.290991752
 21
223.0134226553
 31
0.0
  0
LINE
  5
284
330
1F
100
AcDbEntity
  8
0
  6
Continuous
 62
     7
370
    25
100
AcDbLine
 10
199.8767781897
 20
223.0134226553
 30
0.0
 11
200.5838849708
 21
224.3284548357
 31
0.0
  0
LINE
  5
285
330
1F
100
AcDbEntity
  8
0
  6
Continuous
 62
     7
370
    25
100
AcDbLine
 10
197.8751674092
 20
223.0134226553
 30
0.0
 11
199.8767781897
 21
223.0134226553
 31
0.0
  0
LINE
  5
286
330
1F
100
AcDbEntity
  8
0
  6
Continuous
 62
     7
370
    25
100
AcDbLine
 10
197.168060628
 20
224.3284548357
 30
0.0
 11
197.8751674092
 21
223.0134226553
 31
0.0
  0
LINE
  5
287
330
1F
100
AcDbEntity
  8
0
  6
Continuous
 62
     7
370
    25
100
AcDbLine
 10
196.4609538468
 20
223.0134226553
 30
0.0
 11
197.168060628
 21
224.3284548357
 31
0.0
  0
SPLINE
  5
288
330
1F
100
AcDbEntity
  8
0
  6
Continuous
 62
     7
370
    25
100
AcDbSpline
210
0.0
220
0.0
230
1.0
 70
     8
 71
     3
 72
     9
 73
     5
 74
     0
 42
0.00000001
 43
0.00000001
 40
0.0
 40
0.0
 40
0.0
 40
0.0
 40
0.4987908233251052
 40
1.0
 40
1.0
 40
1.0
 40
1.0
 10
205.9119457286151
 20
215.5134226552985
 30
0.0
 10
205.8814590824783
 20
216.7649268332377
 30
0.0
 10
205.8203379777765
 20
219.2740030219221
 30
0.0
 10
205.4671756588207
 20
221.7649414544056
 30
0.0
 10
205.2901674637043
 20
223.0134226552985
 30
0.0
  0
LINE
  5
289
330
1F
100
AcDbEntity
  8
0
  6
Continuous
 62
     7
370
    25
100
AcDbLine
 10
205.9119457286
 20
230.5134226553
 30
0.0
 11
205.9119457286
 21
215.5134226553
 31
0.0
  0
LINE
  5
28A
330
1F
100
AcDbEntity
  8
0
  6
Continuous
 62
     7
370
    25
100
AcDbLine
 10
189.3119457286
 20
208.0134226553
 30
0.0
 11
196.4609538468
 21
208.0134226553
 31
0.0
  0
LINE
  5
28B
330
1F
100
AcDbEntity
  8
0
  6
Continuous
 62
     7
370
    25
100
AcDbLine
 10
197.168060628
 20
221.6983904749
 30
0.0
 11
196.4609538468
 21
223.0134226553
 31
0.0
  0
LINE
  5
28C
330
1F
100
AcDbEntity
  8
0
  6
Continuous
 62
     7
370
    25
100
AcDbLine
 10
197.8751674092
 20
223.0134226553
 30
0.0
 11
197.168060628
 21
221.6983904749
 31
0.0
  0
LINE
  5
28D
330
1F
100
AcDbEntity
  8
0
  6
Continuous
 62
     7
370
    25
100
AcDbLine
 10
200.5838849708
 20
221.6983904749
 30
0.0
 11
199.8767781897
 21
223.0134226553
 31
0.0
  0
LINE
  5
28E
330
1F
100
AcDbEntity
  8
0
  6
Continuous
 62
     7
370
    25
100
AcDbLine
 10
201.290991752
 20
223.0134226553
 30
0.0
 11
200.5838849708
 21
221.6983904749
 31
0.0
  0
SPLINE
  5
28F
330
1F
100
AcDbEntity
  8
0
  6
Continuous
 62
     7
370
    25
100
AcDbSpline
210
0.0
220
0.0
230
1.0
 70
     8
 71
     3
 72
     9
 73
     5
 74
     0
 42
0.00000001
 43
0.00000001
 40
0.0
 40
0.0
 40
0.0
 40
0.0
 40
0.4989631660071376
 40
1.0
 40
1.0
 40
1.0
 40
1.0
 10
205.2901674637043
 20
208.0134226552985
 30
0.0
 10
205.4664647885139
 20
209.2562944594968
 30
0.0
 10
205.8197921217123
 20
211.7472033859898
 30
0.0
 10
205.8811854232061
 20
214.256281900266
 30
0.0
 10
205.9119457286151
 20
215.5134226552985
 30
0.0
  0
LINE
  5
290
330
1F
100
AcDbEntity
  8
0
  6
Continuous
 62
     7
370
    25
100
AcDbLine
 10
201.290991752
 20
208.0134226553
 30
0.0
 11
205.2901674637
 21
208.0134226553
 31
0.0
  0
LINE
  5
291
330
1F
100
AcDbEntity
  8
0
  6
Continuous
 62
     7
370
    25
100
AcDbLine
 10
200.5838849708
 20
209.3284548357
 30
0.0
 11
201.290991752
 21
208.0134226553
 31
0.0
  0
LINE
  5
292
330
1F
100
AcDbEntity
  8
0
  6
Continuous
 62
     7
370
    25
100
AcDbLine
 10
199.8767781897
 20
208.0134226553
 30
0.0
 11
200.5838849708
 21
209.3284548357
 31
0.0
  0
LINE
  5
293
330
1F
100
AcDbEntity
  8
0
  6
Continuous
 62
     7
370
    25
100
AcDbLine
 10
197.8751674092
 20
208.0134226553
 30
0.0
 11
199.8767781897
 21
208.0134226553
 31
0.0
  0
LINE
  5
294
330
1F
100
AcDbEntity
  8
0
  6
Continuous
 62
     7
370
    25
100
AcDbLine
 10
197.168060628
 20
209.3284548357
 30
0.0
 11
197.8751674092
 21
208.0134226553
 31
0.0
  0
LINE
  5
295
330
1F
100
AcDbEntity
  8
0
  6
Continuous
 62
     7
370
    25
100
AcDbLine
 10
196.4609538468
 20
208.0134226553
 30
0.0
 11
197.168060628
 21
209.3284548357
 31
0.0
  0
LINE
  5
296
330
1F
100
AcDbEntity
  8
0
  6
Continuous
 62
     7
370
    25
100
AcDbLine
 10
189.3119457286
 20
208.0134226553
 30
0.0
 11
189.3119457286
 21
223.0134226553
 31
0.0
  0
LINE
  5
297
330
1F
100
AcDbEntity
  8
0
  6
Continuous
 62
     7
370
    25
100
AcDbLine
 10
200.5838849708
 20
224.3284548357
 30
0.0
 11
200.5838849708
 21
221.6983904749
 31
0.0
  0
LINE
  5
298
330
1F
100
AcDbEntity
  8
0
  6
Continuous
 62
     7
370
    25
100
AcDbLine
 10
197.168060628
 20
224.3284548357
 30
0.0
 11
197.168060628
 21
221.6983904749
 31
0.0
  0
SPLINE
  5
299
330
1F
100
AcDbEntity
  8
0
  6
Continuous
 62
     7
370
    25
100
AcDbSpline
210
0.0
220
0.0
230
1.0
 70
    24
 71
     3
 72
     9
 73
     5
 74
     0
 42
0.00000001
 43
0.00000001
 40
0.0
 40
0.0
 40
0.0
 40
0.0
 40
0.4989631660071377
 40
1.0
 40
1.0
 40
1.0
 40
1.0
 10
205.2901674637043
 20
238.0134226552985
 30
0.0
 10
205.4664647885139
 20
238.0134226552985
 30
0.0
 10
205.8197921217123
 20
238.0134226552985
 30
0.0
 10
205.8811854232061
 20
238.0134226552985
 30
0.0
 10
205.9119457286151
 20
238.0134226552985
 30
0.0
  0
LINE
  5
29A
330
1F
100
AcDbEntity
  8
0
  6
Continuous
 62
     7
370
    25
100
AcDbLine
 10
205.9119457286
 20
238.0134226553
 30
0.0
 11
205.9119457286
 21
230.5134226553
 31
0.0
  0
SPLINE
  5
29B
330
1F
100
AcDbEntity
  8
0
  6
Continuous
 62
     7
370
    25
100
AcDbSpline
210
0.0
220
0.0
230
1.0
 70
    24
 71
     3
 72
     9
 73
     5
 74
     0
 42
0.00000001
 43
0.00000001
 40
0.0
 40
0.0
 40
0.0
 40
0.0
 40
0.5133297506650127
 40
1.0
 40
1.0
 40
1.0
 40
1.0
 10
205.9119457286151
 20
208.0134226552985
 30
0.0
 10
205.8796667474093
 20
208.0134226552985
 30
0.0
 10
205.8167851763259
 20
208.0134226552985
 30
0.0
 10
205.4625588690079
 20
208.0134226552985
 30
0.0
 10
205.2901674637043
 20
208.0134226552985
 30
0.0
  0
LINE
  5
29C
330
1F
100
AcDbEntity
  8
0
  6
Continuous
 62
     7
370
    25
100
AcDbLine
 10
205.9119457286
 20
215.5134226553
 30
0.0
 11
205.9119457286
 21
208.0134226553
 31
0.0
  0
SPLINE
  5
29D
330
1F
100
AcDbEntity
  8
0
  6
Continuous
 62
     7
370
    25
100
AcDbSpline
210
0.0
220
0.0
230
1.0
 70
    24
 71
     3
 72
     9
 73
     5
 74
     0
 42
0.00000001
 43
0.00000001
 40
0.0
 40
0.0
 40
0.0
 40
0.0
 40
0.5699310889288275
 40
1.0
 40
1.0
 40
1.0
 40
1.0
 10
196.4609538468319
 20
238.0134226552985
 30
0.0
 10
196.6012636712387
 20
238.0134226552985
 30
0.0
 10
196.8474510211347
 20
238.0134226552985
 30
0.0
 10
197.0716427397307
 20
238.0134226552985
 30
0.0
 10
197.1680606280185
 20
238.0134226552985
 30
0.0
  0
LINE
  5
29E
330
1F
100
AcDbEntity
  8
0
  6
Continuous
 62
     7
370
    25
100
AcDbLine
 10
197.168060628
 20
238.0134226553
 30
0.0
 11
197.168060628
 21
236.6983904749
 31
0.0
  0
SPLINE
  5
29F
330
1F
100
AcDbEntity
  8
0
  6
Continuous
 62
     7
370
    25
100
AcDbSpline
210
0.0
220
0.0
230
1.0
 70
    24
 71
     3
 72
     9
 73
     5
 74
     0
 42
0.00000001
 43
0.00000001
 40
0.0
 40
0.0
 40
0.0
 40
0.0
 40
0.5699310889288277
 40
1.0
 40
1.0
 40
1.0
 40
1.0
 10
199.8767781896593
 20
238.0134226552985
 30
0.0
 10
200.017088014066
 20
238.0134226552985
 30
0.0
 10
200.2632753639621
 20
238.0134226552985
 30
0.0
 10
200.4874670825581
 20
238.0134226552985
 30
0.0
 10
200.5838849708458
 20
238.0134226552985
 30
0.0
  0
LINE
  5
2A0
330
1F
100
AcDbEntity
  8
0
  6
Continuous
 62
     7
370
    25
100
AcDbLine
 10
200.5838849708
 20
238.0134226553
 30
0.0
 11
200.5838849708
 21
236.6983904749
 31
0.0
  0
LINE
  5
2A1
330
1F
100
AcDbEntity
  8
0
  6
Continuous
 62
     7
370
    25
100
AcDbLine
 10
197.168060628
 20
238.0134226553
 30
0.0
 11
197.8751674092
 21
238.0134226553
 31
0.0
  0
LINE
  5
2A2
330
1F
100
AcDbEntity
  8
0
  6
Continuous
 62
     7
370
    25
100
AcDbLine
 10
200.5838849708
 20
238.0134226553
 30
0.0
 11
201.290991752
 21
238.0134226553
 31
0.0
  0
LINE
  5
2A3
330
1F
100
AcDbEntity
  8
0
  6
Continuous
 62
     7
370
    25
100
AcDbLine
 10
197.168060628
 20
208.0134226553
 30
0.0
 11
196.4609538468
 21
208.0134226553
 31
0.0
  0
LINE
  5
2A4
330
1F
100
AcDbEntity
  8
0
  6
Continuous
 62
     7
370
    25
100
AcDbLine
 10
197.168060628
 20
209.3284548357
 30
0.0
 11
197.168060628
 21
208.0134226553
 31
0.0
  0
SPLINE
  5
2A5
330
1F
100
AcDbEntity
  8
0
  6
Continuous
 62
     7
370
    25
100
AcDbSpline
210
0.0
220
0.0
230
1.0
 70
    24
 71
     3
 72
     9
 73
     5
 74
     0
 42
0.00000001
 43
0.00000001
 40
0.0
 40
0.0
 40
0.0
 40
0.0
 40
0.5699310889288098
 40
0.9999999999999999
 40
0.9999999999999999
 40
0.9999999999999999
 40
0.9999999999999999
 10
197.875167409205
 20
208.0134226552985
 30
0.0
 10
197.7348575847982
 20
208.0134226552985
 30
0.0
 10
197.4886702349021
 20
208.0134226552985
 30
0.0
 10
197.2644785163062
 20
208.0134226552985
 30
0.0
 10
197.1680606280185
 20
208.0134226552985
 30
0.0
  0
SPLINE
  5
2A6
330
1F
100
AcDbEntity
  8
0
  6
Continuous
 62
     7
370
    25
100
AcDbSpline
210
0.0
220
0.0
230
1.0
 70
    24
 71
     3
 72
     9
 73
     5
 74
     0
 42
0.00000001
 43
0.00000001
 40
0.0
 40
0.0
 40
0.0
 40
0.0
 40
0.5699310889288114
 40
0.9999999999999999
 40
0.9999999999999999
 40
0.9999999999999999
 40
0.9999999999999999
 10
201.2909917520324
 20
208.0134226552985
 30
0.0
 10
201.1506819276256
 20
208.0134226552985
 30
0.0
 10
200.9044945777295
 20
208.0134226552985
 30
0.0
 10
200.6803028591336
 20
208.0134226552985
 30
0.0
 10
200.5838849708458
 20
208.0134226552985
 30
0.0
  0
LINE
  5
2A7
330
1F
100
AcDbEntity
  8
0
  6
Continuous
 62
     7
370
    25
100
AcDbLine
 10
200.5838849708
 20
209.3284548357
 30
0.0
 11
200.5838849708
 21
208.0134226553
 31
0.0
  0
LINE
  5
2A8
330
1F
100
AcDbEntity
  8
0
  6
Continuous
 62
     7
370
    25
100
AcDbLine
 10
200.5838849708
 20
208.0134226553
 30
0.0
 11
199.8767781897
 21
208.0134226553
 31
0.0
  0
LINE
  5
2A9
330
1F
100
AcDbEntity
  8
0
  6
Continuous
 62
     7
370
    25
100
AcDbLine
 10
168.9261252738
 20
223.1946343286
 30
0.0
 11
169.1119457286
 21
223.0134226553
 31
0.0
  0
LINE
  5
2AA
330
1F
100
AcDbEntity
  8
0
  6
Continuous
 62
     7
370
    25
100
AcDbLine
 10
159.7119457286
 20
223.0134226553
 30
0.0
 11
159.8961201492
 21
223.1917833137
 31
0.0
  0
LINE
  5
2AB
330
1F
100
AcDbEntity
  8
0
  6
Continuous
 62
     7
370
    25
100
AcDbLine
 10
159.8977661835
 20
222.832210982
 30
0.0
 11
159.7119457286
 21
223.0134226553
 31
0.0
  0
LINE
  5
2AC
330
1F
100
AcDbEntity
  8
0
  6
Continuous
 62
     7
370
    25
100
AcDbLine
 10
169.1119457286
 20
223.0134226553
 30
0.0
 11
168.927771308
 21
222.8350619969
 31
0.0
  0
ARC
  5
2AD
330
1F
100
AcDbEntity
  8
0
  6
Continuous
 62
     7
370
    25
100
AcDbCircle
 10
175.8902065982
 20
219.5134901688
 30
0.0
 40
1.000000000000059
100
AcDbArc
 50
343.0425737058
 51
45.0893868224
  0
ARC
  5
2AE
330
1F
100
AcDbEntity
  8
0
  6
Continuous
 62
     7
370
    25
100
AcDbCircle
 10
164.4119457286
 20
223.0134226553
 30
0.0
 40
13.00000000000007
100
AcDbArc
 50
286.9574262942
 51
343.0425737058
  0
ARC
  5
2AF
330
1F
100
AcDbEntity
  8
0
  6
Continuous
 62
     7
370
    25
100
AcDbCircle
 10
167.9118782151
 20
211.5351617857
 30
0.0
 40
1.000000000000059
100
AcDbArc
 50
224.9106131776
 51
286.9574262942
  0
ARC
  5
2B0
330
1F
100
AcDbEntity
  8
0
  6
Continuous
 62
     7
370
    25
100
AcDbCircle
 10
164.4119457286
 20
223.0134226553
 30
0.0
 40
13.00000000000006
100
AcDbArc
 50
16.9574262942
 51
133.1125311276
  0
ARC
  5
2B1
330
1F
100
AcDbEntity
  8
0
  6
Continuous
 62
     7
370
    25
100
AcDbCircle
 10
175.8902065982
 20
226.5133551418
 30
0.0
 40
1.000000000000059
100
AcDbArc
 50
314.9106131776
 51
16.9574262942
  0
ARC
  5
2B2
330
1F
100
AcDbEntity
  8
0
  6
Continuous
 62
     7
370
    25
100
AcDbCircle
 10
164.4119457286
 20
211.2279916266
 30
0.0
 40
2.09000000000003
100
AcDbArc
 50
195.2834940322
 51
344.7165059678
  0
ARC
  5
2B3
330
1F
100
AcDbEntity
  8
0
  6
Continuous
 62
     7
370
    25
100
AcDbCircle
 10
164.4119457286
 20
211.2279916266
 30
0.0
 40
2.500000000000017
100
AcDbArc
 50
190.8611468627
 51
349.1388531373
  0
LINE
  5
2B4
330
1F
100
AcDbEntity
  8
0
  6
Continuous
 62
     7
370
    25
100
AcDbLine
 10
188.4119457286
 20
240.5134226553
 30
0.0
 11
140.4119457286
 21
240.5134226553
 31
0.0
  0
LINE
  5
2B5
330
1F
100
AcDbEntity
  8
0
  6
Continuous
 62
     7
370
    25
100
AcDbLine
 10
188.4119457286
 20
239.5134226553
 30
0.0
 11
188.4119457286
 21
240.5134226553
 31
0.0
  0
LINE
  5
2B6
330
1F
100
AcDbEntity
  8
0
  6
Continuous
 62
     7
370
    25
100
AcDbLine
 10
140.4119457286
 20
240.5134226553
 30
0.0
 11
140.4119457286
 21
239.5134226553
 31
0.0
  0
LINE
  5
2B7
330
1F
100
AcDbEntity
  8
0
  6
Continuous
 62
     7
370
    25
100
AcDbLine
 10
188.4119457286
 20
206.5134226553
 30
0.0
 11
188.4119457286
 21
239.5134226553
 31
0.0
  0
LINE
  5
2B8
330
1F
100
AcDbEntity
  8
0
  6
Continuous
 62
     7
370
    25
100
AcDbLine
 10
140.4119457286
 20
239.5134226553
 30
0.0
 11
140.4119457286
 21
229.9388391326
 31
0.0
  0
LINE
  5
2B9
330
1F
100
AcDbEntity
  8
0
  6
Continuous
 62
     7
370
    25
100
AcDbLine
 10
140.4119457286
 20
216.0880061783
 30
0.0
 11
140.4119457286
 21
206.5134226553
 31
0.0
  0
LINE
  5
2BA
330
1F
100
AcDbEntity
  8
0
  6
Continuous
 62
     7
370
    25
100
AcDbLine
 10
140.4119457286
 20
205.5134226553
 30
0.0
 11
188.4119457286
 21
205.5134226553
 31
0.0
  0
LINE
  5
2BB
330
1F
100
AcDbEntity
  8
0
  6
Continuous
 62
     7
370
    25
100
AcDbLine
 10
188.4119457286
 20
205.5134226553
 30
0.0
 11
188.4119457286
 21
206.5134226553
 31
0.0
  0
LINE
  5
2BC
330
1F
100
AcDbEntity
  8
0
  6
Continuous
 62
     7
370
    25
100
AcDbLine
 10
140.4119457286
 20
206.5134226553
 30
0.0
 11
140.4119457286
 21
205.5134226553
 31
0.0
  0
SPLINE
  5
2BD
330
1F
100
AcDbEntity
  8
0
  6
PHANTOM
 62
     8
370
    18
100
AcDbSpline
210
0.0
220
0.0
230
1.0
 70
     8
 71
     3
 72
    19
 73
    15
 74
     0
 42
0.00000001
 43
0.00000001
 40
0.0
 40
0.0
 40
0.0
 40
0.0
 40
0.0785035252242152
 40
0.1626765933322123
 40
0.2500000000000002
 40
0.3373234066677879
 40
0.4214964747757849
 40
0.4999999999999998
 40
0.5785035252242152
 40
0.6626765933322122
 40
0.7499999999999999
 40
0.8373234066677876
 40
0.9214964747757847
 40
1.0
 40
1.0
 40
1.0
 40
1.0
 10
162.961945728615
 20
225.5248963262733
 30
0.0
 10
162.7641341866795
 20
225.3909138446588
 30
0.0
 10
162.3542251071578
 20
225.1132726353882
 30
0.0
 10
161.8849615824362
 20
224.5026781834302
 30
0.0
 10
161.57504473606
 20
223.7740569709774
 30
0.0
 10
161.4768474312609
 20
222.9858070459985
 30
0.0
 10
161.5873549261431
 20
222.2280609629829
 30
0.0
 10
161.8749154204038
 20
221.5486675239105
 30
0.0
 10
162.3195071506747
 20
220.9599361112197
 30
0.0
 10
162.9204807607432
 20
220.4853607718353
 30
0.0
 10
163.6522238727057
 20
220.176277169885
 30
0.0
 10
164.4381867756141
 20
220.0803624256812
 30
0.0
 10
165.2016088447804
 20
220.1814593331806
 30
0.0
 10
165.647007724907
 20
220.3976304046529
 30
0.0
 10
165.861945728615
 20
220.5019489843236
 30
0.0
  0
SPLINE
  5
2BE
330
1F
100
AcDbEntity
  8
0
  6
PHANTOM
 62
     8
370
    18
100
AcDbSpline
210
0.0
220
0.0
230
1.0
 70
     8
 71
     3
 72
    19
 73
    15
 74
     0
 42
0.00000001
 43
0.00000001
 40
0.0
 40
0.0
 40
0.0
 40
0.0
 40
0.078503525224215
 40
0.1626765933322117
 40
0.2499999999999992
 40
0.3373234066677867
 40
0.4214964747757835
 40
0.5
 40
0.578503525224214
 40
0.6626765933322113
 40
0.7499999999999992
 40
0.8373234066677873
 40
0.9214964747757846
 40
1.0
 40
1.0
 40
1.0
 40
1.0
 10
165.861945728615
 20
220.5019489843236
 30
0.0
 10
166.0597572705505
 20
220.6359314659381
 30
0.0
 10
166.4696663500722
 20
220.9135726752087
 30
0.0
 10
166.9389298747939
 20
221.5241671271667
 30
0.0
 10
167.2488467211701
 20
222.2527883396195
 30
0.0
 10
167.3470440259692
 20
223.0410382645984
 30
0.0
 10
167.2365365310869
 20
223.798784347614
 30
0.0
 10
166.9489760368262
 20
224.4781777866864
 30
0.0
 10
166.5043843065554
 20
225.0669091993772
 30
0.0
 10
165.9034106964868
 20
225.5414845387616
 30
0.0
 10
165.1716675845244
 20
225.8505681407119
 30
0.0
 10
164.385704681616
 20
225.9464828849157
 30
0.0
 10
163.6222826124497
 20
225.8453859774163
 30
0.0
 10
163.1768837323231
 20
225.629214905944
 30
0.0
 10
162.961945728615
 20
225.5248963262733
 30
0.0
  0
SPLINE
  5
2BF
330
1F
100
AcDbEntity
  8
0
  6
PHANTOM
 62
     8
370
    18
100
AcDbSpline
210
0.0
220
0.0
230
1.0
 70
    24
 71
     3
 72
    11
 73
     7
 74
     0
 42
0.00000001
 43
0.00000001
 40
0.0
 40
0.0
 40
0.0
 40
0.0
 40
0.2702613318128834
 40
0.562429389642087
 40
0.7897364218595306
 40
0.9999999999999999
 40
0.9999999999999999
 40
0.9999999999999999
 40
0.9999999999999999
 10
162.711945728615
 20
225.9579090281655
 30
0.0
 10
162.7163530541982
 20
225.9502753163301
 30
0.0
 10
162.7255249524532
 20
225.9343891225504
 30
0.0
 10
162.7931495987029
 20
225.8172597994021
 30
0.0
 10
162.877250584511
 20
225.6715926190158
 30
0.0
 10
162.934456743985
 20
225.572508644301
 30
0.0
 10
162.961945728615
 20
225.5248963262733
 30
0.0
  0
SPLINE
  5
2C0
330
1F
100
AcDbEntity
  8
0
  6
PHANTOM
 62
     8
370
    18
100
AcDbSpline
210
0.0
220
0.0
230
1.0
 70
     8
 71
     3
 72
    11
 73
     7
 74
     0
 42
0.00000001
 43
0.00000001
 40
0.0
 40
0.0
 40
0.0
 40
0.0
 40
0.2519805309852638
 40
0.5000202912600139
 40
0.7481632336563523
 40
1.0
 40
1.0
 40
1.0
 40
1.0
 10
166.8850219399683
 20
227.2969163043524
 30
0.0
 10
166.4771901039674
 20
227.2881476254187
 30
0.0
 10
165.6679045904204
 20
227.2707474025634
 30
0.0
 10
164.4117730154121
 20
227.2596867808319
 30
0.0
 10
163.1569789700382
 20
227.2718800966325
 30
0.0
 10
162.3469009395656
 20
227.2885298991555
 30
0.0
 10
161.9388695172617
 20
227.2969163043524
 30
0.0
  0
SPLINE
  5
2C1
330
1F
100
AcDbEntity
  8
0
  6
PHANTOM
 62
     8
370
    18
100
AcDbSpline
210
0.0
220
0.0
230
1.0
 70
     8
 71
     3
 72
    11
 73
     7
 74
     0
 42
0.00000001
 43
0.00000001
 40
0.0
 40
0.0
 40
0.0
 40
0.0
 40
0.2519805309852625
 40
0.500020291260012
 40
0.7481632336563503
 40
1.0
 40
1.0
 40
1.0
 40
1.0
 10
166.8850219399683
 20
218.7299290062446
 30
0.0
 10
167.0813439592546
 20
219.0875060761602
 30
0.0
 10
167.4709176810039
 20
219.7970680012343
 30
0.0
 10
168.089404689107
 20
220.890440166553
 30
0.0
 10
168.7273614330336
 20
221.9710270284639
 30
0.0
 10
169.1468196002229
 20
222.6642502806394
 30
0.0
 10
169.3580981513216
 20
223.0134226552985
 30
0.0
  0
SPLINE
  5
2C2
330
1F
100
AcDbEntity
  8
0
  6
PHANTOM
 62
     8
370
    18
100
AcDbSpline
210
0.0
220
0.0
230
1.0
 70
     8
 71
     3
 72
    11
 73
     7
 74
     0
 42
0.00000001
 43
0.00000001
 40
0.0
 40
0.0
 40
0.0
 40
0.0
 40
0.2519805309852639
 40
0.5000202912600139
 40
0.7481632336563524
 40
1.0
 40
1.0
 40
1.0
 40
1.0
 10
161.9388695172617
 20
227.2969163043524
 30
0.0
 10
161.7425474979754
 20
226.9393392344367
 30
0.0
 10
161.3529737762261
 20
226.2297773093626
 30
0.0
 10
160.734486768123
 20
225.1364051440439
 30
0.0
 10
160.0965300241964
 20
224.055818282133
 30
0.0
 10
159.6770718570072
 20
223.3625950299575
 30
0.0
 10
159.4657933059084
 20
223.0134226552985
 30
0.0
  0
SPLINE
  5
2C3
330
1F
100
AcDbEntity
  8
0
  6
PHANTOM
 62
     8
370
    18
100
AcDbSpline
210
0.0
220
0.0
230
1.0
 70
     8
 71
     3
 72
    11
 73
     7
 74
     0
 42
0.00000001
 43
0.00000001
 40
0.0
 40
0.0
 40
0.0
 40
0.0
 40
0.2519805309852629
 40
0.5000202912600126
 40
0.7481632336563508
 40
1.0
 40
1.0
 40
1.0
 40
1.0
 10
161.9388695172617
 20
218.7299290062446
 30
0.0
 10
162.3467013532626
 20
218.7386976851782
 30
0.0
 10
163.1559868668096
 20
218.7560979080335
 30
0.0
 10
164.4121184418179
 20
218.767158529765
 30
0.0
 10
165.6669124871918
 20
218.7549652139644
 30
0.0
 10
166.4769905176645
 20
218.7383154114413
 30
0.0
 10
166.8850219399683
 20
218.7299290062446
 30
0.0
  0
SPLINE
  5
2C4
330
1F
100
AcDbEntity
  8
0
  6
PHANTOM
 62
     8
370
    18
100
AcDbSpline
210
0.0
220
0.0
230
1.0
 70
     8
 71
     3
 72
    11
 73
     7
 74
     0
 42
0.00000001
 43
0.00000001
 40
0.0
 40
0.0
 40
0.0
 40
0.0
 40
0.2519803780325563
 40
0.5000207188848929
 40
0.7481636611739626
 40
1.0
 40
1.0
 40
1.0
 40
1.0
 10
169.3580981513216
 20
223.0134226552985
 30
0.0
 10
169.1465884364515
 20
223.3622320775281
 30
0.0
 10
168.7268762330401
 20
224.0543968382087
 30
0.0
 10
168.0892351195168
 20
225.1367076129517
 30
0.0
 10
167.4723957675997
 20
226.2294850219277
 30
0.0
 10
167.0817750671307
 20
226.9393579097352
 30
0.0
 10
166.8850219399683
 20
227.2969163043524
 30
0.0
  0
SPLINE
  5
2C5
330
1F
100
AcDbEntity
  8
0
  6
PHANTOM
 62
     8
370
    18
100
AcDbSpline
210
0.0
220
0.0
230
1.0
 70
     8
 71
     3
 72
    11
 73
     7
 74
     0
 42
0.00000001
 43
0.00000001
 40
0.0
 40
0.0
 40
0.0
 40
0.0
 40
0.2519803780325575
 40
0.5000207188848935
 40
0.7481636611739628
 40
1.0
 40
1.0
 40
1.0
 40
1.0
 10
159.4657933059084
 20
223.0134226552985
 30
0.0
 10
159.6773030207785
 20
222.6646132330688
 30
0.0
 10
160.09701522419
 20
221.9724484723882
 30
0.0
 10
160.7346563377132
 20
220.8901376976452
 30
0.0
 10
161.3514956896304
 20
219.7973602886692
 30
0.0
 10
161.7421163900994
 20
219.0874874008616
 30
0.0
 10
161.9388695172617
 20
218.7299290062446
 30
0.0
  0
SPLINE
  5
2C6
330
1F
100
AcDbEntity
  8
0
  6
PHANTOM
 62
     8
370
    18
100
AcDbSpline
210
0.0
220
0.0
230
1.0
 70
     8
 71
     3
 72
    23
 73
    19
 74
     0
 42
0.00000001
 43
0.00000001
 40
0.0
 40
0.0
 40
0.0
 40
0.0
 40
0.0582580162109017
 40
0.1200056648645963
 40
0.1843204068813872
 40
0.2499999999999993
 40
0.3156795931186113
 40
0.3799943351354023
 40
0.441741983789097
 40
0.5000000000000001
 40
0.5582580162109008
 40
0.6200056648645956
 40
0.684320406881387
 40
0.7499999999999993
 40
0.8156795931186117
 40
0.8799943351354029
 40
0.9417419837890979
 40
1.0
 40
1.0
 40
1.0
 40
1.0
 10
167.736945728615
 20
217.2543537201319
 30
0.0
 10
168.0774135522371
 20
217.4758347466118
 30
0.0
 10
168.7787430892892
 20
217.932063426651
 30
0.0
 10
169.6670973900237
 20
218.8721748287409
 30
0.0
 10
170.3924722380414
 20
219.9993803586131
 30
0.0
 10
170.8809978311738
 20
221.2802138104872
 30
0.0
 10
171.0975483394811
 20
222.6329191161093
 30
0.0
 10
171.0362969077762
 20
223.973810096553
 30
0.0
 10
170.7251862464397
 20
225.2252964805634
 30
0.0
 10
170.2032342365983
 20
226.3570246343374
 30
0.0
 10
169.4841049101727
 20
227.3749124113034
 30
0.0
 10
168.5558412397976
 20
228.2700853394142
 30
0.0
 10
167.4252213028804
 20
228.9935761255106
 30
0.0
 10
166.1454688902241
 20
229.4823905369251
 30
0.0
 10
164.7919717863179
 20
229.6997316888106
 30
0.0
 10
163.4530957381535
 20
229.6351414080972
 30
0.0
 10
162.1947582311889
 20
229.3358597171449
 30
0.0
 10
161.4489878358138
 20
228.956604861653
 30
0.0
 10
161.086945728615
 20
228.772491590465
 30
0.0
  0
SPLINE
  5
2C7
330
1F
100
AcDbEntity
  8
0
  6
PHANTOM
 62
     8
370
    18
100
AcDbSpline
210
0.0
220
0.0
230
1.0
 70
     8
 71
     3
 72
    23
 73
    19
 74
     0
 42
0.00000001
 43
0.00000001
 40
0.0
 40
0.0
 40
0.0
 40
0.0
 40
0.058258016210902
 40
0.1200056648645968
 40
0.184320406881388
 40
0.2500000000000002
 40
0.3156795931186123
 40
0.3799943351354034
 40
0.4417419837890981
 40
0.4999999999999999
 40
0.558258016210902
 40
0.6200056648645967
 40
0.6843204068813877
 40
0.7500000000000001
 40
0.8156795931186123
 40
0.8799943351354033
 40
0.9417419837890979
 40
1.0
 40
1.0
 40
1.0
 40
1.0
 10
161.086945728615
 20
228.772491590465
 30
0.0
 10
160.746477904993
 20
228.5510105639852
 30
0.0
 10
160.0451483679408
 20
228.0947818839459
 30
0.0
 10
159.1567940672063
 20
227.154670481856
 30
0.0
 10
158.4314192191887
 20
226.0274649519837
 30
0.0
 10
157.9428936260562
 20
224.7466315001097
 30
0.0
 10
157.726343117749
 20
223.3939261944876
 30
0.0
 10
157.7875945494538
 20
222.0530352140439
 30
0.0
 10
158.0987052107903
 20
220.8015488300335
 30
0.0
 10
158.6206572206318
 20
219.6698206762595
 30
0.0
 10
159.3397865470573
 20
218.6519328992935
 30
0.0
 10
160.2680502174325
 20
217.7567599711827
 30
0.0
 10
161.3986701543497
 20
217.0332691850863
 30
0.0
 10
162.678422567006
 20
216.5444547736718
 30
0.0
 10
164.0319196709121
 20
216.3271136217863
 30
0.0
 10
165.3707957190766
 20
216.3917039024997
 30
0.0
 10
166.6291332260411
 20
216.690985593452
 30
0.0
 10
167.3749036214162
 20
217.0702404489439
 30
0.0
 10
167.736945728615
 20
217.2543537201319
 30
0.0
  0
LINE
  5
2C8
330
1F
100
AcDbEntity
  8
0
  6
PHANTOM
 62
     8
370
    18
100
AcDbLine
 10
161.9388695173
 20
227.2969163044
 30
0.0
 11
161.0869457286
 21
228.7724915905
 31
0.0
  0
SPLINE
  5
2C9
330
1F
100
AcDbEntity
  8
0
  6
PHANTOM
 62
     8
370
    18
100
AcDbSpline
210
0.0
220
0.0
230
1.0
 70
    24
 71
     3
 72
    10
 73
     6
 74
     0
 42
0.00000001
 43
0.00000001
 40
0.0
 40
0.0
 40
0.0
 40
0.0
 40
0.2765306019330318
 40
0.562668270406294
 40
1.0
 40
1.0
 40
1.0
 40
1.0
 10
161.086945728615
 20
228.772491590465
 30
0.0
 10
161.0790522471282
 20
228.7861635014487
 30
0.0
 10
161.0629910533775
 20
228.8139823050552
 30
0.0
 10
161.0423972274388
 20
228.8496518579032
 30
0.0
 10
161.0389995803495
 20
228.855536755288
 30
0.0
 10
161.036945728615
 20
228.8590941308434
 30
0.0
  0
LINE
  5
2CA
330
1F
100
AcDbEntity
  8
0
  6
PHANTOM
 62
     8
370
    18
100
AcDbLine
 10
67.4119457286
 20
227.7193050082
 30
0.0
 11
65.9685945346
 21
227.7193050082
 31
0.0
  0
LINE
  5
2CB
330
1F
100
AcDbEntity
  8
0
  6
PHANTOM
 62
     8
370
    18
100
AcDbLine
 10
67.4119457286
 20
218.3075403024
 30
0.0
 11
65.9685945346
 21
218.3075403024
 31
0.0
  0
LINE
  5
2CC
330
1F
100
AcDbEntity
  8
0
  6
PHANTOM
 62
     8
370
    18
100
AcDbLine
 10
131.9119457286
 20
218.0988233149
 30
0.0
 11
67.4119457286
 21
219.1673044217
 31
0.0
  0
LINE
  5
2CD
330
1F
100
AcDbEntity
  8
0
  6
PHANTOM
 62
     8
370
    18
100
AcDbLine
 10
131.9119457286
 20
227.9280219957
 30
0.0
 11
67.4119457286
 21
226.8595408889
 31
0.0
  0
LINE
  5
2CE
330
1F
100
AcDbEntity
  8
0
  6
PHANTOM
 62
     8
370
    18
100
AcDbLine
 10
131.9119457286
 20
228.9179116793
 30
0.0
 11
67.4119457286
 21
227.7193050082
 31
0.0
  0
LINE
  5
2CF
330
1F
100
AcDbEntity
  8
0
  6
PHANTOM
 62
     8
370
    18
100
AcDbLine
 10
131.9119457286
 20
217.1089336313
 30
0.0
 11
67.4119457286
 21
218.3075403024
 31
0.0
  0
LINE
  5
2D0
330
1F
100
AcDbEntity
  8
0
  6
PHANTOM
 62
     8
370
    18
100
AcDbLine
 10
151.9119457286
 20
216.3467559886
 30
0.0
 11
131.9119457286
 21
218.0988233149
 31
0.0
  0
LINE
  5
2D1
330
1F
100
AcDbEntity
  8
0
  6
PHANTOM
 62
     8
370
    18
100
AcDbLine
 10
151.9119457286
 20
229.680089322
 30
0.0
 11
131.9119457286
 21
227.9280219957
 31
0.0
  0
LINE
  5
2D2
330
1F
100
AcDbEntity
  8
0
  6
PHANTOM
 62
     8
370
    18
100
AcDbLine
 10
151.9119457286
 20
230.5134226553
 30
0.0
 11
131.9119457286
 21
228.9179116793
 31
0.0
  0
LINE
  5
2D3
330
1F
100
AcDbEntity
  8
0
  6
PHANTOM
 62
     8
370
    18
100
AcDbLine
 10
151.9119457286
 20
215.5134226553
 30
0.0
 11
131.9119457286
 21
217.1089336313
 31
0.0
  0
LINE
  5
2D4
330
1F
100
AcDbEntity
  8
0
  6
PHANTOM
 62
     8
370
    18
100
AcDbLine
 10
156.8828667501
 20
215.0239306603
 30
0.0
 11
151.9119457286
 21
216.3467559886
 31
0.0
  0
LINE
  5
2D5
330
1F
100
AcDbEntity
  8
0
  6
PHANTOM
 62
     8
370
    18
100
AcDbLine
 10
156.9284076615
 20
231.0150336663
 30
0.0
 11
151.9119457286
 21
229.680089322
 31
0.0
  0
SPLINE
  5
2D6
330
1F
100
AcDbEntity
  8
0
  6
PHANTOM
 62
     8
370
    18
100
AcDbSpline
210
0.0
220
0.0
230
1.0
 70
    24
 71
     3
 72
     9
 73
     5
 74
     0
 42
0.00000001
 43
0.00000001
 40
0.0
 40
0.0
 40
0.0
 40
0.0
 40
0.5256915871068343
 40
1.0
 40
1.0
 40
1.0
 40
1.0
 10
158.5295927874386
 20
212.2618530347141
 30
0.0
 10
158.5295927874386
 20
212.1768338750313
 30
0.0
 10
158.5295927874386
 20
212.0151056644835
 30
0.0
 10
158.5295927874386
 20
211.9951339808091
 30
0.0
 10
158.5295927874386
 20
211.9856612432227
 30
0.0
  0
LINE
  5
2D7
330
1F
100
AcDbEntity
  8
0
  6
PHANTOM
 62
     8
370
    18
100
AcDbLine
 10
158.5295927874
 20
212.5540764102
 30
0.0
 11
158.5280642074
 21
212.2593385095
 31
0.0
  0
LINE
  5
2D8
330
1F
100
AcDbEntity
  8
0
  6
PHANTOM
 62
     8
370
    18
100
AcDbLine
 10
158.5295927874
 20
233.7681197699
 30
0.0
 11
158.5295927874
 21
233.4727689004
 31
0.0
  0
SPLINE
  5
2D9
330
1F
100
AcDbEntity
  8
0
  6
PHANTOM
 62
     8
370
    18
100
AcDbSpline
210
0.0
220
0.0
230
1.0
 70
    24
 71
     3
 72
     9
 73
     5
 74
     0
 42
0.00000001
 43
0.00000001
 40
0.0
 40
0.0
 40
0.0
 40
0.0
 40
0.4728306869979926
 40
1.0
 40
1.0
 40
1.0
 40
1.0
 10
158.5295927874386
 20
234.0427490549473
 30
0.0
 10
158.5295927874386
 20
234.0321070036569
 30
0.0
 10
158.5295927874386
 20
234.0095998957576
 30
0.0
 10
158.5295927874386
 20
233.8514791156307
 30
0.0
 10
158.5295927874386
 20
233.7681226925999
 30
0.0
  0
LINE
  5
2DA
330
1F
100
AcDbEntity
  8
0
  6
PHANTOM
 62
     8
370
    18
100
AcDbLine
 10
140.4119457286
 20
239.5134226553
 30
0.0
 11
188.4119457286
 21
239.5134226553
 31
0.0
  0
LINE
  5
2DB
330
1F
100
AcDbEntity
  8
0
  6
PHANTOM
 62
     8
370
    18
100
AcDbLine
 10
188.4119457286
 20
206.5134226553
 30
0.0
 11
140.4119457286
 21
206.5134226553
 31
0.0
  0
LINE
  5
2DC
330
1F
100
AcDbEntity
  8
0
  6
Continuous
 62
     7
370
    25
100
AcDbLine
 10
301.3776857491
 20
95.8812698621
 30
0.0
 11
301.3776857491
 21
93.3812698621
 31
0.0
  0
LINE
  5
2DD
330
1F
100
AcDbEntity
  8
0
  6
Continuous
 62
     7
370
    25
100
AcDbLine
 10
305.6276857491
 20
96.8657998083
 30
0.0
 11
305.6276857491
 21
95.9812698621
 31
0.0
  0
LINE
  5
2DE
330
1F
100
AcDbEntity
  8
0
  6
Continuous
 62
     7
370
    25
100
AcDbLine
 10
319.1276857491
 20
95.9812698621
 30
0.0
 11
319.1276857491
 21
96.8657998083
 31
0.0
  0
ARC
  5
2DF
330
1F
100
AcDbEntity
  8
0
  6
Continuous
 62
     7
370
    25
100
AcDbCircle
 10
305.8276857491
 20
96.8657998083
 30
0.0
 40
0.1999999999999665
100
AcDbArc
 50
120.0
 51
178.6951043494
  0
ARC
  5
2E0
330
1F
100
AcDbEntity
  8
0
  6
Continuous
 62
     7
370
    25
100
AcDbCircle
 10
318.9276857491
 20
96.8657998083
 30
0.0
 40
0.1999999999999886
100
AcDbArc
 50
0.0
 51
60.0
  0
LINE
  5
2E1
330
1F
100
AcDbEntity
  8
0
  6
Continuous
 62
     7
370
    25
100
AcDbLine
 10
319.0277290504
 20
97.038979889
 30
0.0
 11
316.6280685484
 21
98.4244245258
 31
0.0
  0
LINE
  5
2E2
330
1F
100
AcDbEntity
  8
0
  6
Continuous
 62
     7
370
    25
100
AcDbLine
 10
308.1273029498
 20
98.4244245258
 30
0.0
 11
305.7276424478
 21
97.038979889
 31
0.0
  0
LWPOLYLINE
  5
2E3
330
1F
100
AcDbEntity
  8
0
  6
Continuous
 62
     7
370
    25
100
AcDbPolyline
 90
        3
 70
   128
 43
0.0
 10
309.8646495778
 20
95.9825565606
 10
309.8713345465
 20
95.9522672165
 10
309.8776019527
 20
95.8730826698
  0
LWPOLYLINE
  5
2E4
330
1F
100
AcDbEntity
  8
0
  6
Continuous
 62
     7
370
    25
100
AcDbPolyline
 90
        3
 70
   128
 43
0.0
 10
314.8777695455
 20
95.8894570544
 10
314.8868321709
 20
95.9663197325
 10
314.8908767327
 20
95.9831461835
  0
SPLINE
  5
2E5
330
1F
100
AcDbEntity
  8
0
  6
Continuous
 62
     7
370
    25
100
AcDbSpline
210
0.0
220
0.0
230
1.0
 70
     8
 71
     3
 72
    11
 73
     7
 74
     0
 42
0.00000001
 43
0.00000001
 40
0.0
 40
0.0
 40
0.0
 40
0.0
 40
0.2467930846929424
 40
0.4997776482931227
 40
0.7532316419084986
 40
1.0
 40
1.0
 40
1.0
 40
1.0
 10
316.6277837642274
 20
98.42406029457172
 30
0.0
 10
316.5899322887751
 20
98.44634310330699
 30
0.0
 10
316.5132797301773
 20
98.49146774592383
 30
0.0
 10
316.4251886604463
 20
98.59573597636643
 30
0.0
 10
316.3788121507547
 20
98.72413154095017
 30
0.0
 10
316.3780578558429
 20
98.81315599083551
 30
0.0
 10
316.3776857490863
 20
98.85707329531668
 30
0.0
  0
SPLINE
  5
2E6
330
1F
100
AcDbEntity
  8
0
  6
Continuous
 62
     7
370
    25
100
AcDbSpline
210
0.0
220
0.0
230
1.0
 70
     8
 71
     3
 72
    11
 73
     7
 74
     0
 42
0.00000001
 43
0.00000001
 40
0.0
 40
0.0
 40
0.0
 40
0.0
 40
0.2467683580915196
 40
0.5002223517068942
 40
0.7532069153070678
 40
0.9999999999999999
 40
0.9999999999999999
 40
0.9999999999999999
 40
0.9999999999999999
 10
308.3776857490863
 20
98.85707329531668
 30
0.0
 10
308.3773136423296
 20
98.81315599083551
 30
0.0
 10
308.3765593474179
 20
98.72413154095018
 30
0.0
 10
308.3301828377263
 20
98.59573597636643
 30
0.0
 10
308.2420917679953
 20
98.49146774592386
 30
0.0
 10
308.1654392093974
 20
98.44634310330699
 30
0.0
 10
308.1275877339451
 20
98.4240602945717
 30
0.0
  0
ARC
  5
2E7
330
1F
100
AcDbEntity
  8
0
  6
Continuous
 62
     7
370
    25
100
AcDbCircle
 10
304.3776857491
 20
88.8812698621
 30
0.0
 40
20.50000000000016
100
AcDbArc
 50
347.3180477548
 51
12.6827527299
  0
ARC
  5
2E8
330
1F
100
AcDbEntity
  8
0
  6
Continuous
 62
     7
370
    25
100
AcDbCircle
 10
320.3776857491
 20
88.8812698621
 30
0.0
 40
20.50000000000025
100
AcDbArc
 50
167.3180477548
 51
192.6827527299
  0
SPLINE
  5
2E9
330
1F
100
AcDbEntity
  8
0
  6
Continuous
 62
     7
370
    25
100
AcDbSpline
210
0.0
220
0.0
230
1.0
 70
     8
 71
     3
 72
    19
 73
    15
 74
     0
 42
0.00000001
 43
0.00000001
 40
0.0
 40
0.0
 40
0.0
 40
0.0
 40
0.1104797095181966
 40
0.2012351552188429
 40
0.2722694982581366
 40
0.3247298019545408
 40
0.3730959082063328
 40
0.4689292010386525
 40
0.5696483310569641
 40
0.6540874840784004
 40
0.7456577068672038
 40
0.8436081109529636
 40
0.9442454001567129
 40
1.0
 40
1.0
 40
1.0
 40
1.0
 10
305.8785082959236
 20
111.4444649826862
 30
0.0
 10
305.852501234382
 20
110.8602030147043
 30
0.0
 10
305.8051302276248
 20
109.7959890669302
 30
0.0
 10
305.7410354356119
 20
108.3562036530672
 30
0.0
 10
305.6905894790879
 20
107.2232906609023
 30
0.0
 10
305.6501125691124
 20
106.3145158757642
 30
0.0
 10
305.6037981083991
 20
105.2748863354134
 30
0.0
 10
305.5460959947079
 20
103.9802867243144
 30
0.0
 10
305.4799611770457
 20
102.4970632108551
 30
0.0
 10
305.4149384628717
 20
101.0408713513662
 30
0.0
 10
305.3509203120181
 20
99.60336068196908
 30
0.0
 10
305.2818622833894
 20
98.07823117663777
 30
0.0
 10
305.2309354130787
 20
96.83961679610267
 30
0.0
 10
305.2112063314672
 20
96.13313474141152
 30
0.0
 10
305.2041728014214
 20
95.88126986212791
 30
0.0
  0
SPLINE
  5
2EA
330
1F
100
AcDbEntity
  8
0
  6
Continuous
 62
     7
370
    25
100
AcDbSpline
210
0.0
220
0.0
230
1.0
 70
     8
 71
     3
 72
    19
 73
    15
 74
     0
 42
0.00000001
 43
0.00000001
 40
0.0
 40
0.0
 40
0.0
 40
0.0
 40
0.0580340239017584
 40
0.1180805690765064
 40
0.1758805957037915
 40
0.2314326466572539
 40
0.2847350154565578
 40
0.3523021252126188
 40
0.4222728948862154
 40
0.5072125225579389
 40
0.6074534831932676
 40
0.7229974003094516
 40
0.8538457768688067
 40
1.0
 40
1.0
 40
1.0
 40
1.0
 10
319.5719954189638
 20
95.88126986212791
 30
0.0
 10
319.5585399848963
 20
96.17870957559138
 30
0.0
 10
319.5311625051864
 20
96.78390370604106
 30
0.0
 10
319.490613478299
 20
97.6874243278214
 30
0.0
 10
319.4506532026137
 20
98.5798079911379
 30
0.0
 10
319.4122299421787
 20
99.43930229777332
 30
0.0
 10
319.3714927059049
 20
100.3511446652465
 30
0.0
 10
319.3273194229009
 20
101.3403080172592
 30
0.0
 10
319.2756813383223
 20
102.4971185975804
 30
0.0
 10
319.2164702571978
 20
103.8247886305216
 30
0.0
 10
319.1466728474253
 20
105.3909407911337
 30
0.0
 10
319.0662232149633
 20
107.197178397951
 30
0.0
 10
318.975113025823
 20
109.2435619183326
 30
0.0
 10
318.9108010646576
 20
110.6882396966654
 30
0.0
 10
318.8768682974826
 20
111.4504915982829
 30
0.0
  0
LWPOLYLINE
  5
2EB
330
1F
100
AcDbEntity
  8
0
  6
Continuous
 62
     7
370
    25
100
AcDbPolyline
 90
        3
 70
   128
 43
0.0
 10
306.8839576309
 20
122.5205840191
 10
306.4313296666
 20
117.5388592952
 10
305.8837053412
 20
111.5122574737
  0
LWPOLYLINE
  5
2EC
330
1F
100
AcDbEntity
  8
0
  6
Continuous
 62
     7
370
    25
100
AcDbPolyline
 90
        3
 70
   128
 43
0.0
 10
318.8716212436
 20
111.5109257605
 10
318.4190528804
 20
116.4905248505
 10
317.8713540757
 20
122.5176495192
  0
ARC
  5
2ED
330
1F
100
AcDbEntity
  8
0
  6
Continuous
 62
     7
370
    25
100
AcDbCircle
 10
312.3776857491
 20
122.3812698621
 30
0.0
 40
9.000000000000037
100
AcDbArc
 50
179.9944730243
 51
227.0208832377
  0
ARC
  5
2EE
330
1F
100
AcDbEntity
  8
0
  6
Continuous
 62
     7
370
    25
100
AcDbCircle
 10
312.3776857491
 20
122.3812698621
 30
0.0
 40
9.000000000000057
100
AcDbArc
 50
312.8189261343
 51
0.0
  0
ARC
  5
2EF
330
1F
100
AcDbEntity
  8
0
  6
Continuous
 62
     7
370
    25
100
AcDbCircle
 10
312.3776857491
 20
122.3812698621
 30
0.0
 40
9.000000000000057
100
AcDbArc
 50
0.0
 51
179.9944730243
  0
LINE
  5
2F0
330
1F
100
AcDbEntity
  8
0
  6
Continuous
 62
     7
370
    25
100
AcDbLine
 10
325.3776857491
 20
80.8812698621
 30
0.0
 11
325.3776857491
 21
83.8812698621
 31
0.0
  0
ARC
  5
2F1
330
1F
100
AcDbEntity
  8
0
  6
Continuous
 62
     7
370
    25
100
AcDbCircle
 10
318.9776857491
 20
80.4812698621
 30
0.0
 40
0.4000000000000341
100
AcDbArc
 50
0.0
 51
90.0
  0
LINE
  5
2F2
330
1F
100
AcDbEntity
  8
0
  6
Continuous
 62
     7
370
    25
100
AcDbLine
 10
305.3776857491
 20
80.4812698621
 30
0.0
 11
305.3776857491
 21
80.3812698621
 31
0.0
  0
LINE
  5
2F3
330
1F
100
AcDbEntity
  8
0
  6
Continuous
 62
     7
370
    25
100
AcDbLine
 10
319.3776857491
 20
80.3812698621
 30
0.0
 11
319.3776857491
 21
80.4812698621
 31
0.0
  0
LINE
  5
2F4
330
1F
100
AcDbEntity
  8
0
  6
Continuous
 62
     7
370
    25
100
AcDbLine
 10
299.8994248795
 20
83.8812698621
 30
0.0
 11
299.8994248795
 21
80.8812698621
 31
0.0
  0
LINE
  5
2F5
330
1F
100
AcDbEntity
  8
0
  6
Continuous
 62
     7
370
    25
100
AcDbLine
 10
298.5022547204
 20
82.8812698621
 30
0.0
 11
298.0922547204
 21
80.9312698621
 31
0.0
  0
LINE
  5
2F6
330
1F
100
AcDbEntity
  8
0
  6
Continuous
 62
     7
370
    25
100
AcDbLine
 10
303.0922547204
 20
80.3812698621
 30
0.0
 11
303.0922547204
 21
80.8812698621
 31
0.0
  0
LINE
  5
2F7
330
1F
100
AcDbEntity
  8
0
  6
Continuous
 62
     7
370
    25
100
AcDbLine
 10
298.0922547204
 20
80.9312698621
 30
0.0
 11
298.0922547204
 21
80.3812698621
 31
0.0
  0
ARC
  5
2F8
330
1F
100
AcDbEntity
  8
0
  6
Continuous
 62
     7
370
    25
100
AcDbCircle
 10
300.5922547204
 20
78.7631698621
 30
0.0
 40
4.618099999999987
100
AcDbArc
 50
98.6283676724
 51
116.9085043614
  0
LINE
  5
2F9
330
1F
100
AcDbEntity
  8
0
  6
Continuous
 62
     7
370
    25
100
AcDbLine
 10
318.0776857491
 20
83.8812698621
 30
0.0
 11
318.0776857491
 21
84.0812698621
 31
0.0
  0
LINE
  5
2FA
330
1F
100
AcDbEntity
  8
0
  6
Continuous
 62
     7
370
    25
100
AcDbLine
 10
306.6776857491
 20
84.0812698621
 30
0.0
 11
306.6776857491
 21
83.8812698621
 31
0.0
  0
ARC
  5
2FB
330
1F
100
AcDbEntity
  8
0
  6
Continuous
 62
     7
370
    25
100
AcDbCircle
 10
306.5776857491
 20
84.4812698621
 30
0.0
 40
0.3999999999999918
100
AcDbArc
 50
194.7552645731
 51
270.0
  0
ARC
  5
2FC
330
1F
100
AcDbEntity
  8
0
  6
Continuous
 62
     7
370
    25
100
AcDbCircle
 10
318.1776857491
 20
84.4812698621
 30
0.0
 40
0.4000000000000256
100
AcDbArc
 50
270.0
 51
345.3343843008
  0
LINE
  5
2FD
330
1F
100
AcDbEntity
  8
0
  6
Continuous
 62
     7
370
    25
100
AcDbLine
 10
306.5776857491
 20
84.0812698621
 30
0.0
 11
318.1776857491
 21
84.0812698621
 31
0.0
  0
SPLINE
  5
2FE
330
1F
100
AcDbEntity
  8
0
  6
Continuous
 62
     7
370
    25
100
AcDbSpline
210
0.0
220
0.0
230
1.0
 70
    24
 71
     3
 72
    15
 73
    11
 74
     0
 42
0.00000001
 43
0.00000001
 40
0.0
 40
0.0
 40
0.0
 40
0.0
 40
0.1166861874920779
 40
0.2402176277976582
 40
0.36877458467433
 40
0.4999999999999994
 40
0.6312254153256692
 40
0.759782372202341
 40
0.8833138125079216
 40
1.0
 40
1.0
 40
1.0
 40
1.0
 10
312.2044806683294
 20
95.88126986212791
 30
0.0
 10
311.5399544328044
 20
95.88126986212791
 30
0.0
 10
310.1719183409751
 20
95.8812698621279
 30
0.0
 10
308.1500736491646
 20
95.88126986212791
 30
0.0
 10
306.2107667850057
 20
95.88126986212791
 30
0.0
 10
304.4842759437175
 20
95.88126986212791
 30
0.0
 10
303.0810021771874
 20
95.88126986212792
 30
0.0
 10
302.0856961717431
 20
95.88126986212791
 30
0.0
 10
301.4849630784582
 20
95.88126986212791
 30
0.0
 10
301.4127590154188
 20
95.88126986212791
 30
0.0
 10
301.3776857490863
 20
95.88126986212791
 30
0.0
  0
SPLINE
  5
2FF
330
1F
100
AcDbEntity
  8
0
  6
Continuous
 62
     7
370
    25
100
AcDbSpline
210
0.0
220
0.0
230
1.0
 70
    24
 71
     3
 72
     9
 73
     5
 74
     0
 42
0.00000001
 43
0.00000001
 40
0.0
 40
0.0
 40
0.0
 40
0.0
 40
0.5600121428755168
 40
1.0
 40
1.0
 40
1.0
 40
1.0
 10
312.3776857490863
 20
95.5812698621279
 30
0.0
 10
312.3453530505026
 20
95.63727173882059
 30
0.0
 10
312.2876173406703
 20
95.73727292166129
 30
0.0
 10
312.2298830535861
 20
95.83727164022976
 30
0.0
 10
312.2044806683294
 20
95.88126986212791
 30
0.0
  0
SPLINE
  5
300
330
1F
100
AcDbEntity
  8
0
  6
Continuous
 62
     7
370
    25
100
AcDbSpline
210
0.0
220
0.0
230
1.0
 70
    24
 71
     3
 72
     9
 73
     5
 74
     0
 42
0.00000001
 43
0.00000001
 40
0.0
 40
0.0
 40
0.0
 40
0.0
 40
0.5599892317495132
 40
0.9999999999999999
 40
0.9999999999999999
 40
0.9999999999999999
 40
0.9999999999999999
 10
312.5508908298432
 20
95.88126986212791
 30
0.0
 10
312.518560175605
 20
95.82527152634542
 30
0.0
 10
312.4608257542891
 20
95.7252725752807
 30
0.0
 10
312.4030900713096
 20
95.62527143895049
 30
0.0
 10
312.3776857490863
 20
95.58126986212791
 30
0.0
  0
SPLINE
  5
301
330
1F
100
AcDbEntity
  8
0
  6
Continuous
 62
     7
370
    25
100
AcDbSpline
210
0.0
220
0.0
230
1.0
 70
    24
 71
     3
 72
    16
 73
    12
 74
     0
 42
0.00000001
 43
0.00000001
 40
0.0
 40
0.0
 40
0.0
 40
0.0
 40
0.10419971973968
 40
0.2140295189846907
 40
0.3282478159868175
 40
0.4452432110273845
 40
0.5631474462051599
 40
0.6779433660941541
 40
0.7899685176331017
 40
0.8977094860753314
 40
1.0
 40
1.0
 40
1.0
 40
1.0
 10
323.3776857490863
 20
95.88126986212791
 30
0.0
 10
323.3497365682308
 20
95.88126986212791
 30
0.0
 10
323.2923280670423
 20
95.88126986212792
 30
0.0
 10
322.8147748862253
 20
95.88126986212792
 30
0.0
 10
322.0208232407167
 20
95.88126986212791
 30
0.0
 10
320.8883437702086
 20
95.8812698621279
 30
0.0
 10
319.4745027982549
 20
95.88126986212792
 30
0.0
 10
317.8520417705515
 20
95.88126986212792
 30
0.0
 10
316.110927801948
 20
95.8812698621279
 30
0.0
 10
314.3297856184048
 20
95.88126986212791
 30
0.0
 10
313.1335076941706
 20
95.88126986212791
 30
0.0
 10
312.5508908298432
 20
95.88126986212792
 30
0.0
  0
LINE
  5
302
330
1F
100
AcDbEntity
  8
0
  6
Continuous
 62
     7
370
    25
100
AcDbLine
 10
323.3776857491
 20
95.8812698621
 30
0.0
 11
323.3776857491
 21
93.3812698621
 31
0.0
  0
SPLINE
  5
303
330
1F
100
AcDbEntity
  8
0
  6
Continuous
 62
     7
370
    25
100
AcDbSpline
210
0.0
220
0.0
230
1.0
 70
     8
 71
     3
 72
     9
 73
     5
 74
     0
 42
0.00000001
 43
0.00000001
 40
0.0
 40
0.0
 40
0.0
 40
0.0
 40
0.5598886773269508
 40
0.9999999999999999
 40
0.9999999999999999
 40
0.9999999999999999
 40
0.9999999999999999
 10
318.9111341449564
 20
96.2803274940808
 30
0.0
 10
318.9805705502368
 20
96.22510980056727
 30
0.0
 10
319.1045887847402
 20
96.12648717119541
 30
0.0
 10
319.120627103433
 20
96.02564961316692
 30
0.0
 10
319.1276857490863
 20
95.9812698621279
 30
0.0
  0
SPLINE
  5
304
330
1F
100
AcDbEntity
  8
0
  6
Continuous
 62
     7
370
    25
100
AcDbSpline
210
0.0
220
0.0
230
1.0
 70
     8
 71
     3
 72
     9
 73
     5
 74
     0
 42
0.00000001
 43
0.00000001
 40
0.0
 40
0.0
 40
0.0
 40
0.0
 40
0.5600038649198178
 40
1.0
 40
1.0
 40
1.0
 40
1.0
 10
318.8976850765375
 20
95.9812698621279
 30
0.0
 10
318.9002223280971
 20
96.03709435830581
 30
0.0
 10
318.9047531031836
 20
96.13678027062697
 30
0.0
 10
318.909184394086
 20
96.2364661100239
 30
0.0
 10
318.9111341449564
 20
96.2803274940808
 30
0.0
  0
SPLINE
  5
305
330
1F
100
AcDbEntity
  8
0
  6
Continuous
 62
     7
370
    25
100
AcDbSpline
210
0.0
220
0.0
230
1.0
 70
     8
 71
     3
 72
     9
 73
     5
 74
     0
 42
0.00000001
 43
0.00000001
 40
0.0
 40
0.0
 40
0.0
 40
0.0
 40
0.5598886773269472
 40
1.0
 40
1.0
 40
1.0
 40
1.0
 10
318.2495448073705
 20
96.2803274940808
 30
0.0
 10
318.3976657288145
 20
96.22510980056727
 30
0.0
 10
318.6622199651159
 20
96.12648717119541
 30
0.0
 10
318.8257247634703
 20
96.02564961316692
 30
0.0
 10
318.8976850765375
 20
95.9812698621279
 30
0.0
  0
SPLINE
  5
306
330
1F
100
AcDbEntity
  8
0
  6
Continuous
 62
     7
370
    25
100
AcDbSpline
210
0.0
220
0.0
230
1.0
 70
     8
 71
     3
 72
     9
 73
     5
 74
     0
 42
0.00000001
 43
0.00000001
 40
0.0
 40
0.0
 40
0.0
 40
0.0
 40
0.5600038649198417
 40
1.0
 40
1.0
 40
1.0
 40
1.0
 10
318.2233572246312
 20
95.9812698621279
 30
0.0
 10
318.2282695838114
 20
96.03709435830582
 30
0.0
 10
318.2370415932348
 20
96.13678027062697
 30
0.0
 10
318.2457244041335
 20
96.23646611002393
 30
0.0
 10
318.2495448073705
 20
96.28032749408081
 30
0.0
  0
SPLINE
  5
307
330
1F
100
AcDbEntity
  8
0
  6
Continuous
 62
     7
370
    25
100
AcDbSpline
210
0.0
220
0.0
230
1.0
 70
     8
 71
     3
 72
     9
 73
     5
 74
     0
 42
0.00000001
 43
0.00000001
 40
0.0
 40
0.0
 40
0.0
 40
0.0
 40
0.559888677326951
 40
1.0
 40
1.0
 40
1.0
 40
1.0
 10
317.1877979786684
 20
96.2803274940808
 30
0.0
 10
317.4045092202609
 20
96.22510980056728
 30
0.0
 10
317.791570524353
 20
96.12648717119541
 30
0.0
 10
318.0913992205657
 20
96.02564961316693
 30
0.0
 10
318.2233572246312
 20
95.9812698621279
 30
0.0
  0
SPLINE
  5
308
330
1F
100
AcDbEntity
  8
0
  6
Continuous
 62
     7
370
    25
100
AcDbSpline
210
0.0
220
0.0
230
1.0
 70
     8
 71
     3
 72
     9
 73
     5
 74
     0
 42
0.00000001
 43
0.00000001
 40
0.0
 40
0.0
 40
0.0
 40
0.0
 40
0.5600038649198171
 40
1.0
 40
1.0
 40
1.0
 40
1.0
 10
317.1506565220955
 20
95.9812698621279
 30
0.0
 10
317.1576092197363
 20
96.0370943583058
 30
0.0
 10
317.1700246655508
 20
96.13678027062694
 30
0.0
 10
317.1823672772319
 20
96.23646611002391
 30
0.0
 10
317.1877979786684
 20
96.2803274940808
 30
0.0
  0
SPLINE
  5
309
330
1F
100
AcDbEntity
  8
0
  6
Continuous
 62
     7
370
    25
100
AcDbSpline
210
0.0
220
0.0
230
1.0
 70
     8
 71
     3
 72
     9
 73
     5
 74
     0
 42
0.00000001
 43
0.00000001
 40
0.0
 40
0.0
 40
0.0
 40
0.0
 40
0.5598886773269495
 40
0.9999999999999999
 40
0.9999999999999999
 40
0.9999999999999999
 40
0.9999999999999999
 10
315.7982499506065
 20
96.2803274940808
 30
0.0
 10
316.0687829993653
 20
96.22510980056728
 30
0.0
 10
316.5519737830234
 20
96.12648717119541
 30
0.0
 10
316.9676935469378
 20
96.02564961316692
 30
0.0
 10
317.1506565220955
 20
95.9812698621279
 30
0.0
  0
SPLINE
  5
30A
330
1F
100
AcDbEntity
  8
0
  6
Continuous
 62
     7
370
    25
100
AcDbSpline
210
0.0
220
0.0
230
1.0
 70
     8
 71
     3
 72
     9
 73
     5
 74
     0
 42
0.00000001
 43
0.00000001
 40
0.0
 40
0.0
 40
0.0
 40
0.0
 40
0.5600038649198408
 40
1.0
 40
1.0
 40
1.0
 40
1.0
 10
315.7526857490863
 20
95.9812698621279
 30
0.0
 10
315.7612049703334
 20
96.03709435830582
 30
0.0
 10
315.7764177604242
 20
96.13678027062697
 30
0.0
 10
315.7915790442988
 20
96.2364661100239
 30
0.0
 10
315.7982499506065
 20
96.2803274940808
 30
0.0
  0
SPLINE
  5
30B
330
1F
100
AcDbEntity
  8
0
  6
Continuous
 62
     7
370
    25
100
AcDbSpline
210
0.0
220
0.0
230
1.0
 70
     8
 71
     3
 72
     9
 73
     5
 74
     0
 42
0.00000001
 43
0.00000001
 40
0.0
 40
0.0
 40
0.0
 40
0.0
 40
0.5598886773269491
 40
1.0
 40
1.0
 40
1.0
 40
1.0
 10
314.1755961249606
 20
96.2803274940808
 30
0.0
 10
314.4815146006899
 20
96.22510980056727
 30
0.0
 10
315.027906210518
 20
96.12648717119541
 30
0.0
 10
315.5311864272328
 20
96.02564961316692
 30
0.0
 10
315.7526857490863
 20
95.9812698621279
 30
0.0
  0
SPLINE
  5
30C
330
1F
100
AcDbEntity
  8
0
  6
Continuous
 62
     7
370
    25
100
AcDbSpline
210
0.0
220
0.0
230
1.0
 70
     8
 71
     3
 72
     9
 73
     5
 74
     0
 42
0.00000001
 43
0.00000001
 40
0.0
 40
0.0
 40
0.0
 40
0.0
 40
0.5600038649198402
 40
1.0
 40
1.0
 40
1.0
 40
1.0
 10
314.1247143035283
 20
95.9812698621279
 30
0.0
 10
314.1342194775323
 20
96.03709435830581
 30
0.0
 10
314.1511928853951
 20
96.13678027062696
 30
0.0
 10
314.1681396250224
 20
96.23646611002391
 30
0.0
 10
314.1755961249606
 20
96.2803274940808
 30
0.0
  0
SPLINE
  5
30D
330
1F
100
AcDbEntity
  8
0
  6
Continuous
 62
     7
370
    25
100
AcDbSpline
210
0.0
220
0.0
230
1.0
 70
     8
 71
     3
 72
     9
 73
     5
 74
     0
 42
0.00000001
 43
0.00000001
 40
0.0
 40
0.0
 40
0.0
 40
0.0
 40
0.5598886773269492
 40
1.0
 40
1.0
 40
1.0
 40
1.0
 10
312.4304176783864
 20
96.2803274940808
 30
0.0
 10
312.7508737425192
 20
96.22510980056727
 30
0.0
 10
313.3232304932625
 20
96.12648717119541
 30
0.0
 10
313.8797734477184
 20
96.02564961316692
 30
0.0
 10
314.1247143035283
 20
95.9812698621279
 30
0.0
  0
SPLINE
  5
30E
330
1F
100
AcDbEntity
  8
0
  6
Continuous
 62
     7
370
    25
100
AcDbSpline
210
0.0
220
0.0
230
1.0
 70
    24
 71
     3
 72
     9
 73
     5
 74
     0
 42
0.00000001
 43
0.00000001
 40
0.0
 40
0.0
 40
0.0
 40
0.0
 40
0.5600038649198207
 40
1.0
 40
1.0
 40
1.0
 40
1.0
 10
312.3776857490863
 20
95.9812698621279
 30
0.0
 10
312.3875291139469
 20
96.0370943583058
 30
0.0
 10
312.4051064298857
 20
96.13678027062697
 30
0.0
 10
312.4226837329659
 20
96.23646611002391
 30
0.0
 10
312.4304176783864
 20
96.2803274940808
 30
0.0
  0
SPLINE
  5
30F
330
1F
100
AcDbEntity
  8
0
  6
Continuous
 62
     7
370
    25
100
AcDbSpline
210
0.0
220
0.0
230
1.0
 70
    24
 71
     3
 72
     9
 73
     5
 74
     0
 42
0.00000001
 43
0.00000001
 40
0.0
 40
0.0
 40
0.0
 40
0.0
 40
0.5598886773269508
 40
1.0
 40
1.0
 40
1.0
 40
1.0
 10
310.6816456379739
 20
96.2803274940808
 30
0.0
 10
310.9948007393184
 20
96.22510980056727
 30
0.0
 10
311.5541174642779
 20
96.12648717119541
 30
0.0
 10
312.1259956738594
 20
96.02564961316692
 30
0.0
 10
312.3776857490863
 20
95.9812698621279
 30
0.0
  0
SPLINE
  5
310
330
1F
100
AcDbEntity
  8
0
  6
Continuous
 62
     7
370
    25
100
AcDbSpline
210
0.0
220
0.0
230
1.0
 70
     8
 71
     3
 72
     9
 73
     5
 74
     0
 42
0.00000001
 43
0.00000001
 40
0.0
 40
0.0
 40
0.0
 40
0.0
 40
0.5600038649198187
 40
1.0
 40
1.0
 40
1.0
 40
1.0
 10
310.6306571946443
 20
95.9812698621279
 30
0.0
 10
310.6401679413132
 20
96.03709435830581
 30
0.0
 10
310.6571513002946
 20
96.13678027062696
 30
0.0
 10
310.6741613026707
 20
96.23646611002391
 30
0.0
 10
310.6816456379739
 20
96.2803274940808
 30
0.0
  0
SPLINE
  5
311
330
1F
100
AcDbEntity
  8
0
  6
Continuous
 62
     7
370
    25
100
AcDbSpline
210
0.0
220
0.0
230
1.0
 70
     8
 71
     3
 72
     9
 73
     5
 74
     0
 42
0.00000001
 43
0.00000001
 40
0.0
 40
0.0
 40
0.0
 40
0.0
 40
0.5598886773269478
 40
1.0
 40
1.0
 40
1.0
 40
1.0
 10
309.048455928295
 20
96.2803274940808
 30
0.0
 10
309.3329690642077
 20
96.22510980056727
 30
0.0
 10
309.8411292528921
 20
96.12648717119541
 30
0.0
 10
310.3893701626898
 20
96.02564961316692
 30
0.0
 10
310.6306571946443
 20
95.9812698621279
 30
0.0
  0
SPLINE
  5
312
330
1F
100
AcDbEntity
  8
0
  6
Continuous
 62
     7
370
    25
100
AcDbSpline
210
0.0
220
0.0
230
1.0
 70
     8
 71
     3
 72
     9
 73
     5
 74
     0
 42
0.00000001
 43
0.00000001
 40
0.0
 40
0.0
 40
0.0
 40
0.0
 40
0.5600038649198428
 40
1.0
 40
1.0
 40
1.0
 40
1.0
 10
309.0026857490863
 20
95.9812698621279
 30
0.0
 10
309.0112157358952
 20
96.03709435830581
 30
0.0
 10
309.0264477500711
 20
96.13678027062697
 30
0.0
 10
309.0417312481915
 20
96.2364661100239
 30
0.0
 10
309.048455928295
 20
96.2803274940808
 30
0.0
  0
SPLINE
  5
313
330
1F
100
AcDbEntity
  8
0
  6
Continuous
 62
     7
370
    25
100
AcDbSpline
210
0.0
220
0.0
230
1.0
 70
     8
 71
     3
 72
     9
 73
     5
 74
     0
 42
0.00000001
 43
0.00000001
 40
0.0
 40
0.0
 40
0.0
 40
0.0
 40
0.559888677326951
 40
1.0
 40
1.0
 40
1.0
 40
1.0
 10
307.6421477290905
 20
96.2803274940808
 30
0.0
 10
307.8786297995393
 20
96.22510980056728
 30
0.0
 10
308.3010031748641
 20
96.12648717119541
 30
0.0
 10
308.7882450728861
 20
96.02564961316693
 30
0.0
 10
309.0026857490863
 20
95.9812698621279
 30
0.0
  0
SPLINE
  5
314
330
1F
100
AcDbEntity
  8
0
  6
Continuous
 62
     7
370
    25
100
AcDbSpline
210
0.0
220
0.0
230
1.0
 70
     8
 71
     3
 72
     9
 73
     5
 74
     0
 42
0.00000001
 43
0.00000001
 40
0.0
 40
0.0
 40
0.0
 40
0.0
 40
0.5600038649198396
 40
1.0
 40
1.0
 40
1.0
 40
1.0
 10
307.6047149760771
 20
95.9812698621279
 30
0.0
 10
307.6116828985216
 20
96.03709435830581
 30
0.0
 10
307.6241255312978
 20
96.13678027062697
 30
0.0
 10
307.6366409800227
 20
96.23646611002391
 30
0.0
 10
307.6421477290905
 20
96.2803274940808
 30
0.0
  0
SPLINE
  5
315
330
1F
100
AcDbEntity
  8
0
  6
Continuous
 62
     7
370
    25
100
AcDbSpline
210
0.0
220
0.0
230
1.0
 70
     8
 71
     3
 72
     9
 73
     5
 74
     0
 42
0.00000001
 43
0.00000001
 40
0.0
 40
0.0
 40
0.0
 40
0.0
 40
0.5598886773269517
 40
1.0
 40
1.0
 40
1.0
 40
1.0
 10
306.5585586201022
 20
96.2803274940808
 30
0.0
 10
306.730893762791
 20
96.22510980056728
 30
0.0
 10
307.0386962772329
 20
96.12648717119541
 30
0.0
 10
307.4317344333343
 20
96.02564961316692
 30
0.0
 10
307.6047149760771
 20
95.9812698621279
 30
0.0
  0
SPLINE
  5
316
330
1F
100
AcDbEntity
  8
0
  6
Continuous
 62
     7
370
    25
100
AcDbSpline
210
0.0
220
0.0
230
1.0
 70
     8
 71
     3
 72
     9
 73
     5
 74
     0
 42
0.00000001
 43
0.00000001
 40
0.0
 40
0.0
 40
0.0
 40
0.0
 40
0.5600038649197987
 40
1.0
 40
1.0
 40
1.0
 40
1.0
 10
306.5320142735413
 20
95.9812698621279
 30
0.0
 10
306.5369452792218
 20
96.03709435830581
 30
0.0
 10
306.5457505857371
 20
96.13678027062696
 30
0.0
 10
306.5546450779188
 20
96.2364661100239
 30
0.0
 10
306.5585586201022
 20
96.2803274940808
 30
0.0
  0
SPLINE
  5
317
330
1F
100
AcDbEntity
  8
0
  6
Continuous
 62
     7
370
    25
100
AcDbSpline
210
0.0
220
0.0
230
1.0
 70
     8
 71
     3
 72
     9
 73
     5
 74
     0
 42
0.00000001
 43
0.00000001
 40
0.0
 40
0.0
 40
0.0
 40
0.0
 40
0.5598886773269476
 40
0.9999999999999999
 40
0.9999999999999999
 40
0.9999999999999999
 40
0.9999999999999999
 10
305.8715334083919
 20
96.2803274940808
 30
0.0
 10
305.9679772681437
 20
96.22510980056725
 30
0.0
 10
306.1402326890112
 20
96.1264871711954
 30
0.0
 10
306.41228220238
 20
96.02564961316692
 30
0.0
 10
306.5320142735413
 20
95.9812698621279
 30
0.0
  0
SPLINE
  5
318
330
1F
100
AcDbEntity
  8
0
  6
Continuous
 62
     7
370
    25
100
AcDbSpline
210
0.0
220
0.0
230
1.0
 70
     8
 71
     3
 72
     9
 73
     5
 74
     0
 42
0.00000001
 43
0.00000001
 40
0.0
 40
0.0
 40
0.0
 40
0.0
 40
0.5600038649198397
 40
1.0
 40
1.0
 40
1.0
 40
1.0
 10
305.8576864216351
 20
95.9812698621279
 30
0.0
 10
305.8602444706632
 20
96.03709435830582
 30
0.0
 10
305.8648123838301
 20
96.13678027062697
 30
0.0
 10
305.8694797745252
 20
96.23646611002391
 30
0.0
 10
305.8715334083919
 20
96.2803274940808
 30
0.0
  0
SPLINE
  5
319
330
1F
100
AcDbEntity
  8
0
  6
Continuous
 62
     7
370
    25
100
AcDbSpline
210
0.0
220
0.0
230
1.0
 70
     8
 71
     3
 72
     9
 73
     5
 74
     0
 42
0.00000001
 43
0.00000001
 40
0.0
 40
0.0
 40
0.0
 40
0.0
 40
0.5598886773269447
 40
1.0
 40
1.0
 40
1.0
 40
1.0
 10
305.6278917267748
 20
96.2803274940808
 30
0.0
 10
305.6418718139287
 20
96.22510980056727
 30
0.0
 10
305.666841218955
 20
96.12648717119541
 30
0.0
 10
305.7993623648383
 20
96.02564961316692
 30
0.0
 10
305.8576864216351
 20
95.9812698621279
 30
0.0
  0
SPLINE
  5
31A
330
1F
100
AcDbEntity
  8
0
  6
Continuous
 62
     7
370
    25
100
AcDbSpline
210
0.0
220
0.0
230
1.0
 70
     8
 71
     3
 72
     9
 73
     5
 74
     0
 42
0.00000001
 43
0.00000001
 40
0.0
 40
0.0
 40
0.0
 40
0.0
 40
0.5600038649197977
 40
0.9999999999999999
 40
0.9999999999999999
 40
0.9999999999999999
 40
0.9999999999999999
 10
305.6276857490863
 20
95.9812698621279
 30
0.0
 10
305.6276965146482
 20
96.0370943583058
 30
0.0
 10
305.6277157387332
 20
96.13678027062694
 30
0.0
 10
305.627837952979
 20
96.2364661100239
 30
0.0
 10
305.6278917267748
 20
96.2803274940808
 30
0.0
  0
SPLINE
  5
31B
330
1F
100
AcDbEntity
  8
0
  6
Continuous
 62
     7
370
    25
100
AcDbSpline
210
0.0
220
0.0
230
1.0
 70
    24
 71
     3
 72
    21
 73
    17
 74
     0
 42
0.00000001
 43
0.00000001
 40
0.0
 40
0.0
 40
0.0
 40
0.0
 40
0.0500299497698935
 40
0.1256926215804361
 40
0.2045008891646463
 40
0.2849815812579505
 40
0.3654622733512546
 40
0.444270540935465
 40
0.5199332127460077
 40
0.591319852674929
 40
0.6627064926038473
 40
0.7383691644143903
 40
0.817177431998601
 40
0.8976581240919056
 40
0.97813881618521
 40
1.0
 40
1.0
 40
1.0
 40
1.0
 10
306.8283861455818
 20
97.03900488904686
 30
0.0
 10
306.9850643753621
 20
97.03900488904688
 30
0.0
 10
307.3786945416174
 20
97.03900488904686
 30
0.0
 10
308.2385709022763
 20
97.03900488904686
 30
0.0
 10
309.3630484370191
 20
97.03900488904685
 30
0.0
 10
310.6446375580905
 20
97.03900488904688
 30
0.0
 10
311.9971412869324
 20
97.03900488904685
 30
0.0
 10
313.338079319854
 20
97.03900488904686
 30
0.0
 10
314.589572964288
 20
97.03900488904688
 30
0.0
 10
315.7212322405846
 20
97.03900488904686
 30
0.0
 10
316.7393907126808
 20
97.03900488904685
 30
0.0
 10
317.6334755085092
 20
97.03900488904688
 30
0.0
 10
318.3612722678705
 20
97.03900488904685
 30
0.0
 10
318.8335580741523
 20
97.03900488904686
 30
0.0
 10
319.0461727284054
 20
97.03900488904685
 30
0.0
 10
319.0085456298158
 20
97.03900488904685
 30
0.0
 10
319.000508128926
 20
97.03900488904685
 30
0.0
  0
LINE
  5
31C
330
1F
100
AcDbEntity
  8
0
  6
Continuous
 62
     7
370
    25
100
AcDbLine
 10
313.228501165
 20
95.9812698621
 30
0.0
 11
314.1247143035
 21
95.9812698621
 31
0.0
  0
LINE
  5
31D
330
1F
100
AcDbEntity
  8
0
  6
Continuous
 62
     7
370
    25
100
AcDbLine
 10
313.228501165
 20
95.9812698621
 30
0.0
 11
312.4028256163
 21
96.1238451343
 31
0.0
  0
LINE
  5
31E
330
1F
100
AcDbEntity
  8
0
  6
Continuous
 62
     7
370
    25
100
AcDbLine
 10
311.5691012002
 20
96.1238451343
 30
0.0
 11
311.5268703332
 21
95.9812698621
 31
0.0
  0
LINE
  5
31F
330
1F
100
AcDbEntity
  8
0
  6
Continuous
 62
     7
370
    25
100
AcDbLine
 10
311.5268703332
 20
95.9812698621
 30
0.0
 11
310.6306571946
 21
95.9812698621
 31
0.0
  0
LINE
  5
320
330
1F
100
AcDbEntity
  8
0
  6
Continuous
 62
     7
370
    25
100
AcDbLine
 10
314.1252143035
 20
95.9812698621
 30
0.0
 11
315.7526857491
 21
95.9812698621
 31
0.0
  0
LINE
  5
321
330
1F
100
AcDbEntity
  8
0
  6
Continuous
 62
     7
370
    25
100
AcDbLine
 10
315.7531857491
 20
95.9812698621
 30
0.0
 11
317.1506565221
 21
95.9812698621
 31
0.0
  0
SPLINE
  5
322
330
1F
100
AcDbEntity
  8
0
  6
Continuous
 62
     7
370
    25
100
AcDbSpline
210
0.0
220
0.0
230
1.0
 70
     8
 71
     3
 72
    19
 73
    15
 74
     0
 42
0.00000001
 43
0.00000001
 40
0.0
 40
0.0
 40
0.0
 40
0.0
 40
0.3057360504268158
 40
0.5020571787530791
 40
0.7745366675738729
 40
0.8930044771280493
 40
0.9479503587109336
 40
0.974514368464875
 40
0.9936172609942087
 40
0.9983976693774896
 40
0.9995957746644898
 40
0.9998969224440227
 40
0.9999730998975868
 40
1.0
 40
1.0
 40
1.0
 40
1.0
 10
312.3776857490863
 20
98.02272174645529
 30
0.0
 10
312.3778234032421
 20
98.05659036644661
 30
0.0
 10
312.3780494487378
 20
98.1122069146991
 30
0.0
 10
312.377553943601
 20
98.23818342232474
 30
0.0
 10
312.3778453111212
 20
98.35688506715188
 30
0.0
 10
312.377594370024
 20
98.45252048391207
 30
0.0
 10
312.3776411243879
 20
98.49549612990873
 30
0.0
 10
312.3776734290767
 20
98.51712814925823
 30
0.0
 10
312.377684005101
 20
98.52797771788808
 30
0.0
 10
312.3776406651318
 20
98.53336790113075
 30
0.0
 10
312.3776317577389
 20
98.53471961529384
 30
0.0
 10
312.3776183060351
 20
98.53505727283077
 30
0.0
 10
312.3776167401413
 20
98.53514464498691
 30
0.0
 10
312.3776123873576
 20
98.53516626185764
 30
0.0
 10
312.3776112514137
 20
98.53517190320247
 30
0.0
  0
SPLINE
  5
323
330
1F
100
AcDbEntity
  8
0
  6
Continuous
 62
     7
370
    25
100
AcDbSpline
210
0.0
220
0.0
230
1.0
 70
     8
 71
     3
 72
    19
 73
    15
 74
     0
 42
0.00000001
 43
0.00000001
 40
0.0
 40
0.0
 40
0.0
 40
0.0
 40
0.305734617847582
 40
0.5020581146560376
 40
0.7745380345683146
 40
0.8930060660155074
 40
0.9479520738934574
 40
0.9745161477737385
 40
0.9936176329445062
 40
0.9983977216310425
 40
0.9995957643931777
 40
0.9998969061304491
 40
0.9999730877037446
 40
1.0
 40
1.0
 40
1.0
 40
1.0
 10
316.6611793981401
 20
98.0227217464553
 30
0.0
 10
316.6119889984843
 20
98.05659017891546
 30
0.0
 10
316.5312116253355
 20
98.11220678349561
 30
0.0
 10
316.4342974732626
 20
98.23818303731582
 30
0.0
 10
316.388507948274
 20
98.35688518834512
 30
0.0
 10
316.3790649467443
 20
98.45252048064161
 30
0.0
 10
316.3778860008935
 20
98.4954961288575
 30
0.0
 10
316.3777084517185
 20
98.5171278233428
 30
0.0
 10
316.3776880298973
 20
98.52797703556834
 30
0.0
 10
316.3776408781367
 20
98.53336679585861
 30
0.0
 10
316.3776316337257
 20
98.53471843784219
 30
0.0
 10
316.3776180810286
 20
98.53505607026156
 30
0.0
 10
316.3776164973504
 20
98.53514344877952
 30
0.0
 10
316.3776121208107
 20
98.53516506354124
 30
0.0
 10
316.3776109783303
 20
98.53517070599962
 30
0.0
  0
SPLINE
  5
324
330
1F
100
AcDbEntity
  8
0
  6
Continuous
 62
     7
370
    25
100
AcDbSpline
210
0.0
220
0.0
230
1.0
 70
     8
 71
     3
 72
    19
 73
    15
 74
     0
 42
0.00000001
 43
0.00000001
 40
0.0
 40
0.0
 40
0.0
 40
0.0
 40
0.3057358733432871
 40
0.502057109799269
 40
0.7745366138409907
 40
0.893004451064352
 40
0.9479503447689228
 40
0.9745143604530669
 40
0.9936172590808313
 40
0.9983976689481739
 40
0.9995957745852021
 40
0.9998969224407289
 40
0.9999730999065325
 40
1.0
 40
1.0
 40
1.0
 40
1.0
 10
308.0941921000324
 20
98.02272174645529
 30
0.0
 10
308.1435204829434
 20
98.05659034477324
 30
0.0
 10
308.2245239487276
 20
98.11220688201018
 30
0.0
 10
308.3209424481593
 20
98.23818336461146
 30
0.0
 10
308.3670234821885
 20
98.35688503522374
 30
0.0
 10
308.3762152893334
 20
98.45252046361492
 30
0.0
 10
308.377440923386
 20
98.4954961194422
 30
0.0
 10
308.3776507225163
 20
98.51712814401873
 30
0.0
 10
308.3776817602973
 20
98.52797771553264
 30
0.0
 10
308.3776854070967
 20
98.53336790051637
 30
0.0
 10
308.3776857029051
 20
98.53471961507424
 30
0.0
 10
308.3776857398577
 20
98.53505727271816
 30
0.0
 10
308.3776857471427
 20
98.53514464488624
 30
0.0
 10
308.3776857486841
 20
98.5351662617644
 30
0.0
 10
308.3776857490863
 20
98.53517190310912
 30
0.0
  0
LINE
  5
325
330
1F
100
AcDbEntity
  8
0
  6
Continuous
 62
     7
370
    25
100
AcDbLine
 10
308.939741771
 20
95.9812698621
 30
0.0
 11
307.6047149761
 21
95.9812698621
 31
0.0
  0
LINE
  5
326
330
1F
100
AcDbEntity
  8
0
  6
Continuous
 62
     7
370
    25
100
AcDbLine
 10
317.1511565221
 20
95.9812698621
 30
0.0
 11
318.2233572246
 21
95.9812698621
 31
0.0
  0
LINE
  5
327
330
1F
100
AcDbEntity
  8
0
  6
Continuous
 62
     7
370
    25
100
AcDbLine
 10
312.3776857491
 20
101.4154623248
 30
0.0
 11
312.3776857491
 21
98.535498537
 31
0.0
  0
SPLINE
  5
328
330
1F
100
AcDbEntity
  8
0
  6
Continuous
 62
     7
370
    25
100
AcDbSpline
210
0.0
220
0.0
230
1.0
 70
     8
 71
     3
 72
     9
 73
     5
 74
     0
 42
0.00000001
 43
0.00000001
 40
0.0
 40
0.0
 40
0.0
 40
0.0
 40
0.577811962360066
 40
1.0
 40
1.0
 40
1.0
 40
1.0
 10
312.3776857490863
 20
101.4154623248184
 30
0.0
 10
312.76165093523
 20
101.4689897393552
 30
0.0
 10
313.4261667486018
 20
101.5616278604461
 30
0.0
 10
314.0952196271954
 20
101.575438974843
 30
0.0
 10
314.3776857490863
 20
101.5812698621279
 30
0.0
  0
SPLINE
  5
329
330
1F
100
AcDbEntity
  8
0
  6
Continuous
 62
     7
370
    25
100
AcDbSpline
210
0.0
220
0.0
230
1.0
 70
     8
 71
     3
 72
     9
 73
     5
 74
     0
 42
0.00000001
 43
0.00000001
 40
0.0
 40
0.0
 40
0.0
 40
0.0
 40
0.5398560076902722
 40
1.0
 40
1.0
 40
1.0
 40
1.0
 10
314.3776857490863
 20
101.5812698621279
 30
0.0
 10
314.7389006996442
 20
101.571756327738
 30
0.0
 10
315.4079956905537
 20
101.5541339724165
 30
0.0
 10
316.0721014661756
 20
101.4591627583934
 30
0.0
 10
316.3776857490863
 20
101.4154623248184
 30
0.0
  0
LINE
  5
32A
330
1F
100
AcDbEntity
  8
0
  6
Continuous
 62
     7
370
    25
100
AcDbLine
 10
316.3776857491
 20
101.4154623248
 30
0.0
 11
316.3776857491
 21
98.5354985371
 31
0.0
  0
LINE
  5
32B
330
1F
100
AcDbEntity
  8
0
  6
Continuous
 62
     7
370
    25
100
AcDbLine
 10
308.3776857491
 20
101.4154623248
 30
0.0
 11
308.3776857491
 21
98.535498537
 31
0.0
  0
SPLINE
  5
32C
330
1F
100
AcDbEntity
  8
0
  6
Continuous
 62
     7
370
    25
100
AcDbSpline
210
0.0
220
0.0
230
1.0
 70
     8
 71
     3
 72
     9
 73
     5
 74
     0
 42
0.00000001
 43
0.00000001
 40
0.0
 40
0.0
 40
0.0
 40
0.0
 40
0.5778119623600674
 40
1.0
 40
1.0
 40
1.0
 40
1.0
 10
308.3776857490863
 20
101.4154623248184
 30
0.0
 10
308.76165093523
 20
101.4689897393552
 30
0.0
 10
309.4261667486018
 20
101.5616278604461
 30
0.0
 10
310.0952196271954
 20
101.575438974843
 30
0.0
 10
310.3776857490863
 20
101.5812698621279
 30
0.0
  0
SPLINE
  5
32D
330
1F
100
AcDbEntity
  8
0
  6
Continuous
 62
     7
370
    25
100
AcDbSpline
210
0.0
220
0.0
230
1.0
 70
     8
 71
     3
 72
     9
 73
     5
 74
     0
 42
0.00000001
 43
0.00000001
 40
0.0
 40
0.0
 40
0.0
 40
0.0
 40
0.539856007690271
 40
0.9999999999999999
 40
0.9999999999999999
 40
0.9999999999999999
 40
0.9999999999999999
 10
310.3776857490863
 20
101.5812698621279
 30
0.0
 10
310.7389006996442
 20
101.5717563277379
 30
0.0
 10
311.4079956905537
 20
101.5541339724165
 30
0.0
 10
312.0721014661756
 20
101.4591627583934
 30
0.0
 10
312.3776857490863
 20
101.4154623248184
 30
0.0
  0
SPLINE
  5
32E
330
1F
100
AcDbEntity
  8
0
  6
Continuous
 62
     7
370
    25
100
AcDbSpline
210
0.0
220
0.0
230
1.0
 70
    24
 71
     3
 72
    11
 73
     7
 74
     0
 42
0.00000001
 43
0.00000001
 40
0.0
 40
0.0
 40
0.0
 40
0.0
 40
0.2757314499394155
 40
0.5610422027418013
 40
0.7842685108023562
 40
1.0
 40
1.0
 40
1.0
 40
1.0
 10
310.3776857490863
 20
101.5812698621279
 30
0.0
 10
310.7275219803793
 20
101.5812698621279
 30
0.0
 10
311.4393482513639
 20
101.5812698621279
 30
0.0
 10
312.5515354837253
 20
101.5812698621279
 30
0.0
 10
313.5563407243008
 20
101.5812698621279
 30
0.0
 10
314.1070382999716
 20
101.5812698621279
 30
0.0
 10
314.3776857490863
 20
101.5812698621279
 30
0.0
  0
SPLINE
  5
32F
330
1F
100
AcDbEntity
  8
0
  6
Continuous
 62
     7
370
    25
100
AcDbSpline
210
0.0
220
0.0
230
1.0
 70
    24
 71
     3
 72
     9
 73
     5
 74
     0
 42
0.00000001
 43
0.00000001
 40
0.0
 40
0.0
 40
0.0
 40
0.0
 40
0.5778119623600679
 40
1.0
 40
1.0
 40
1.0
 40
1.0
 10
316.3776857490863
 20
101.4154623248184
 30
0.0
 10
316.3776857490863
 20
101.4689897393552
 30
0.0
 10
316.3776857490863
 20
101.5616278604461
 30
0.0
 10
316.3776857490863
 20
101.575438974843
 30
0.0
 10
316.3776857490863
 20
101.5812698621279
 30
0.0
  0
SPLINE
  5
330
330
1F
100
AcDbEntity
  8
0
  6
Continuous
 62
     7
370
    25
100
AcDbSpline
210
0.0
220
0.0
230
1.0
 70
    24
 71
     3
 72
    11
 73
     7
 74
     0
 42
0.00000001
 43
0.00000001
 40
0.0
 40
0.0
 40
0.0
 40
0.0
 40
0.275731449939416
 40
0.561042202741802
 40
0.7842685108023569
 40
1.0
 40
1.0
 40
1.0
 40
1.0
 10
314.3776857490863
 20
101.5812698621279
 30
0.0
 10
314.6953302220207
 20
101.5812698621279
 30
0.0
 10
315.3416545888025
 20
101.5812698621279
 30
0.0
 10
315.9619106037177
 20
101.5812698621279
 30
0.0
 10
316.3179975929141
 20
101.5812698621279
 30
0.0
 10
316.3580174650852
 20
101.5812698621279
 30
0.0
 10
316.3776857490863
 20
101.5812698621279
 30
0.0
  0
SPLINE
  5
331
330
1F
100
AcDbEntity
  8
0
  6
Continuous
 62
     7
370
    25
100
AcDbSpline
210
0.0
220
0.0
230
1.0
 70
    24
 71
     3
 72
     9
 73
     5
 74
     0
 42
0.00000001
 43
0.00000001
 40
0.0
 40
0.0
 40
0.0
 40
0.0
 40
0.5398560076902729
 40
1.0
 40
1.0
 40
1.0
 40
1.0
 10
308.3776857490863
 20
101.5812698621279
 30
0.0
 10
308.3776857490863
 20
101.5717563277379
 30
0.0
 10
308.3776857490863
 20
101.5541339724165
 30
0.0
 10
308.3776857490863
 20
101.4591627583934
 30
0.0
 10
308.3776857490863
 20
101.4154623248184
 30
0.0
  0
SPLINE
  5
332
330
1F
100
AcDbEntity
  8
0
  6
Continuous
 62
     7
370
    25
100
AcDbSpline
210
0.0
220
0.0
230
1.0
 70
    24
 71
     3
 72
    11
 73
     7
 74
     0
 42
0.00000001
 43
0.00000001
 40
0.0
 40
0.0
 40
0.0
 40
0.0
 40
0.2757314499394164
 40
0.5610422027418018
 40
0.7842685108023568
 40
1.0
 40
1.0
 40
1.0
 40
1.0
 10
308.3776857490863
 20
101.5812698621279
 30
0.0
 10
308.4098775074449
 20
101.5812698621279
 30
0.0
 10
308.4753794116477
 20
101.5812698621279
 30
0.0
 10
308.967310629094
 20
101.5812698621279
 30
0.0
 10
309.6160288804732
 20
101.5812698621279
 30
0.0
 10
310.1267065839726
 20
101.5812698621279
 30
0.0
 10
310.3776857490863
 20
101.5812698621279
 30
0.0
  0
LINE
  5
333
330
1F
100
AcDbEntity
  8
0
  6
Continuous
 62
     7
370
    25
100
AcDbLine
 10
306.5320142735
 20
95.9812698621
 30
0.0
 11
307.5764129036
 21
95.9812698621
 31
0.0
  0
LINE
  5
334
330
1F
100
AcDbEntity
  8
0
  6
Continuous
 62
     7
370
    25
100
AcDbLine
 10
306.503712201
 20
95.9812698621
 30
0.0
 11
305.8576864216
 21
95.9812698621
 31
0.0
  0
LINE
  5
335
330
1F
100
AcDbEntity
  8
0
  6
Continuous
 62
     7
370
    25
100
AcDbLine
 10
318.9606290546
 20
95.9812698621
 30
0.0
 11
319.1276857491
 21
95.9812698621
 31
0.0
  0
LINE
  5
336
330
1F
100
AcDbEntity
  8
0
  6
Continuous
 62
     7
370
    25
100
AcDbLine
 10
305.8571864216
 20
95.9812698621
 30
0.0
 11
305.6276857491
 21
95.9812698621
 31
0.0
  0
SPLINE
  5
337
330
1F
100
AcDbEntity
  8
0
  6
Continuous
 62
     7
370
    25
100
AcDbSpline
210
0.0
220
0.0
230
1.0
 70
    24
 71
     3
 72
    27
 73
    23
 74
     0
 42
0.00000001
 43
0.00000001
 40
0.0
 40
0.0
 40
0.0
 40
0.0
 40
0.0005786699778597
 40
0.0580013144427864
 40
0.1154239589077131
 40
0.1719292727130034
 40
0.2266848124865547
 40
0.2790092042882756
 40
0.3313335960899974
 40
0.3860891358635485
 40
0.4425944496688388
 40
0.5000170941337653
 40
0.5574397385986919
 40
0.6139450524039821
 40
0.6687005921775333
 40
0.7210249839792551
 40
0.7733493757809761
 40
0.8281049155545273
 40
0.8846102293598176
 40
0.9420328738247442
 40
0.9994555182896708
 40
0.9999999999999999
 40
0.9999999999999999
 40
0.9999999999999999
 40
0.9999999999999999
 10
300.3795980362505
 20
84.38126986212791
 30
0.0
 10
300.3789600050976
 20
84.38126986212791
 30
0.0
 10
300.3150087946719
 20
84.38126986212804
 30
0.0
 10
300.540927848378
 20
84.38126986212784
 30
0.0
 10
301.0856400228488
 20
84.38126986212792
 30
0.0
 10
302.0234925688354
 20
84.38126986212791
 30
0.0
 10
303.2300870221046
 20
84.38126986212791
 30
0.0
 10
304.6643451368204
 20
84.3812698621279
 30
0.0
 10
306.3089322408234
 20
84.38126986212791
 30
0.0
 10
308.1723304627204
 20
84.3812698621279
 30
0.0
 10
310.2240511783523
 20
84.38126986212791
 30
0.0
 10
312.3776857482442
 20
84.3812698621279
 30
0.0
 10
314.5313203231617
 20
84.3812698621279
 30
0.0
 10
316.5830410241094
 20
84.38126986212791
 30
0.0
 10
318.446439297293
 20
84.3812698621279
 30
0.0
 10
320.0910262195269
 20
84.38126986212791
 30
0.0
 10
321.5252850166045
 20
84.38126986212791
 30
0.0
 10
322.7318767783668
 20
84.38126986212791
 30
0.0
 10
323.6697398333426
 20
84.38126986212787
 30
0.0
 10
324.2144119300553
 20
84.38126986212801
 30
0.0
 10
324.4403645587388
 20
84.38126986212767
 30
0.0
 10
324.3764855163211
 20
84.38126986212791
 30
0.0
 10
324.375885504339
 20
84.38126986212791
 30
0.0
  0
SPLINE
  5
338
330
1F
100
AcDbEntity
  8
0
  6
Continuous
 62
     7
370
    25
100
AcDbSpline
210
0.0
220
0.0
230
1.0
 70
    24
 71
     3
 72
    27
 73
    23
 74
     0
 42
0.00000001
 43
0.00000001
 40
0.0
 40
0.0
 40
0.0
 40
0.0
 40
0.0005444817103272
 40
0.0579671261752539
 40
0.1153897706401806
 40
0.1718950844454709
 40
0.2266506242190222
 40
0.2789750160207431
 40
0.3312994078224649
 40
0.3860549475960161
 40
0.4425602614013062
 40
0.4999829058662328
 40
0.5574055503311593
 40
0.6139108641364496
 40
0.6686664039100008
 40
0.7209907957117225
 40
0.7733151875134435
 40
0.8280707272869947
 40
0.884576041092285
 40
0.9419986855572117
 40
0.9994213300221383
 40
0.9999999999999999
 40
0.9999999999999999
 40
0.9999999999999999
 40
0.9999999999999999
 10
300.3794859938336
 20
93.38126986212788
 30
0.0
 10
300.3788859818515
 20
93.38126986212788
 30
0.0
 10
300.3150069394337
 20
93.38126986212772
 30
0.0
 10
300.5409595681173
 20
93.38126986212794
 30
0.0
 10
301.08563166483
 20
93.38126986212785
 30
0.0
 10
302.0234947198057
 20
93.3812698621279
 30
0.0
 10
303.230086481568
 20
93.38126986212787
 30
0.0
 10
304.6643452786457
 20
93.38126986212791
 30
0.0
 10
306.3089322008796
 20
93.38126986212788
 30
0.0
 10
308.1723304740631
 20
93.38126986212788
 30
0.0
 10
310.2240511750109
 20
93.38126986212788
 30
0.0
 10
312.3776857499284
 20
93.38126986212788
 30
0.0
 10
314.5313203198202
 20
93.38126986212788
 30
0.0
 10
316.5830410354522
 20
93.38126986212788
 30
0.0
 10
318.4464392573493
 20
93.38126986212788
 30
0.0
 10
320.0910263613522
 20
93.38126986212791
 30
0.0
 10
321.525284476068
 20
93.3812698621279
 30
0.0
 10
322.7318789293371
 20
93.38126986212788
 30
0.0
 10
323.6697314753238
 20
93.38126986212785
 30
0.0
 10
324.2144436497946
 20
93.38126986212797
 30
0.0
 10
324.4403627035006
 20
93.38126986212768
 30
0.0
 10
324.376411493075
 20
93.38126986212788
 30
0.0
 10
324.3757734619221
 20
93.38126986212788
 30
0.0
  0
LINE
  5
339
330
1F
100
AcDbEntity
  8
0
  6
Continuous
 62
     7
370
    25
100
AcDbLine
 10
318.2821747731
 20
112.6356877052
 30
0.0
 11
317.2922850895
 21
113.3446651818
 31
0.0
  0
SPLINE
  5
33A
330
1F
100
AcDbEntity
  8
0
  6
Continuous
 62
     7
370
    25
100
AcDbSpline
210
0.0
220
0.0
230
1.0
 70
     8
 71
     3
 72
    20
 73
    16
 74
     0
 42
0.00000001
 43
0.00000001
 40
0.0
 40
0.0
 40
0.0
 40
0.0
 40
0.0161707381141227
 40
0.0687726591577556
 40
0.1536057440939585
 40
0.2537026089377685
 40
0.3718463793863722
 40
0.5000203239935426
 40
0.6281389419729774
 40
0.7461782868657677
 40
0.8462772224310513
 40
0.9063584483674564
 40
0.9524846640355008
 40
0.9838443240711813
 40
1.0
 40
1.0
 40
1.0
 40
1.0
 10
317.292285089498
 20
113.3446651817919
 30
0.0
 10
317.2439741500781
 20
113.3701823939992
 30
0.0
 10
317.0385121763041
 20
113.4787047462506
 30
0.0
 10
316.562435952672
 20
113.6870330888175
 30
0.0
 10
315.8024452816341
 20
113.9483344134066
 30
0.0
 10
314.80368283202
 20
114.1811128708793
 30
0.0
 10
313.6430633846378
 20
114.3438287951493
 30
0.0
 10
312.3775215541403
 20
114.3999668260567
 30
0.0
 10
311.1122597652271
 20
114.3447437276594
 30
0.0
 10
309.9522115633709
 20
114.1813958566523
 30
0.0
 10
309.0356174166623
 20
113.9667969055503
 30
0.0
 10
308.3725603996023
 20
113.7501645368133
 30
0.0
 10
307.9406891714146
 20
113.5778557837732
 30
0.0
 10
307.6531772421515
 20
113.4453812998477
 30
0.0
 10
307.5113194398668
 20
113.3702205627374
 30
0.0
 10
307.4630864086746
 20
113.3446651817919
 30
0.0
  0
LINE
  5
33B
330
1F
100
AcDbEntity
  8
0
  6
Continuous
 62
     7
370
    25
100
AcDbLine
 10
307.4630864087
 20
113.3446651818
 30
0.0
 11
306.4731967251
 21
112.6356877052
 31
0.0
  0
SPLINE
  5
33C
330
1F
100
AcDbEntity
  8
0
  6
Continuous
 62
     7
370
    25
100
AcDbSpline
210
0.0
220
0.0
230
1.0
 70
     8
 71
     3
 72
    10
 73
     6
 74
     0
 42
0.00000001
 43
0.00000001
 40
0.0
 40
0.0
 40
0.0
 40
0.0
 40
0.4058341963373358
 40
0.6965048340556129
 40
1.0
 40
1.0
 40
1.0
 40
1.0
 10
306.4731967250515
 20
112.6356877052328
 30
0.0
 10
306.349177729282
 20
112.4968533469269
 30
0.0
 10
306.1363326047267
 20
112.2585816523142
 30
0.0
 10
305.9306979549897
 20
111.8409140482619
 30
0.0
 10
305.8957864161264
 20
111.5698615163003
 30
0.0
 10
305.8779538797949
 20
111.4314100391869
 30
0.0
  0
SPLINE
  5
33D
330
1F
100
AcDbEntity
  8
0
  6
Continuous
 62
     7
370
    25
100
AcDbSpline
210
0.0
220
0.0
230
1.0
 70
     8
 71
     3
 72
    10
 73
     6
 74
     0
 42
0.00000001
 43
0.00000001
 40
0.0
 40
0.0
 40
0.0
 40
0.0
 40
0.3033447683631391
 40
0.5940896395930976
 40
0.9999999999999999
 40
0.9999999999999999
 40
0.9999999999999999
 40
0.9999999999999999
 10
318.8776392119339
 20
111.4314081953534
 30
0.0
 10
318.8597128007294
 20
111.5697734078844
 30
0.0
 10
318.8246045797138
 20
111.8407566184679
 30
0.0
 10
318.619520574409
 20
112.2587310748805
 30
0.0
 10
318.4063688861704
 20
112.4969108353684
 30
0.0
 10
318.2821747731211
 20
112.6356877052328
 30
0.0
  0
SPLINE
  5
33E
330
1F
100
AcDbEntity
  8
0
  6
Continuous
 62
     7
370
    25
100
AcDbSpline
210
0.0
220
0.0
230
1.0
 70
     8
 71
     3
 72
    11
 73
     7
 74
     0
 42
0.00000001
 43
0.00000001
 40
0.0
 40
0.0
 40
0.0
 40
0.0
 40
0.2482838598124483
 40
0.5029083505071403
 40
0.756010670372716
 40
1.0
 40
1.0
 40
1.0
 40
1.0
 10
306.8838387090121
 20
122.5169939235974
 30
0.0
 10
306.9036644319403
 20
122.6386927904797
 30
0.0
 10
306.9438221837286
 20
122.8851984491585
 30
0.0
 10
307.1181317472349
 20
123.2211975724387
 30
0.0
 10
307.3599696715187
 20
123.5094471584447
 30
0.0
 10
307.5691370161267
 20
123.6404826431433
 30
0.0
 10
307.6718033961452
 20
123.7047992738926
 30
0.0
  0
SPLINE
  5
33F
330
1F
100
AcDbEntity
  8
0
  6
Continuous
 62
     7
370
    25
100
AcDbSpline
210
0.0
220
0.0
230
1.0
 70
     8
 71
     3
 72
     9
 73
     5
 74
     0
 42
0.00000001
 43
0.00000001
 40
0.0
 40
0.0
 40
0.0
 40
0.0
 40
0.5600000000000213
 40
1.0
 40
1.0
 40
1.0
 40
1.0
 10
316.2238039827203
 20
124.1120539313665
 30
0.0
 10
316.3869140280519
 20
124.0415251756679
 30
0.0
 10
316.6781819661441
 20
123.9155809690633
 30
0.0
 10
316.9597001160631
 20
123.7692047918614
 30
0.0
 10
317.0835681020275
 20
123.7047992738926
 30
0.0
  0
SPLINE
  5
340
330
1F
100
AcDbEntity
  8
0
  6
Continuous
 62
     7
370
    25
100
AcDbSpline
210
0.0
220
0.0
230
1.0
 70
     8
 71
     3
 72
    11
 73
     7
 74
     0
 42
0.00000001
 43
0.00000001
 40
0.0
 40
0.0
 40
0.0
 40
0.0
 40
0.2439893296272837
 40
0.4970916494928516
 40
0.751716140187552
 40
0.9999999999999999
 40
0.9999999999999999
 40
0.9999999999999999
 40
0.9999999999999999
 10
317.0835681020275
 20
123.7047992738926
 30
0.0
 10
317.1862344820458
 20
123.6404826431433
 30
0.0
 10
317.3954018266538
 20
123.5094471584446
 30
0.0
 10
317.6372397509377
 20
123.2211975724387
 30
0.0
 10
317.811549314444
 20
122.8851984491585
 30
0.0
 10
317.8517070662323
 20
122.6386927904797
 30
0.0
 10
317.8715327891604
 20
122.5169939235974
 30
0.0
  0
SPLINE
  5
341
330
1F
100
AcDbEntity
  8
0
  6
Continuous
 62
     7
370
    25
100
AcDbSpline
210
0.0
220
0.0
230
1.0
 70
     8
 71
     3
 72
    11
 73
     7
 74
     0
 42
0.00000001
 43
0.00000001
 40
0.0
 40
0.0
 40
0.0
 40
0.0
 40
0.2475488322023327
 40
0.4999999999999998
 40
0.7524511677976671
 40
1.0
 40
1.0
 40
1.0
 40
1.0
 10
308.5315675154524
 20
124.1120539313664
 30
0.0
 10
309.1472938407728
 20
124.3288909231469
 30
0.0
 10
310.39094003341
 20
124.7668590400864
 30
0.0
 10
312.3776857490863
 20
124.9390361533941
 30
0.0
 10
314.3644314647626
 20
124.7668590400864
 30
0.0
 10
315.6080776573998
 20
124.3288909231469
 30
0.0
 10
316.2238039827203
 20
124.1120539313664
 30
0.0
  0
SPLINE
  5
342
330
1F
100
AcDbEntity
  8
0
  6
Continuous
 62
     7
370
    25
100
AcDbSpline
210
0.0
220
0.0
230
1.0
 70
     8
 71
     3
 72
     9
 73
     5
 74
     0
 42
0.00000001
 43
0.00000001
 40
0.0
 40
0.0
 40
0.0
 40
0.0
 40
0.560000000000013
 40
1.0
 40
1.0
 40
1.0
 40
1.0
 10
307.6718033961452
 20
123.7047992738926
 30
0.0
 10
307.8297033648493
 20
123.7863271350917
 30
0.0
 10
308.1116675946782
 20
123.9319126015186
 30
0.0
 10
308.4032647618824
 20
124.0570107472463
 30
0.0
 10
308.5315675154523
 20
124.1120539313665
 30
0.0
  0
ARC
  5
343
330
1F
100
AcDbEntity
  8
0
  6
Continuous
 62
     7
370
    25
100
AcDbCircle
 10
312.3776857491
 20
59.3812698621
 30
0.0
 40
15.0
100
AcDbArc
 50
180.0
 51
240.0
  0
ARC
  5
344
330
1F
100
AcDbEntity
  8
0
  6
Continuous
 62
     7
370
    25
100
AcDbCircle
 10
312.3776857491
 20
59.3812698621
 30
0.0
 40
15.00000000000001
100
AcDbArc
 50
120.0
 51
180.0
  0
ARC
  5
345
330
1F
100
AcDbEntity
  8
0
  6
Continuous
 62
     7
370
    25
100
AcDbCircle
 10
312.3776857491
 20
59.3812698621
 30
0.0
 40
15.00000000000001
100
AcDbArc
 50
60.0
 51
120.0
  0
ARC
  5
346
330
1F
100
AcDbEntity
  8
0
  6
Continuous
 62
     7
370
    25
100
AcDbCircle
 10
312.3776857491
 20
59.3812698621
 30
0.0
 40
14.99999999999998
100
AcDbArc
 50
0.0
 51
60.0
  0
ARC
  5
347
330
1F
100
AcDbEntity
  8
0
  6
Continuous
 62
     7
370
    25
100
AcDbCircle
 10
312.3776857491
 20
59.3812698621
 30
0.0
 40
15.0
100
AcDbArc
 50
300.0
 51
0.0
  0
ARC
  5
348
330
1F
100
AcDbEntity
  8
0
  6
Continuous
 62
     7
370
    25
100
AcDbCircle
 10
312.3776857491
 20
59.3812698621
 30
0.0
 40
15.0
100
AcDbArc
 50
240.0
 51
300.0
  0
CIRCLE
  5
349
330
1F
100
AcDbEntity
  8
0
  6
Continuous
 62
     7
370
    25
100
AcDbCircle
 10
312.3776857491
 20
59.3812698621
 30
0.0
 40
11.53993300000001
  0
SPLINE
  5
34A
330
1F
100
AcDbEntity
  8
0
  6
Continuous
 62
     7
370
    25
100
AcDbSpline
210
0.0
220
0.0
230
1.0
 70
    24
 71
     3
 72
     9
 73
     5
 74
     0
 42
0.00000001
 43
0.00000001
 40
0.0
 40
0.0
 40
0.0
 40
0.0
 40
0.5133297506650132
 40
1.0
 40
1.0
 40
1.0
 40
1.0
 10
327.3776857490863
 20
59.38126986212789
 30
0.0
 10
327.3776857490863
 20
57.89402658618137
 30
0.0
 10
327.3776857490863
 20
54.99677920470809
 30
0.0
 10
327.3776857490863
 20
52.12071211293895
 30
0.0
 10
327.3776857490863
 20
50.72101582428351
 30
0.0
  0
SPLINE
  5
34B
330
1F
100
AcDbEntity
  8
0
  6
Continuous
 62
     7
370
    25
100
AcDbSpline
210
0.0
220
0.0
230
1.0
 70
    24
 71
     3
 72
     9
 73
     5
 74
     0
 42
0.00000001
 43
0.00000001
 40
0.0
 40
0.0
 40
0.0
 40
0.0
 40
0.4989631660071377
 40
1.0
 40
1.0
 40
1.0
 40
1.0
 10
327.3776857490863
 20
50.72101582428351
 30
0.0
 10
326.1348139448879
 20
50.00344345356139
 30
0.0
 10
323.643905018395
 20
48.56531651432386
 30
0.0
 10
321.1348265041188
 20
47.11669935868857
 30
0.0
 10
319.8776857490863
 20
46.39088880536131
 30
0.0
  0
SPLINE
  5
34C
330
1F
100
AcDbEntity
  8
0
  6
Continuous
 62
     7
370
    25
100
AcDbSpline
210
0.0
220
0.0
230
1.0
 70
    24
 71
     3
 72
     9
 73
     5
 74
     0
 42
0.00000001
 43
0.00000001
 40
0.0
 40
0.0
 40
0.0
 40
0.0
 40
0.4989631660071377
 40
1.0
 40
1.0
 40
1.0
 40
1.0
 10
327.3776857490863
 20
68.04152389997229
 30
0.0
 10
327.3776857490863
 20
66.60637915852806
 30
0.0
 10
327.3776857490863
 20
63.73012528005298
 30
0.0
 10
327.3776857490863
 20
60.8328909687824
 30
0.0
 10
327.3776857490863
 20
59.38126986212789
 30
0.0
  0
SPLINE
  5
34D
330
1F
100
AcDbEntity
  8
0
  6
Continuous
 62
     7
370
    25
100
AcDbSpline
210
0.0
220
0.0
230
1.0
 70
    24
 71
     3
 72
     9
 73
     5
 74
     0
 42
0.00000001
 43
0.00000001
 40
0.0
 40
0.0
 40
0.0
 40
0.0
 40
0.4987908233251053
 40
1.0
 40
1.0
 40
1.0
 40
1.0
 10
319.8776857490863
 20
72.37165091889449
 30
0.0
 10
321.1291899270255
 20
71.6490946448693
 30
0.0
 10
323.6382661157099
 20
70.2004788319151
 30
0.0
 10
326.1292045481934
 20
68.762334857386
 30
0.0
 10
327.3776857490863
 20
68.04152389997229
 30
0.0
  0
CIRCLE
  5
34E
330
1F
100
AcDbEntity
  8
0
  6
Continuous
 62
     7
370
    25
100
AcDbCircle
 10
312.3776857491
 20
59.3812698621
 30
0.0
 40
10.50771050140631
  0
SPLINE
  5
34F
330
1F
100
AcDbEntity
  8
0
  6
Continuous
 62
     7
370
    25
100
AcDbSpline
210
0.0
220
0.0
230
1.0
 70
    24
 71
     3
 72
     9
 73
     5
 74
     0
 42
0.00000001
 43
0.00000001
 40
0.0
 40
0.0
 40
0.0
 40
0.0
 40
0.4987908233251052
 40
1.0
 40
1.0
 40
1.0
 40
1.0
 10
304.8776857490863
 20
72.37165091889449
 30
0.0
 10
306.1291899270256
 20
73.09420719291965
 30
0.0
 10
308.6382661157099
 20
74.54282300587386
 30
0.0
 10
311.1292045481934
 20
75.98096698040297
 30
0.0
 10
312.3776857490863
 20
76.70177793781667
 30
0.0
  0
SPLINE
  5
350
330
1F
100
AcDbEntity
  8
0
  6
Continuous
 62
     7
370
    25
100
AcDbSpline
210
0.0
220
0.0
230
1.0
 70
    24
 71
     3
 72
     9
 73
     5
 74
     0
 42
0.00000001
 43
0.00000001
 40
0.0
 40
0.0
 40
0.0
 40
0.0
 40
0.4989631660071376
 40
1.0
 40
1.0
 40
1.0
 40
1.0
 10
312.3776857490863
 20
76.70177793781667
 30
0.0
 10
313.6205575532846
 20
75.98420556709455
 30
0.0
 10
316.1114664797776
 20
74.54607862785701
 30
0.0
 10
318.6205449940538
 20
73.09746147222172
 30
0.0
 10
319.8776857490863
 20
72.37165091889449
 30
0.0
  0
SPLINE
  5
351
330
1F
100
AcDbEntity
  8
0
  6
Continuous
 62
     7
370
    25
100
AcDbSpline
210
0.0
220
0.0
230
1.0
 70
    24
 71
     3
 72
     9
 73
     5
 74
     0
 42
0.00000001
 43
0.00000001
 40
0.0
 40
0.0
 40
0.0
 40
0.0
 40
0.4989631660071377
 40
1.0
 40
1.0
 40
1.0
 40
1.0
 10
312.3776857490863
 20
42.06076178643912
 30
0.0
 10
311.134813944888
 20
42.77833415716125
 30
0.0
 10
308.643905018395
 20
44.21646109639879
 30
0.0
 10
306.1348265041188
 20
45.66507825203407
 30
0.0
 10
304.8776857490863
 20
46.39088880536131
 30
0.0
  0
SPLINE
  5
352
330
1F
100
AcDbEntity
  8
0
  6
Continuous
 62
     7
370
    25
100
AcDbSpline
210
0.0
220
0.0
230
1.0
 70
    24
 71
     3
 72
     9
 73
     5
 74
     0
 42
0.00000001
 43
0.00000001
 40
0.0
 40
0.0
 40
0.0
 40
0.0
 40
0.4987908233251052
 40
1.0
 40
1.0
 40
1.0
 40
1.0
 10
319.8776857490863
 20
46.39088880536131
 30
0.0
 10
318.626181571147
 20
45.66833253133613
 30
0.0
 10
316.1171053824627
 20
44.21971671838195
 30
0.0
 10
313.6261669499792
 20
42.78157274385283
 30
0.0
 10
312.3776857490863
 20
42.06076178643912
 30
0.0
  0
SPLINE
  5
353
330
1F
100
AcDbEntity
  8
0
  6
Continuous
 62
     7
370
    25
100
AcDbSpline
210
0.0
220
0.0
230
1.0
 70
    24
 71
     3
 72
     9
 73
     5
 74
     0
 42
0.00000001
 43
0.00000001
 40
0.0
 40
0.0
 40
0.0
 40
0.0
 40
0.4989631660071377
 40
1.0
 40
1.0
 40
1.0
 40
1.0
 10
297.3776857490863
 20
50.72101582428351
 30
0.0
 10
297.3776857490863
 20
52.15616056572775
 30
0.0
 10
297.3776857490863
 20
55.03241444420283
 30
0.0
 10
297.3776857490863
 20
57.9296487554734
 30
0.0
 10
297.3776857490863
 20
59.38126986212789
 30
0.0
  0
SPLINE
  5
354
330
1F
100
AcDbEntity
  8
0
  6
Continuous
 62
     7
370
    25
100
AcDbSpline
210
0.0
220
0.0
230
1.0
 70
    24
 71
     3
 72
     9
 73
     5
 74
     0
 42
0.00000001
 43
0.00000001
 40
0.0
 40
0.0
 40
0.0
 40
0.0
 40
0.4987908233251052
 40
1.0
 40
1.0
 40
1.0
 40
1.0
 10
304.8776857490863
 20
46.39088880536131
 30
0.0
 10
303.626181571147
 20
47.1134450793865
 30
0.0
 10
301.1171053824627
 20
48.56206089234069
 30
0.0
 10
298.6261669499792
 20
50.00020486686981
 30
0.0
 10
297.3776857490863
 20
50.72101582428351
 30
0.0
  0
SPLINE
  5
355
330
1F
100
AcDbEntity
  8
0
  6
Continuous
 62
     7
370
    25
100
AcDbSpline
210
0.0
220
0.0
230
1.0
 70
    24
 71
     3
 72
     9
 73
     5
 74
     0
 42
0.00000001
 43
0.00000001
 40
0.0
 40
0.0
 40
0.0
 40
0.0
 40
0.5133297506650127
 40
1.0
 40
1.0
 40
1.0
 40
1.0
 10
297.3776857490863
 20
59.38126986212789
 30
0.0
 10
297.3776857490863
 20
60.86851313807443
 30
0.0
 10
297.3776857490863
 20
63.7657605195477
 30
0.0
 10
297.3776857490863
 20
66.64182761131684
 30
0.0
 10
297.3776857490863
 20
68.04152389997229
 30
0.0
  0
SPLINE
  5
356
330
1F
100
AcDbEntity
  8
0
  6
Continuous
 62
     7
370
    25
100
AcDbSpline
210
0.0
220
0.0
230
1.0
 70
    24
 71
     3
 72
     9
 73
     5
 74
     0
 42
0.00000001
 43
0.00000001
 40
0.0
 40
0.0
 40
0.0
 40
0.0
 40
0.4989631660071376
 40
1.0
 40
1.0
 40
1.0
 40
1.0
 10
297.3776857490863
 20
68.04152389997229
 30
0.0
 10
298.6205575532846
 20
68.7590962706944
 30
0.0
 10
301.1114664797776
 20
70.19722320993195
 30
0.0
 10
303.6205449940538
 20
71.64584036556724
 30
0.0
 10
304.8776857490863
 20
72.37165091889449
 30
0.0
  0
CIRCLE
  5
357
330
1F
100
AcDbEntity
  8
0
  6
Continuous
 62
     7
370
    25
100
AcDbCircle
 10
312.3776857491
 20
59.3812698621
 30
0.0
 40
10.00925044188968
  0
CIRCLE
  5
358
330
1F
100
AcDbEntity
  8
0
  6
Continuous
 62
     7
370
    25
100
AcDbCircle
 10
312.3776857491
 20
59.3812698621
 30
0.0
 40
8.75
  0
CIRCLE
  5
359
330
1F
100
AcDbEntity
  8
0
  6
Continuous
 62
     7
370
    25
100
AcDbCircle
 10
312.3776857491
 20
59.3812698621
 30
0.0
 40
6.5
  0
ARC
  5
35A
330
1F
100
AcDbEntity
  8
0
  6
Continuous
 62
     7
370
    25
100
AcDbCircle
 10
312.3776857491
 20
59.3812698621
 30
0.0
 40
16.00000000000002
100
AcDbArc
 50
159.6418587404
 51
180.0
  0
ARC
  5
35B
330
1F
100
AcDbEntity
  8
0
  6
Continuous
 62
     7
370
    25
100
AcDbCircle
 10
312.3776857491
 20
59.3812698621
 30
0.0
 40
16.00000000000003
100
AcDbArc
 50
99.9000605029
 51
140.1814496192
  0
ARC
  5
35C
330
1F
100
AcDbEntity
  8
0
  6
Continuous
 62
     7
370
    25
100
AcDbCircle
 10
312.3776857491
 20
59.3812698621
 30
0.0
 40
16.00000000000001
100
AcDbArc
 50
40.086151639
 51
80.0291895336
  0
ARC
  5
35D
330
1F
100
AcDbEntity
  8
0
  6
Continuous
 62
     7
370
    25
100
AcDbCircle
 10
312.3776857491
 20
59.3812698621
 30
0.0
 40
16.0
100
AcDbArc
 50
0.0
 51
19.904961303
  0
ARC
  5
35E
330
1F
100
AcDbEntity
  8
0
  6
Continuous
 62
     7
370
    25
100
AcDbCircle
 10
312.3776857491
 20
59.3812698621
 30
0.0
 40
16.0
100
AcDbArc
 50
339.6418587404
 51
0.0
  0
ARC
  5
35F
330
1F
100
AcDbEntity
  8
0
  6
Continuous
 62
     7
370
    25
100
AcDbCircle
 10
312.3776857491
 20
59.3812698621
 30
0.0
 40
16.0
100
AcDbArc
 50
279.9000605029
 51
320.1814496192
  0
ARC
  5
360
330
1F
100
AcDbEntity
  8
0
  6
Continuous
 62
     7
370
    25
100
AcDbCircle
 10
312.3776857491
 20
59.3812698621
 30
0.0
 40
16.0
100
AcDbArc
 50
220.086151639
 51
260.0291895336
  0
ARC
  5
361
330
1F
100
AcDbEntity
  8
0
  6
Continuous
 62
     7
370
    25
100
AcDbCircle
 10
312.3776857491
 20
59.3812698621
 30
0.0
 40
16.00000000000003
100
AcDbArc
 50
180.0
 51
199.904961303
  0
LINE
  5
362
330
1F
100
AcDbEntity
  8
0
  6
Continuous
 62
     7
370
    25
100
AcDbLine
 10
328.8776857491
 20
40.3812698621
 30
0.0
 11
295.8776857491
 21
40.3812698621
 31
0.0
  0
ARC
  5
363
330
1F
100
AcDbEntity
  8
0
  6
Continuous
 62
     7
370
    25
100
AcDbCircle
 10
295.8776857491
 20
41.3812698621
 30
0.0
 40
1.0
100
AcDbArc
 50
180.0
 51
270.0
  0
LINE
  5
364
330
1F
100
AcDbEntity
  8
0
  6
Continuous
 62
     7
370
    25
100
AcDbLine
 10
294.8776857491
 20
41.3812698621
 30
0.0
 11
294.8776857491
 21
79.3812698621
 31
0.0
  0
ARC
  5
365
330
1F
100
AcDbEntity
  8
0
  6
Continuous
 62
     7
370
    25
100
AcDbCircle
 10
295.8776857491
 20
79.3812698621
 30
0.0
 40
1.0
100
AcDbArc
 50
90.0
 51
180.0
  0
LINE
  5
366
330
1F
100
AcDbEntity
  8
0
  6
Continuous
 62
     7
370
    25
100
AcDbLine
 10
295.8776857491
 20
80.3812698621
 30
0.0
 11
328.8776857491
 21
80.3812698621
 31
0.0
  0
LINE
  5
367
330
1F
100
AcDbEntity
  8
0
  6
Continuous
 62
     7
370
    25
100
AcDbLine
 10
329.8776857491
 20
79.3812698621
 30
0.0
 11
329.8776857491
 21
41.3812698621
 31
0.0
  0
ARC
  5
368
330
1F
100
AcDbEntity
  8
0
  6
Continuous
 62
     7
370
    25
100
AcDbCircle
 10
328.8776857491
 20
41.3812698621
 30
0.0
 40
1.0
100
AcDbArc
 50
270.0
 51
0.0
  0
ARC
  5
369
330
1F
100
AcDbEntity
  8
0
  6
Continuous
 62
     7
370
    25
100
AcDbCircle
 10
328.8776857491
 20
79.3812698621
 30
0.0
 40
1.0
100
AcDbArc
 50
0.0
 51
90.0
  0
LINE
  5
36A
330
1F
100
AcDbEntity
  8
0
  6
Continuous
 62
     7
370
    25
100
AcDbLine
 10
314.8776375252
 20
80.8812698621
 30
0.0
 11
316.1692792762
 21
80.8812698621
 31
0.0
  0
LINE
  5
36B
330
1F
100
AcDbEntity
  8
0
  6
Continuous
 62
     7
370
    25
100
AcDbLine
 10
316.1692792762
 20
83.8812698621
 30
0.0
 11
314.8776375252
 21
83.8812698621
 31
0.0
  0
LINE
  5
36C
330
1F
100
AcDbEntity
  8
0
  6
Continuous
 62
     7
370
    25
100
AcDbLine
 10
308.586092222
 20
80.8812698621
 30
0.0
 11
309.877733973
 21
80.8812698621
 31
0.0
  0
LINE
  5
36D
330
1F
100
AcDbEntity
  8
0
  6
Continuous
 62
     7
370
    25
100
AcDbLine
 10
309.877733973
 20
83.8812698621
 30
0.0
 11
308.586092222
 21
83.8812698621
 31
0.0
  0
LINE
  5
36E
330
1F
100
AcDbEntity
  8
0
  6
Continuous
 62
     7
370
    25
100
AcDbLine
 10
325.3776857491
 20
80.8812698621
 30
0.0
 11
316.1692792762
 21
80.8812698621
 31
0.0
  0
LINE
  5
36F
330
1F
100
AcDbEntity
  8
0
  6
Continuous
 62
     7
370
    25
100
AcDbLine
 10
325.3776857491
 20
83.8812698621
 30
0.0
 11
316.1692792762
 21
83.8812698621
 31
0.0
  0
LINE
  5
370
330
1F
100
AcDbEntity
  8
0
  6
Continuous
 62
     7
370
    25
100
AcDbLine
 10
308.586092222
 20
80.8812698621
 30
0.0
 11
299.9429031404
 21
80.8812698621
 31
0.0
  0
LINE
  5
371
330
1F
100
AcDbEntity
  8
0
  6
Continuous
 62
     7
370
    25
100
AcDbLine
 10
308.586092222
 20
83.8812698621
 30
0.0
 11
299.9429031404
 21
83.8812698621
 31
0.0
  0
LINE
  5
372
330
1F
100
AcDbEntity
  8
0
  6
Continuous
 62
     7
370
    25
100
AcDbLine
 10
314.8776375252
 20
80.8812698621
 30
0.0
 11
309.877733973
 21
80.8812698621
 31
0.0
  0
LINE
  5
373
330
1F
100
AcDbEntity
  8
0
  6
Continuous
 62
     7
370
    25
100
AcDbLine
 10
309.877733973
 20
83.8812698621
 30
0.0
 11
314.8776375252
 21
83.8812698621
 31
0.0
  0
ARC
  5
374
330
1F
100
AcDbEntity
  8
0
  6
Continuous
 62
     7
370
    25
100
AcDbCircle
 10
305.7776857491
 20
80.4812698621
 30
0.0
 40
0.4000000000000199
100
AcDbArc
 50
90.0
 51
180.0
  0
LINE
  5
375
330
1F
100
AcDbEntity
  8
0
  6
Continuous
 62
     7
370
    25
100
AcDbLine
 10
313.0858028891
 20
83.8812698621
 30
0.0
 11
313.0858028891
 21
84.0812698621
 31
0.0
  0
LINE
  5
376
330
1F
100
AcDbEntity
  8
0
  6
Continuous
 62
     7
370
    25
100
AcDbLine
 10
311.6695686091
 20
84.0812698621
 30
0.0
 11
311.6695686091
 21
83.8812698621
 31
0.0
  0
LINE
  5
377
330
1F
100
AcDbEntity
  8
0
  6
Continuous
 62
     7
370
    25
100
AcDbLine
 10
318.0335296398
 20
84.0812698621
 30
0.0
 11
318.0335296398
 21
83.8812698621
 31
0.0
  0
LINE
  5
378
330
1F
100
AcDbEntity
  8
0
  6
Continuous
 62
     7
370
    25
100
AcDbLine
 10
306.7218418584
 20
83.8812698621
 30
0.0
 11
306.7218418584
 21
84.0812698621
 31
0.0
  0
LINE
  5
379
330
1F
100
AcDbEntity
  8
0
  6
Continuous
 62
     7
370
    25
100
AcDbLine
 10
299.8994248795
 20
80.8812698621
 30
0.0
 11
299.9429031404
 21
80.8812698621
 31
0.0
  0
LINE
  5
37A
330
1F
100
AcDbEntity
  8
0
  6
Continuous
 62
     7
370
    25
100
AcDbLine
 10
299.9429031404
 20
83.8812698621
 30
0.0
 11
299.8994248795
 21
83.8812698621
 31
0.0
  0
LINE
  5
37B
330
1F
100
AcDbEntity
  8
0
  6
Continuous
 62
     7
370
    25
100
AcDbLine
 10
298.5022547204
 20
82.8812698621
 30
0.0
 11
299.8994248795
 21
82.8812698621
 31
0.0
  0
LINE
  5
37C
330
1F
100
AcDbEntity
  8
0
  6
Continuous
 62
     7
370
    25
100
AcDbLine
 10
298.0922547204
 20
80.9312698621
 30
0.0
 11
299.8994248795
 21
80.9312698621
 31
0.0
  0
SPLINE
  5
37D
330
1F
100
AcDbEntity
  8
0
  6
PHANTOM
 62
     8
370
    18
100
AcDbSpline
210
0.0
220
0.0
230
1.0
 70
    24
 71
     3
 72
    10
 73
     6
 74
     0
 42
0.00000001
 43
0.00000001
 40
0.0
 40
0.0
 40
0.0
 40
0.0
 40
0.280102472965356
 40
0.6505181497265685
 40
1.0
 40
1.0
 40
1.0
 40
1.0
 10
305.6550610851092
 20
96.86579980828996
 30
0.0
 10
305.6586048748544
 20
96.86579980828996
 30
0.0
 10
305.6668350754795
 20
96.86579980828996
 30
0.0
 10
305.9650137574314
 20
96.86579980828999
 30
0.0
 10
306.3467139080387
 20
96.86579980828998
 30
0.0
 10
306.5320142735413
 20
96.86579980828996
 30
0.0
  0
SPLINE
  5
37E
330
1F
100
AcDbEntity
  8
0
  6
PHANTOM
 62
     8
370
    18
100
AcDbSpline
210
0.0
220
0.0
230
1.0
 70
    24
 71
     3
 72
    21
 73
    17
 74
     0
 42
0.00000001
 43
0.00000001
 40
0.0
 40
0.0
 40
0.0
 40
0.0
 40
0.0699122699355502
 40
0.1440122575653178
 40
0.2211928740222124
 40
0.3000113738959904
 40
0.3788298737697684
 40
0.4560104902266632
 40
0.5301104778564307
 40
0.6000227477919827
 40
0.6699350177275316
 40
0.7440350053572996
 40
0.8212156218141948
 40
0.9000341216879733
 40
0.9788526215617517
 40
1.0
 40
1.0
 40
1.0
 40
1.0
 10
306.5320142735413
 20
96.86579980828996
 30
0.0
 10
306.7568258435376
 20
96.86579980828998
 30
0.0
 10
307.2199151088671
 20
96.86579980828999
 30
0.0
 10
308.1741634955991
 20
96.86579980828996
 30
0.0
 10
309.3183196010501
 20
96.86579980828996
 30
0.0
 10
310.618413258652
 20
96.86579980828996
 30
0.0
 10
311.9914616633567
 20
96.86579980828998
 30
0.0
 10
313.3525104071198
 20
96.86579980828996
 30
0.0
 10
314.6228372090047
 20
96.86579980828996
 30
0.0
 10
315.7715101022408
 20
96.86579980828999
 30
0.0
 10
316.8049817337298
 20
96.86579980828996
 30
0.0
 10
317.7125047260901
 20
96.86579980828998
 30
0.0
 10
318.4512713105881
 20
96.86579980828996
 30
0.0
 10
318.9305614899819
 20
96.86579980828996
 30
0.0
 10
319.1463338363656
 20
96.86579980828998
 30
0.0
 10
319.1083464842228
 20
96.86579980828996
 30
0.0
 10
319.1003104130634
 20
96.86579980828996
 30
0.0
  0
SPLINE
  5
37F
330
1F
100
AcDbEntity
  8
0
  6
PHANTOM
 62
     8
370
    18
100
AcDbSpline
210
0.0
220
0.0
230
1.0
 70
    24
 71
     3
 72
    10
 73
     6
 74
     0
 42
0.00000001
 43
0.00000001
 40
0.0
 40
0.0
 40
0.0
 40
0.0
 40
0.2791573038698243
 40
0.6500593074164854
 40
1.0
 40
1.0
 40
1.0
 40
1.0
 10
305.7548633692466
 20
97.03900488904686
 30
0.0
 10
305.7583665863613
 20
97.03900488904686
 30
0.0
 10
305.7665243485252
 20
97.03900488904685
 30
0.0
 10
306.0600465133506
 20
97.03900488904688
 30
0.0
 10
306.4360715112021
 20
97.03900488904688
 30
0.0
 10
306.6186168139198
 20
97.03900488904686
 30
0.0
  0
LINE
  5
380
330
1F
100
AcDbEntity
  8
0
  6
PHANTOM
 62
     8
370
    18
100
AcDbLine
 10
306.6186168139
 20
97.039004889
 30
0.0
 11
306.8283861456
 21
97.039004889
 31
0.0
  0
SPLINE
  5
381
330
1F
100
AcDbEntity
  8
0
  6
PHANTOM
 62
     8
370
    18
100
AcDbSpline
210
0.0
220
0.0
230
1.0
 70
     8
 71
     3
 72
     9
 73
     5
 74
     0
 42
0.00000001
 43
0.00000001
 40
0.0
 40
0.0
 40
0.0
 40
0.0
 40
0.4962770252590239
 40
1.0
 40
1.0
 40
1.0
 40
1.0
 10
308.1275646006264
 20
98.42397133323585
 30
0.0
 10
308.1251248132736
 20
98.40166489096431
 30
0.0
 10
308.1202086329374
 20
98.3567173291466
 30
0.0
 10
308.1029072194842
 20
98.13460488669435
 30
0.0
 10
308.0941921000324
 20
98.02272174645529
 30
0.0
  0
SPLINE
  5
382
330
1F
100
AcDbEntity
  8
0
  6
PHANTOM
 62
     8
370
    18
100
AcDbSpline
210
0.0
220
0.0
230
1.0
 70
     8
 71
     3
 72
    11
 73
     7
 74
     0
 42
0.00000001
 43
0.00000001
 40
0.0
 40
0.0
 40
0.0
 40
0.0
 40
0.2519805309852625
 40
0.500020291260012
 40
0.7481632336563503
 40
1.0
 40
1.0
 40
1.0
 40
1.0
 10
308.0941921000324
 20
98.0227217464553
 30
0.0
 10
308.451769169948
 20
98.13341718396187
 30
0.0
 10
309.1613310950221
 20
98.3530768722988
 30
0.0
 10
310.2547032603408
 20
98.46057061150333
 30
0.0
 10
311.3352901222518
 20
98.34741794364992
 30
0.0
 10
312.0285133744272
 20
98.13148557786306
 30
0.0
 10
312.3776857490863
 20
98.02272174645529
 30
0.0
  0
SPLINE
  5
383
330
1F
100
AcDbEntity
  8
0
  6
PHANTOM
 62
     8
370
    18
100
AcDbSpline
210
0.0
220
0.0
230
1.0
 70
     8
 71
     3
 72
    11
 73
     7
 74
     0
 42
0.00000001
 43
0.00000001
 40
0.0
 40
0.0
 40
0.0
 40
0.0
 40
0.2519803780325563
 40
0.5000207188848929
 40
0.7481636611739626
 40
1.0
 40
1.0
 40
1.0
 40
1.0
 10
312.3776857490863
 20
98.0227217464553
 30
0.0
 10
312.7264951713159
 20
98.13340973442266
 30
0.0
 10
313.4186599319965
 20
98.35305496135457
 30
0.0
 10
314.5009707067396
 20
98.46051656904005
 30
0.0
 10
315.5937481157155
 20
98.34740285488573
 30
0.0
 10
316.3036210035231
 20
98.13148046264092
 30
0.0
 10
316.6611793981401
 20
98.0227217464553
 30
0.0
  0
SPLINE
  5
384
330
1F
100
AcDbEntity
  8
0
  6
PHANTOM
 62
     8
370
    18
100
AcDbSpline
210
0.0
220
0.0
230
1.0
 70
     8
 71
     3
 72
    10
 73
     6
 74
     0
 42
0.00000001
 43
0.00000001
 40
0.0
 40
0.0
 40
0.0
 40
0.0
 40
0.5039116014025483
 40
0.9999424349071541
 40
1.0
 40
1.0
 40
1.0
 40
1.0
 10
316.6611793981402
 20
98.0227217464553
 30
0.0
 10
316.6528881151575
 20
98.12817220187574
 30
0.0
 10
316.6364352181192
 20
98.33742395329739
 30
0.0
 10
316.6243501889712
 20
98.46082376843205
 30
0.0
 10
316.6278064964832
 20
98.42397560902164
 30
0.0
 10
316.6278068975461
 20
98.42397133323585
 30
0.0
  0
SPLINE
  5
385
330
1F
100
AcDbEntity
  8
0
  6
PHANTOM
 62
     8
370
    18
100
AcDbSpline
210
0.0
220
0.0
230
1.0
 70
     8
 71
     3
 72
    11
 73
     7
 74
     0
 42
0.00000001
 43
0.00000001
 40
0.0
 40
0.0
 40
0.0
 40
0.0
 40
0.2804312944588831
 40
0.55974133555025
 40
0.7794498005208728
 40
0.9999999999999999
 40
0.9999999999999999
 40
0.9999999999999999
 40
0.9999999999999999
 10
316.3776115083772
 20
98.53517054603164
 30
0.0
 10
316.0081838928874
 20
98.63195445179223
 30
0.0
 10
315.2708057508278
 20
98.82513529052395
 30
0.0
 10
314.2145716351027
 20
98.88421479056103
 30
0.0
 10
313.2455637069002
 20
98.77454866989102
 30
0.0
 10
312.6673451915606
 20
98.61529090927165
 30
0.0
 10
312.3776831832953
 20
98.53550978578801
 30
0.0
  0
SPLINE
  5
386
330
1F
100
AcDbEntity
  8
0
  6
PHANTOM
 62
     8
370
    18
100
AcDbSpline
210
0.0
220
0.0
230
1.0
 70
     8
 71
     3
 72
    11
 73
     7
 74
     0
 42
0.00000001
 43
0.00000001
 40
0.0
 40
0.0
 40
0.0
 40
0.0
 40
0.2804325661057824
 40
0.5597427362698699
 40
0.779450267430745
 40
1.0
 40
1.0
 40
1.0
 40
1.0
 10
312.3776117771615
 20
98.53517174452679
 30
0.0
 10
312.0081830646183
 20
98.63196352660478
 30
0.0
 10
311.270804231314
 20
98.8251596938728
 30
0.0
 10
310.2145660299335
 20
98.88426727056107
 30
0.0
 10
309.2455585190288
 20
98.77457188902521
 30
0.0
 10
308.6673434007182
 20
98.6152998763538
 30
0.0
 10
308.3776827858532
 20
98.53551152828017
 30
0.0
  0
LINE
  5
387
330
1F
100
AcDbEntity
  8
0
  6
PHANTOM
 62
     8
370
    18
100
AcDbLine
 10
312.3574108434
 20
95.8812698621
 30
0.0
 11
312.4250328737
 21
95.8812698621
 31
0.0
  0
LINE
  5
388
330
1F
100
AcDbEntity
  8
0
  6
PHANTOM
 62
     8
370
    18
100
AcDbLine
 10
318.7136647815
 20
95.8812698621
 30
0.0
 11
318.7055255871
 21
95.9812698621
 31
0.0
  0
LINE
  5
389
330
1F
100
AcDbEntity
  8
0
  6
PHANTOM
 62
     8
370
    18
100
AcDbLine
 10
318.5993041126
 20
97.2863311422
 30
0.0
 11
317.2922850895
 21
113.3446651818
 31
0.0
  0
LINE
  5
38A
330
1F
100
AcDbEntity
  8
0
  6
PHANTOM
 62
     8
370
    18
100
AcDbLine
 10
319.4884299017
 20
95.8812698621
 30
0.0
 11
318.2821747731
 21
112.6356877052
 31
0.0
  0
LINE
  5
38B
330
1F
100
AcDbEntity
  8
0
  6
PHANTOM
 62
     8
370
    18
100
AcDbLine
 10
306.0417067167
 20
95.8812698621
 30
0.0
 11
306.0498459111
 21
95.9812698621
 31
0.0
  0
LINE
  5
38C
330
1F
100
AcDbEntity
  8
0
  6
PHANTOM
 62
     8
370
    18
100
AcDbLine
 10
306.1560673856
 20
97.2863311422
 30
0.0
 11
307.4630864087
 21
113.3446651818
 31
0.0
  0
LINE
  5
38D
330
1F
100
AcDbEntity
  8
0
  6
PHANTOM
 62
     8
370
    18
100
AcDbLine
 10
305.2669415965
 20
95.8812698621
 30
0.0
 11
306.4731967251
 21
112.6356877052
 31
0.0
  0
LINE
  5
38E
330
1F
100
AcDbEntity
  8
0
  6
PHANTOM
 62
     8
370
    18
100
AcDbLine
 10
306.4731967251
 20
112.6356877052
 30
0.0
 11
307.6718033961
 21
123.7047992739
 31
0.0
  0
LINE
  5
38F
330
1F
100
AcDbEntity
  8
0
  6
PHANTOM
 62
     8
370
    18
100
AcDbLine
 10
317.2922850895
 20
113.3446651818
 30
0.0
 11
316.2238039827
 21
124.1120539314
 31
0.0
  0
LINE
  5
390
330
1F
100
AcDbEntity
  8
0
  6
PHANTOM
 62
     8
370
    18
100
AcDbLine
 10
318.2821747731
 20
112.6356877052
 30
0.0
 11
317.083568102
 21
123.7047992739
 31
0.0
  0
LINE
  5
391
330
1F
100
AcDbEntity
  8
0
  6
PHANTOM
 62
     8
370
    18
100
AcDbLine
 10
307.4630864087
 20
113.3446651818
 30
0.0
 11
308.5315675155
 21
124.1120539314
 31
0.0
  0
SPLINE
  5
392
330
1F
100
AcDbEntity
  8
0
  6
PHANTOM
 62
     8
370
    18
100
AcDbSpline
210
0.0
220
0.0
230
1.0
 70
    24
 71
     3
 72
    12
 73
     8
 74
     0
 42
0.00000001
 43
0.00000001
 40
0.0
 40
0.0
 40
0.0
 40
0.0
 40
0.1953079019820321
 40
0.389745681498958
 40
0.5803286157885684
 40
0.7963349348810661
 40
1.0
 40
1.0
 40
1.0
 40
1.0
 10
306.8776857490863
 20
122.3812698621279
 30
0.0
 10
306.4710837219757
 20
122.3812698621279
 30
0.0
 10
305.6596911334174
 20
122.3812698621279
 30
0.0
 10
304.7071918489821
 20
122.3812698621279
 30
0.0
 10
303.9599869058468
 20
122.3812698621279
 30
0.0
 10
303.4700940774995
 20
122.3812698621279
 30
0.0
 10
303.4078786701709
 20
122.3812698621279
 30
0.0
 10
303.3776857490863
 20
122.3812698621279
 30
0.0
  0
SPLINE
  5
393
330
1F
100
AcDbEntity
  8
0
  6
PHANTOM
 62
     8
370
    18
100
AcDbSpline
210
0.0
220
0.0
230
1.0
 70
    24
 71
     3
 72
    12
 73
     8
 74
     0
 42
0.00000001
 43
0.00000001
 40
0.0
 40
0.0
 40
0.0
 40
0.0
 40
0.1720243806436076
 40
0.353257764448101
 40
0.5418093386599167
 40
0.769924885037854
 40
1.0
 40
1.0
 40
1.0
 40
1.0
 10
321.3776857490863
 20
122.3812698621279
 30
0.0
 10
321.3561602134891
 20
122.3812698621279
 30
0.0
 10
321.3119568130458
 20
122.3812698621279
 30
0.0
 10
320.9454451989584
 20
122.3812698621279
 30
0.0
 10
320.2935311974471
 20
122.3812698621279
 30
0.0
 10
319.3005831367705
 20
122.3812698621279
 30
0.0
 10
318.3533352602528
 20
122.3812698621279
 30
0.0
 10
317.8776857490863
 20
122.3812698621279
 30
0.0
  0
LINE
  5
394
330
1F
100
AcDbEntity
  8
0
  6
PHANTOM
 62
     8
370
    18
100
AcDbLine
 10
314.8776375252
 20
83.8812698621
 30
0.0
 11
314.8776375252
 21
80.8812698621
 31
0.0
  0
LINE
  5
395
330
1F
100
AcDbEntity
  8
0
  6
PHANTOM
 62
     8
370
    18
100
AcDbLine
 10
316.1692792762
 20
80.8812698621
 30
0.0
 11
316.1692792762
 21
83.8812698621
 31
0.0
  0
LINE
  5
396
330
1F
100
AcDbEntity
  8
0
  6
PHANTOM
 62
     8
370
    18
100
AcDbLine
 10
309.877733973
 20
80.8812698621
 30
0.0
 11
309.877733973
 21
83.8812698621
 31
0.0
  0
LINE
  5
397
330
1F
100
AcDbEntity
  8
0
  6
PHANTOM
 62
     8
370
    18
100
AcDbLine
 10
308.586092222
 20
83.8812698621
 30
0.0
 11
308.586092222
 21
80.8812698621
 31
0.0
  0
LINE
  5
398
330
1F
100
AcDbEntity
  8
0
  6
PHANTOM
 62
     8
370
    18
100
AcDbLine
 10
299.9429031404
 20
80.8812698621
 30
0.0
 11
299.9429031404
 21
83.8812698621
 31
0.0
  0
LINE
  5
399
330
1F
100
AcDbEntity
  8
0
  6
PHANTOM
 62
     8
370
    18
100
AcDbLine
 10
312.3776857491
 20
80.4812698621
 30
0.0
 11
319.3776857491
 21
80.4812698621
 31
0.0
  0
LINE
  5
39A
330
1F
100
AcDbEntity
  8
0
  6
PHANTOM
 62
     8
370
    18
100
AcDbLine
 10
305.3776857491
 20
80.4812698621
 30
0.0
 11
312.3776857491
 21
80.4812698621
 31
0.0
  0
DIMENSION
  5
39B
330
1F
100
AcDbEntity
  8
0
  6
Continuous
 62
     7
370
    18
100
AcDbDimension
  2
_D_2
 10
329.8776857491
 20
30.3812698621
 30
0.0
 11
311.238905123
 21
30.3812698621
 31
0.0
 70
   160
  1
<>
 71
     2
 42
-1.0
  3
SLDDIMSTYLE1
100
AcDbAlignedDimension
 13
294.8776857491
 23
41.3812698621
 33
0.0
 14
329.8776857491
 24
41.3812698621
 34
0.0
100
AcDbRotatedDimension
  0
ENDSEC
  0
SECTION
  2
OBJECTS
  0
DICTIONARY
  5
C
330
0
100
AcDbDictionary
281
     1
  3
ACAD_GROUP
350
D
  3
ACAD_LAYOUT
350
1A
  3
ACAD_MLINESTYLE
350
17
  3
ACAD_PLOTSETTINGS
350
19
  3
ACAD_PLOTSTYLENAME
350
E
  3
ACAD_SCALELIST
350
47
  3
DWGPROPS
350
3A5
  0
DICTIONARY
  5
D
102
{ACAD_REACTORS
330
C
102
}
330
C
100
AcDbDictionary
281
     1
  0
DICTIONARY
  5
1A
102
{ACAD_REACTORS
330
C
102
}
330
C
100
AcDbDictionary
281
     1
  3
Layout1
350
1E
  3
Layout2
350
26
  3
Model
350
22
  0
DICTIONARY
  5
17
102
{ACAD_REACTORS
330
C
102
}
330
C
100
AcDbDictionary
281
     1
  3
Standard
350
18
  0
DICTIONARY
  5
19
102
{ACAD_REACTORS
330
C
102
}
330
C
100
AcDbDictionary
281
     1
  0
ACDBDICTIONARYWDFLT
  5
E
102
{ACAD_REACTORS
330
C
102
}
330
C
100
AcDbDictionary
281
     1
  3
Normal
350
F
100
AcDbDictionaryWithDefault
340
F
  0
DICTIONARY
  5
47
102
{ACAD_REACTORS
330
C
102
}
330
C
100
AcDbDictionary
281
     1
  3
A0
350
48
  3
A1
350
49
  3
A2
350
4A
  3
A3
350
4B
  3
A4
350
4C
  3
A5
350
4D
  3
A6
350
4E
  3
A7
350
4F
  3
A8
350
50
  3
A9
350
51
  3
B0
350
52
  3
B1
350
53
  3
B2
350
54
  3
B3
350
55
  3
B4
350
56
  3
B5
350
57
  3
B6
350
58
  3
B7
350
59
  3
B8
350
5A
  3
B9
350
5B
  3
C0
350
5C
  3
C1
350
5D
  3
C2
350
5E
  3
C3
350
5F
  3
C4
350
60
  3
C5
350
61
  3
C6
350
62
  3
C7
350
63
  3
C8
350
64
  3
C9
350
65
  3
D0
350
66
  3
D1
350
67
  3
D2
350
68
  0
XRECORD
  5
3A5
102
{ACAD_REACTORS
330
C
102
}
330
C
100
AcDbXrecord
280
     1
  1
DWGPROPS COOKIE
  2

  3

  4

  6

  7

  8
npc.flotec.eng
  9

300
=
301
=
302
=
303
=
304
=
305
=
306
=
307
=
308
=
309
=
 40
0.0
 41
2459564.302579144
 42
2459564.30258059
  1

 90
        0
  0
LAYOUT
  5
1E
102
{ACAD_REACTORS
330
1A
102
}
330
1A
100
AcDbPlotSettings
  1

  2
none_device
  4

  6

 40
0.0
 41
0.0
 42
0.0
 43
0.0
 44
0.0
 45
0.0
 46
0.0
 47
0.0
 48
0.0
 49
0.0
140
0.0
141
0.0
142
1.0
143
1.0
 70
   688
 72
     1
 73
     0
 74
     5
  7

 75
    16
147
1.0
148
0.0
149
0.0
100
AcDbLayout
  1
Layout1
 70
     1
 71
     1
 10
0.0
 20
0.0
 11
420.0
 21
297.0
 12
0.0
 22
0.0
 32
0.0
 14
1.0000000000E+20
 24
1.0000000000E+20
 34
1.0000000000E+20
 15
-1.0000000000E+20
 25
-1.0000000000E+20
 35
-1.0000000000E+20
146
0.0
 13
0.0
 23
0.0
 33
0.0
 16
1.0
 26
0.0
 36
0.0
 17
0.0
 27
1.0
 37
0.0
 76
     0
330
1B
  0
LAYOUT
  5
26
102
{ACAD_REACTORS
330
1A
102
}
330
1A
100
AcDbPlotSettings
  1

  2
none_device
  4

  6

 40
0.0
 41
0.0
 42
0.0
 43
0.0
 44
0.0
 45
0.0
 46
0.0
 47
0.0
 48
0.0
 49
0.0
140
0.0
141
0.0
142
1.0
143
1.0
 70
   688
 72
     1
 73
     0
 74
     5
  7

 75
    16
147
1.0
148
0.0
149
0.0
100
AcDbLayout
  1
Layout2
 70
     1
 71
     2
 10
0.0
 20
0.0
 11
0.0
 21
0.0
 12
0.0
 22
0.0
 32
0.0
 14
0.0
 24
0.0
 34
0.0
 15
0.0
 25
0.0
 35
0.0
146
0.0
 13
0.0
 23
0.0
 33
0.0
 16
1.0
 26
0.0
 36
0.0
 17
0.0
 27
1.0
 37
0.0
 76
     0
330
23
  0
LAYOUT
  5
22
102
{ACAD_REACTORS
330
1A
102
}
330
1A
100
AcDbPlotSettings
  1

  2
none_device
  4
Letter_(8.50_x_11.00_Inches)
  6

 40
6.35
 41
6.35
 42
6.35000508
 43
6.35000508
 44
215.9
 45
279.4
 46
0.0
 47
0.0
 48
0.0
 49
0.0
140
0.0
141
0.0
142
1.0
143
1.0
 70
  1712
 72
     1
 73
     0
 74
     0
  7

 75
     0
147
1.0
148
0.0
149
0.0
100
AcDbLayout
  1
Model
 70
     1
 71
     0
 10
0.0
 20
0.0
 11
420.0
 21
297.0
 12
0.0
 22
0.0
 32
0.0
 14
0.0
 24
0.0
 34
0.0
 15
420.0
 25
297.0
 35
0.0
146
0.0
 13
0.0
 23
0.0
 33
0.0
 16
1.0
 26
0.0
 36
0.0
 17
0.0
 27
1.0
 37
0.0
 76
     0
330
1F
331
29
  0
MLINESTYLE
  5
18
102
{ACAD_REACTORS
330
17
102
}
330
17
100
AcDbMlineStyle
  2
Standard
 70
     0
  3

 62
   256
 51
90.0
 52
90.0
 71
     2
 49
0.5
 62
   256
  6
BYLAYER
 49
-0.5
 62
   256
  6
BYLAYER
  0
ACDBPLACEHOLDER
  5
F
102
{ACAD_REACTORS
330
E
102
}
330
E
  0
SCALE
  5
48
102
{ACAD_REACTORS
330
47
102
}
330
47
100
AcDbScale
 70
     0
300
1:1
140
1.0
141
1.0
290
     1
  0
SCALE
  5
49
102
{ACAD_REACTORS
330
47
102
}
330
47
100
AcDbScale
 70
     0
300
1:2
140
1.0
141
2.0
290
     0
  0
SCALE
  5
4A
102
{ACAD_REACTORS
330
47
102
}
330
47
100
AcDbScale
 70
     0
300
1:4
140
1.0
141
4.0
290
     0
  0
SCALE
  5
4B
102
{ACAD_REACTORS
330
47
102
}
330
47
100
AcDbScale
 70
     0
300
1:5
140
1.0
141
5.0
290
     0
  0
SCALE
  5
4C
102
{ACAD_REACTORS
330
47
102
}
330
47
100
AcDbScale
 70
     0
300
1:8
140
1.0
141
8.0
290
     0
  0
SCALE
  5
4D
102
{ACAD_REACTORS
330
47
102
}
330
47
100
AcDbScale
 70
     0
300
1:10
140
1.0
141
10.0
290
     0
  0
SCALE
  5
4E
102
{ACAD_REACTORS
330
47
102
}
330
47
100
AcDbScale
 70
     0
300
1:16
140
1.0
141
16.0
290
     0
  0
SCALE
  5
4F
102
{ACAD_REACTORS
330
47
102
}
330
47
100
AcDbScale
 70
     0
300
1:20
140
1.0
141
20.0
290
     0
  0
SCALE
  5
50
102
{ACAD_REACTORS
330
47
102
}
330
47
100
AcDbScale
 70
     0
300
1:30
140
1.0
141
30.0
290
     0
  0
SCALE
  5
51
102
{ACAD_REACTORS
330
47
102
}
330
47
100
AcDbScale
 70
     0
300
1:40
140
1.0
141
40.0
290
     0
  0
SCALE
  5
52
102
{ACAD_REACTORS
330
47
102
}
330
47
100
AcDbScale
 70
     0
300
1:50
140
1.0
141
50.0
290
     0
  0
SCALE
  5
53
102
{ACAD_REACTORS
330
47
102
}
330
47
100
AcDbScale
 70
     0
300
1:100
140
1.0
141
100.0
290
     0
  0
SCALE
  5
54
102
{ACAD_REACTORS
330
47
102
}
330
47
100
AcDbScale
 70
     0
300
2:1
140
2.0
141
1.0
290
     0
  0
SCALE
  5
55
102
{ACAD_REACTORS
330
47
102
}
330
47
100
AcDbScale
 70
     0
300
4:1
140
4.0
141
1.0
290
     0
  0
SCALE
  5
56
102
{ACAD_REACTORS
330
47
102
}
330
47
100
AcDbScale
 70
     0
300
8:1
140
8.0
141
1.0
290
     0
  0
SCALE
  5
57
102
{ACAD_REACTORS
330
47
102
}
330
47
100
AcDbScale
 70
     0
300
10:1
140
10.0
141
1.0
290
     0
  0
SCALE
  5
58
102
{ACAD_REACTORS
330
47
102
}
330
47
100
AcDbScale
 70
     0
300
100:1
140
100.0
141
1.0
290
     0
  0
SCALE
  5
59
102
{ACAD_REACTORS
330
47
102
}
330
47
100
AcDbScale
 70
     0
300
1/128" = 1'-0"
140
0.0078125
141
12.0
290
     0
  0
SCALE
  5
5A
102
{ACAD_REACTORS
330
47
102
}
330
47
100
AcDbScale
 70
     0
300
1/64" = 1'-0"
140
0.015625
141
12.0
290
     0
  0
SCALE
  5
5B
102
{ACAD_REACTORS
330
47
102
}
330
47
100
AcDbScale
 70
     0
300
1/32" = 1'-0"
140
0.03125
141
12.0
290
     0
  0
SCALE
  5
5C
102
{ACAD_REACTORS
330
47
102
}
330
47
100
AcDbScale
 70
     0
300
1/16" = 1'-0"
140
0.0625
141
12.0
290
     0
  0
SCALE
  5
5D
102
{ACAD_REACTORS
330
47
102
}
330
47
100
AcDbScale
 70
     0
300
3/32" = 1'-0"
140
0.09375
141
12.0
290
     0
  0
SCALE
  5
5E
102
{ACAD_REACTORS
330
47
102
}
330
47
100
AcDbScale
 70
     0
300
1/8" = 1'-0"
140
0.125
141
12.0
290
     0
  0
SCALE
  5
5F
102
{ACAD_REACTORS
330
47
102
}
330
47
100
AcDbScale
 70
     0
300
3/16" = 1'-0"
140
0.1875
141
12.0
290
     0
  0
SCALE
  5
60
102
{ACAD_REACTORS
330
47
102
}
330
47
100
AcDbScale
 70
     0
300
1/4" = 1'-0"
140
0.25
141
12.0
290
     0
  0
SCALE
  5
61
102
{ACAD_REACTORS
330
47
102
}
330
47
100
AcDbScale
 70
     0
300
3/8" = 1'-0"
140
0.375
141
12.0
290
     0
  0
SCALE
  5
62
102
{ACAD_REACTORS
330
47
102
}
330
47
100
AcDbScale
 70
     0
300
1/2" = 1'-0"
140
0.5
141
12.0
290
     0
  0
SCALE
  5
63
102
{ACAD_REACTORS
330
47
102
}
330
47
100
AcDbScale
 70
     0
300
3/4" = 1'-0"
140
0.75
141
12.0
290
     0
  0
SCALE
  5
64
102
{ACAD_REACTORS
330
47
102
}
330
47
100
AcDbScale
 70
     0
300
1" = 1'-0"
140
1.0
141
12.0
290
     0
  0
SCALE
  5
65
102
{ACAD_REACTORS
330
47
102
}
330
47
100
AcDbScale
 70
     0
300
1-1/2" = 1'-0"
140
1.5
141
12.0
290
     0
  0
SCALE
  5
66
102
{ACAD_REACTORS
330
47
102
}
330
47
100
AcDbScale
 70
     0
300
3" = 1'-0"
140
3.0
141
12.0
290
     0
  0
SCALE
  5
67
102
{ACAD_REACTORS
330
47
102
}
330
47
100
AcDbScale
 70
     0
300
6" = 1'-0"
140
6.0
141
12.0
290
     0
  0
SCALE
  5
68
102
{ACAD_REACTORS
330
47
102
}
330
47
100
AcDbScale
 70
     0
300
1'-0" = 1'-0"
140
12.0
141
12.0
290
     0
  0
ENDSEC
  0
EOF
