  0
SECTION
  2
HEADER
  9
$ACADVER
  1
AC1015
  9
$ACADMAINTVER
 70
     6
  9
$DWGCODEPAGE
  3
DOS932
  9
$INSBASE
 10
0.0
 20
0.0
 30
0.0
  9
$EXTMIN
 10
0.0
 20
0.0
 30
0.0
  9
$EXTMAX
 10
420.0
 20
297.0
 30
0.0
  9
$LIMMIN
 10
0.0
 20
0.0
  9
$LIMMAX
 10
420.0
 20
297.0
  9
$ORTHOMODE
 70
     0
  9
$REGENMODE
 70
     1
  9
$FILLMODE
 70
     1
  9
$QTEXTMODE
 70
     0
  9
$MIRRTEXT
 70
     1
  9
$LTSCALE
 40
1.0
  9
$ATTMODE
 70
     1
  9
$TEXTSIZE
 40
3.5
  9
$TRACEWID
 40
1.0
  9
$TEXTSTYLE
  7
Standard
  9
$CLAYER
  8
0
  9
$CELTYPE
  6
ByLayer
  9
$CECOLOR
 62
   256
  9
$CELTSCALE
 40
1.0
  9
$DISPSILH
 70
     0
  9
$DIMSCALE
 40
1.0
  9
$DIMASZ
 40
3.556
  9
$DIMEXO
 40
1.0
  9
$DIMDLI
 40
3.75
  9
$DIMRND
 40
0.0
  9
$DIMDLE
 40
0.0
  9
$DIMEXE
 40
1.0
  9
$DIMTP
 40
0.0
  9
$DIMTM
 40
0.0
  9
$DIMTXT
 40
3.5
  9
$DIMCEN
 40
2.5
  9
$DIMTSZ
 40
0.0
  9
$DIMTOL
 70
     0
  9
$DIMLIM
 70
     0
  9
$DIMTIH
 70
     1
  9
$DIMTOH
 70
     1
  9
$DIMSE1
 70
     0
  9
$DIMSE2
 70
     0
  9
$DIMTAD
 70
     1
  9
$DIMZIN
 70
     1
  9
$DIMBLK
  1

  9
$DIMASO
 70
     1
  9
$DIMSHO
 70
     1
  9
$DIMPOST
  1

  9
$DIMAPOST
  1

  9
$DIMALT
 70
     0
  9
$DIMALTD
 70
     3
  9
$DIMALTF
 40
0.0393700787
  9
$DIMLFAC
 40
1.0
  9
$DIMTOFL
 70
     1
  9
$DIMTVP
 40
0.0
  9
$DIMTIX
 70
     0
  9
$DIMSOXD
 70
     0
  9
$DIMSAH
 70
     0
  9
$DIMBLK1
  1

  9
$DIMBLK2
  1

  9
$DIMSTYLE
  2
ISO-25
  9
$DIMCLRD
 70
     0
  9
$DIMCLRE
 70
     0
  9
$DIMCLRT
 70
     0
  9
$DIMTFAC
 40
1.0
  9
$DIMGAP
 40
1.524
  9
$DIMJUST
 70
     0
  9
$DIMSD1
 70
     0
  9
$DIMSD2
 70
     0
  9
$DIMTOLJ
 70
     0
  9
$DIMTZIN
 70
     1
  9
$DIMALTZ
 70
     0
  9
$DIMALTTZ
 70
     0
  9
$DIMUPT
 70
     0
  9
$DIMDEC
 70
     2
  9
$DIMTDEC
 70
     2
  9
$DIMALTU
 70
     2
  9
$DIMALTTD
 70
     3
  9
$DIMTXSTY
  7
Standard
  9
$DIMAUNIT
 70
     0
  9
$DIMADEC
 70
     2
  9
$DIMALTRND
 40
0.0
  9
$DIMAZIN
 70
     0
  9
$DIMDSEP
 70
    44
  9
$DIMATFIT
 70
     3
  9
$DIMFRAC
 70
     0
  9
$DIMLDRBLK
  1

  9
$DIMLUNIT
 70
     2
  9
$DIMLWD
 70
    -2
  9
$DIMLWE
 70
    -2
  9
$DIMTMOVE
 70
     0
  9
$LUNITS
 70
     2
  9
$LUPREC
 70
     2
  9
$SKETCHINC
 40
1.0
  9
$FILLETRAD
 40
10.0
  9
$AUNITS
 70
     0
  9
$AUPREC
 70
     2
  9
$MENU
  1
.
  9
$ELEVATION
 40
0.0
  9
$PELEVATION
 40
0.0
  9
$THICKNESS
 40
0.0
  9
$LIMCHECK
 70
     0
  9
$CHAMFERA
 40
0.0
  9
$CHAMFERB
 40
0.0
  9
$CHAMFERC
 40
0.0
  9
$CHAMFERD
 40
0.0
  9
$SKPOLY
 70
     0
  9
$TDCREATE
 40
2459564.672850023
  9
$TDUCREATE
 40
2459564.297850023
  9
$TDUPDATE
 40
2459564.67285147
  9
$TDUUPDATE
 40
2459564.29785147
  9
$TDINDWG
 40
0.0000000116
  9
$TDUSRTIMER
 40
0.0000000116
  9
$USRTIMER
 70
     1
  9
$ANGBASE
 50
0.0
  9
$ANGDIR
 70
     0
  9
$PDMODE
 70
     0
  9
$PDSIZE
 40
-1.0
  9
$PLINEWID
 40
0.0
  9
$SPLFRAME
 70
     0
  9
$SPLINETYPE
 70
     6
  9
$SPLINESEGS
 70
     8
  9
$HANDSEED
  5
3A2
  9
$SURFTAB1
 70
     6
  9
$SURFTAB2
 70
     6
  9
$SURFTYPE
 70
     6
  9
$SURFU
 70
     6
  9
$SURFV
 70
     6
  9
$UCSBASE
  2

  9
$UCSNAME
  2

  9
$UCSORG
 10
0.0
 20
0.0
 30
0.0
  9
$UCSXDIR
 10
1.0
 20
0.0
 30
0.0
  9
$UCSYDIR
 10
0.0
 20
1.0
 30
0.0
  9
$UCSORTHOREF
  2

  9
$UCSORTHOVIEW
 70
     0
  9
$UCSORGTOP
 10
0.0
 20
0.0
 30
0.0
  9
$UCSORGBOTTOM
 10
0.0
 20
0.0
 30
0.0
  9
$UCSORGLEFT
 10
0.0
 20
0.0
 30
0.0
  9
$UCSORGRIGHT
 10
0.0
 20
0.0
 30
0.0
  9
$UCSORGFRONT
 10
0.0
 20
0.0
 30
0.0
  9
$UCSORGBACK
 10
0.0
 20
0.0
 30
0.0
  9
$PUCSBASE
  2

  9
$PUCSNAME
  2

  9
$PUCSORG
 10
0.0
 20
0.0
 30
0.0
  9
$PUCSXDIR
 10
1.0
 20
0.0
 30
0.0
  9
$PUCSYDIR
 10
0.0
 20
1.0
 30
0.0
  9
$PUCSORTHOREF
  2

  9
$PUCSORTHOVIEW
 70
     0
  9
$PUCSORGTOP
 10
0.0
 20
0.0
 30
0.0
  9
$PUCSORGBOTTOM
 10
0.0
 20
0.0
 30
0.0
  9
$PUCSORGLEFT
 10
0.0
 20
0.0
 30
0.0
  9
$PUCSORGRIGHT
 10
0.0
 20
0.0
 30
0.0
  9
$PUCSORGFRONT
 10
0.0
 20
0.0
 30
0.0
  9
$PUCSORGBACK
 10
0.0
 20
0.0
 30
0.0
  9
$USERI1
 70
     0
  9
$USERI2
 70
     0
  9
$USERI3
 70
     0
  9
$USERI4
 70
     0
  9
$USERI5
 70
     0
  9
$USERR1
 40
0.0
  9
$USERR2
 40
0.0
  9
$USERR3
 40
0.0
  9
$USERR4
 40
0.0
  9
$USERR5
 40
0.0
  9
$WORLDVIEW
 70
     1
  9
$SHADEDGE
 70
     3
  9
$SHADEDIF
 70
    70
  9
$TILEMODE
 70
     1
  9
$MAXACTVP
 70
    64
  9
$PINSBASE
 10
0.0
 20
0.0
 30
0.0
  9
$PLIMCHECK
 70
     0
  9
$PEXTMIN
 10
1.0000000000E+20
 20
1.0000000000E+20
 30
1.0000000000E+20
  9
$PEXTMAX
 10
-1.0000000000E+20
 20
-1.0000000000E+20
 30
-1.0000000000E+20
  9
$PLIMMIN
 10
0.0
 20
0.0
  9
$PLIMMAX
 10
420.0
 20
297.0
  9
$UNITMODE
 70
     0
  9
$VISRETAIN
 70
     1
  9
$PLINEGEN
 70
     0
  9
$PSLTSCALE
 70
     1
  9
$TREEDEPTH
 70
  3020
  9
$CMLSTYLE
  2
Standard
  9
$CMLJUST
 70
     0
  9
$CMLSCALE
 40
20.0
  9
$PROXYGRAPHICS
 70
     1
  9
$MEASUREMENT
 70
     1
  9
$CELWEIGHT
370
    -1
  9
$ENDCAPS
280
     0
  9
$JOINSTYLE
280
     0
  9
$LWDISPLAY
290
     1
  9
$INSUNITS
 70
     4
  9
$HYPERLINKBASE
  1

  9
$STYLESHEET
  1

  9
$XEDIT
290
     1
  9
$CEPSNTYPE
380
     0
  9
$PSTYLEMODE
290
     1
  9
$FINGERPRINTGUID
  2
{287c6f69-6741-42bb-bbd4-7a79e2b276ed}
  9
$VERSIONGUID
  2
{FAEB1C32-E019-11D5-929B-00C0DF256EC4}
  9
$EXTNAMES
290
     1
  9
$PSVPSCALE
 40
0.0
  9
$OLESTARTUP
290
     0
  0
ENDSEC
  0
SECTION
  2
CLASSES
  0
CLASS
  1
ACDBDICTIONARYWDFLT
  2
AcDbDictionaryWithDefault
  3
ObjectDBX Classes
 90
        0
280
     0
281
     0
  0
CLASS
  1
VISUALSTYLE
  2
AcDbVisualStyle
  3
ObjectDBX Classes
 90
     4095
280
     0
281
     0
  0
CLASS
  1
MATERIAL
  2
AcDbMaterial
  3
ObjectDBX Classes
 90
     1153
280
     0
281
     0
  0
CLASS
  1
SCALE
  2
AcDbScale
  3
ObjectDBX Classes
 90
     1153
280
     0
281
     0
  0
CLASS
  1
TABLESTYLE
  2
AcDbTableStyle
  3
ObjectDBX Classes
 90
     4095
280
     0
281
     0
  0
CLASS
  1
MLEADERSTYLE
  2
AcDbMLeaderStyle
  3
ACDB_MLEADERSTYLE_CLASS
 90
     4095
280
     0
281
     0
  0
CLASS
  1
SUN
  2
AcDbSun
  3
SCENEOE
 90
     1153
280
     0
281
     0
  0
CLASS
  1
ACDBPLACEHOLDER
  2
AcDbPlaceHolder
  3
ObjectDBX Classes
 90
        0
280
     0
281
     0
  0
CLASS
  1
LAYOUT
  2
AcDbLayout
  3
ObjectDBX Classes
 90
        0
280
     0
281
     0
  0
ENDSEC
  0
SECTION
  2
TABLES
  0
TABLE
  2
VPORT
  5
8
330
0
100
AcDbSymbolTable
 70
     1
  0
VPORT
  5
29
330
8
100
AcDbSymbolTableRecord
100
AcDbViewportTableRecord
  2
*Active
 70
     0
 10
0.0
 20
0.0
 11
1.0
 21
1.0
 12
210.0
 22
148.5
 13
0.0
 23
0.0
 14
10.0
 24
10.0
 15
10.0
 25
10.0
 16
0.0
 26
0.0
 36
1.0
 17
0.0
 27
0.0
 37
0.0
 40
297.0
 41
1.4141414141
 42
50.0
 43
0.0
 44
0.0
 50
0.0
 51
0.0
 71
     0
 72
  2000
 73
     1
 74
     3
 75
     0
 76
     0
 77
     0
 78
     0
281
     0
 65
     1
110
0.0
120
0.0
130
0.0
111
1.0
121
0.0
131
0.0
112
0.0
122
1.0
132
0.0
 79
     0
146
0.0
  0
ENDTAB
  0
TABLE
  2
LTYPE
  5
5
330
0
100
AcDbSymbolTable
 70
     6
  0
LTYPE
  5
14
330
5
100
AcDbSymbolTableRecord
100
AcDbLinetypeTableRecord
  2
ByBlock
 70
     0
  3

 72
    65
 73
     0
 40
0.0
  0
LTYPE
  5
15
330
5
100
AcDbSymbolTableRecord
100
AcDbLinetypeTableRecord
  2
ByLayer
 70
     0
  3

 72
    65
 73
     0
 40
0.0
  0
LTYPE
  5
16
330
5
100
AcDbSymbolTableRecord
100
AcDbLinetypeTableRecord
  2
Continuous
 70
     0
  3
Solid line
 72
    65
 73
     0
 40
0.0
  0
LTYPE
  5
6E
330
5
100
AcDbSymbolTableRecord
100
AcDbLinetypeTableRecord
  2
HIDDEN
 70
     0
  3
Hidden __ __ __ __ __ __ __ __ __ __ __ __ __ __
 72
    65
 73
     2
 40
1.905
 49
1.27
 74
     0
 49
-0.635
 74
     0
  0
LTYPE
  5
6F
330
5
100
AcDbSymbolTableRecord
100
AcDbLinetypeTableRecord
  2
PHANTOM
 70
     0
  3
Phantom ______  __  __  ______  __  __  ______
 72
    65
 73
     6
 40
12.7
 49
6.35
 74
     0
 49
-1.27
 74
     0
 49
1.27
 74
     0
 49
-1.27
 74
     0
 49
1.27
 74
     0
 49
-1.27
 74
     0
  0
LTYPE
  5
70
330
5
100
AcDbSymbolTableRecord
100
AcDbLinetypeTableRecord
  2
CENTER
 70
     0
  3
Center ____ _ ____ _ ____ _ ____ _ ____ _ ____
 72
    65
 73
     4
 40
10.16
 49
6.35
 74
     0
 49
-1.27
 74
     0
 49
1.27
 74
     0
 49
-1.27
 74
     0
  0
LTYPE
  5
71
330
5
100
AcDbSymbolTableRecord
100
AcDbLinetypeTableRecord
  2
CENTERX2
 70
     0
  3
Center (2x) ________  __  ________  __  _____
 72
    65
 73
     4
 40
20.32
 49
12.7
 74
     0
 49
-2.54
 74
     0
 49
2.54
 74
     0
 49
-2.54
 74
     0
  0
LTYPE
  5
72
330
5
100
AcDbSymbolTableRecord
100
AcDbLinetypeTableRecord
  2
DOT2
 70
     0
  3
Dot (.5x) ........................................
 72
    65
 73
     2
 40
0.635
 49
0.0
 74
     0
 49
-0.635
 74
     0
  0
ENDTAB
  0
TABLE
  2
LAYER
  5
2
330
0
100
AcDbSymbolTable
 70
     1
  0
LAYER
  5
10
330
2
100
AcDbSymbolTableRecord
100
AcDbLayerTableRecord
  2
0
 70
     0
 62
     7
  6
Continuous
370
    -3
390
F
  0
ENDTAB
  0
TABLE
  2
STYLE
  5
3
330
0
100
AcDbSymbolTable
 70
     3
  0
STYLE
  5
11
330
3
100
AcDbSymbolTableRecord
100
AcDbTextStyleTableRecord
  2
Standard
 70
     0
 40
0.0
 41
1.0
 50
0.0
 71
     0
 42
3.5
  3
txt
  4
bigfont
  0
STYLE
  5
73
330
3
100
AcDbSymbolTableRecord
100
AcDbTextStyleTableRecord
  2
SLDTEXTSTYLE0
 70
     0
 40
0.0
 41
0.65
 50
0.0
 71
     0
 42
3.5
  3
TXT
  4
bigfont
  0
STYLE
  5
1C7
330
3
100
AcDbSymbolTableRecord
100
AcDbTextStyleTableRecord
  2
SLDTEXTSTYLE1
 70
     0
 40
0.0
 41
0.75
 50
0.0
 71
     0
 42
3.5
  3
TXT
  4
bigfont
  0
ENDTAB
  0
TABLE
  2
VIEW
  5
6
330
0
100
AcDbSymbolTable
 70
     0
  0
ENDTAB
  0
TABLE
  2
UCS
  5
7
330
0
100
AcDbSymbolTable
 70
     0
  0
ENDTAB
  0
TABLE
  2
APPID
  5
9
330
0
100
AcDbSymbolTable
 70
     1
  0
APPID
  5
12
330
9
100
AcDbSymbolTableRecord
100
AcDbRegAppTableRecord
  2
ACAD
 70
     0
  0
ENDTAB
  0
TABLE
  2
DIMSTYLE
  5
A
330
0
100
AcDbSymbolTable
 70
     3
100
AcDbDimStyleTable
  0
DIMSTYLE
105
27
330
A
100
AcDbSymbolTableRecord
100
AcDbDimStyleTableRecord
  2
ISO-25
 70
     0
 41
2.5
 42
0.625
 43
3.75
 44
1.25
 73
     0
 74
     0
 77
     1
 78
     8
140
2.5
141
2.5
143
0.0393700787
147
0.625
171
     3
172
     1
178
     0
271
     2
272
     2
274
     3
278
    44
283
     0
284
     8
340
11
  0
DIMSTYLE
105
1C8
102
{ACAD_REACTORS
330
1C6
102
}
330
A
100
AcDbSymbolTableRecord
100
AcDbDimStyleTableRecord
  2
SLDDIMSTYLE0
 70
     0
 41
3.556
 44
0.0
 45
0.000000001
 73
     0
 74
     0
 77
     1
 78
    12
 79
     3
140
3.5
147
0.875
173
     1
178
     0
271
     0
272
     2
276
     2
284
    12
340
1C7
341
1C9
343
1C9
344
1C9
  0
DIMSTYLE
105
1DA
102
{ACAD_REACTORS
330
1D9
330
397
102
}
330
A
100
AcDbSymbolTableRecord
100
AcDbDimStyleTableRecord
  2
SLDDIMSTYLE1
 70
     0
 41
3.556
 44
0.0
 45
0.000000001
 73
     0
 74
     0
 77
     1
 78
    12
 79
     3
140
3.5
147
0.875
173
     1
178
     0
271
     0
272
     0
276
     2
284
    12
340
1C7
341
1C9
343
1C9
344
1C9
  0
ENDTAB
  0
TABLE
  2
BLOCK_RECORD
  5
1
330
0
100
AcDbSymbolTable
 70
     5
  0
BLOCK_RECORD
  5
1F
330
1
100
AcDbSymbolTableRecord
100
AcDbBlockTableRecord
  2
*Model_Space
340
22
  0
BLOCK_RECORD
  5
1B
330
1
100
AcDbSymbolTableRecord
100
AcDbBlockTableRecord
  2
*Paper_Space
340
1E
  0
BLOCK_RECORD
  5
23
330
1
100
AcDbSymbolTableRecord
100
AcDbBlockTableRecord
  2
*Paper_Space0
340
26
  0
BLOCK_RECORD
  5
1C9
330
1
100
AcDbSymbolTableRecord
100
AcDbBlockTableRecord
  2
_Closed
340
0
102
{BLKREFS
331
1D3
331
1D4
331
1DE
331
1DF
331
39B
331
39C
102
}
  0
BLOCK_RECORD
  5
1D0
330
1
100
AcDbSymbolTableRecord
100
AcDbBlockTableRecord
  2
_D
340
0
  0
BLOCK_RECORD
  5
1DB
330
1
100
AcDbSymbolTableRecord
100
AcDbBlockTableRecord
  2
_D_1
340
0
  0
BLOCK_RECORD
  5
398
330
1
100
AcDbSymbolTableRecord
100
AcDbBlockTableRecord
  2
_D_2
340
0
  0
ENDTAB
  0
ENDSEC
  0
SECTION
  2
BLOCKS
  0
BLOCK
  5
20
330
1F
100
AcDbEntity
  8
0
100
AcDbBlockBegin
  2
*Model_Space
 70
     0
 10
0.0
 20
0.0
 30
0.0
  3
*Model_Space
  1

  0
ENDBLK
  5
21
330
1F
100
AcDbEntity
  8
0
100
AcDbBlockEnd
  0
BLOCK
  5
1C
330
1B
100
AcDbEntity
 67
     1
  8
0
100
AcDbBlockBegin
  2
*Paper_Space
 70
     0
 10
0.0
 20
0.0
 30
0.0
  3
*Paper_Space
  1

  0
ENDBLK
  5
1D
330
1B
100
AcDbEntity
 67
     1
  8
0
100
AcDbBlockEnd
  0
BLOCK
  5
24
330
23
100
AcDbEntity
  8
0
100
AcDbBlockBegin
  2
*Paper_Space0
 70
     0
 10
0.0
 20
0.0
 30
0.0
  3
*Paper_Space0
  1

  0
ENDBLK
  5
25
330
23
100
AcDbEntity
  8
0
100
AcDbBlockEnd
  0
BLOCK
  5
1CA
330
1C9
100
AcDbEntity
  8
0
100
AcDbBlockBegin
  2
_Closed
 70
     0
 10
0.0
 20
0.0
 30
0.0
  3
_Closed
  1

  0
LINE
  5
1CC
330
1C9
100
AcDbEntity
  8
0
  6
ByBlock
 62
     0
370
    -2
100
AcDbLine
 10
-1.0
 20
0.166667
 30
0.0
 11
0.0
 21
0.0
 31
0.0
  0
LINE
  5
1CD
330
1C9
100
AcDbEntity
  8
0
  6
ByBlock
 62
     0
370
    -2
100
AcDbLine
 10
0.0
 20
0.0
 30
0.0
 11
-1.0
 21
-0.166667
 31
0.0
  0
LINE
  5
1CE
330
1C9
100
AcDbEntity
  8
0
  6
ByBlock
 62
     0
370
    -2
100
AcDbLine
 10
-1.0
 20
0.166667
 30
0.0
 11
-1.0
 21
-0.166667
 31
0.0
  0
LINE
  5
1CF
330
1C9
100
AcDbEntity
  8
0
  6
ByBlock
 62
     0
370
    -2
100
AcDbLine
 10
0.0
 20
0.0
 30
0.0
 11
-1.0
 21
0.0
 31
0.0
  0
ENDBLK
  5
1CB
330
1C9
100
AcDbEntity
  8
0
100
AcDbBlockEnd
  0
BLOCK
  5
1D1
330
1D0
100
AcDbEntity
  8
0
100
AcDbBlockBegin
  2
_D
 70
     0
 10
0.0
 20
0.0
 30
0.0
  3
_D
  1

  0
INSERT
  5
1D3
330
1D0
100
AcDbEntity
  8
0
  6
Continuous
 62
     7
370
    18
100
AcDbBlockReference
  2
_Closed
 10
27.7031943445
 20
132.2184805808
 30
0.0
 41
3.556
 42
3.556
 50
90.0
  0
INSERT
  5
1D4
330
1D0
100
AcDbEntity
  8
0
  6
Continuous
 62
     7
370
    18
100
AcDbBlockReference
  2
_Closed
 10
27.7031943445
 20
43.7184805808
 30
0.0
 41
3.556
 42
3.556
 50
270.0
  0
LINE
  5
1D5
330
1D0
100
AcDbEntity
  8
0
  6
Continuous
 62
     7
370
     0
100
AcDbLine
 10
45.7080115021
 20
132.2184805808
 30
0.0
 11
26.7031943445
 21
132.2184805808
 31
0.0
  0
LINE
  5
1D6
330
1D0
100
AcDbEntity
  8
0
  6
Continuous
 62
     7
370
     0
100
AcDbLine
 10
130.1580115021
 20
43.7184805808
 30
0.0
 11
26.7031943445
 21
43.7184805808
 31
0.0
  0
LINE
  5
1D7
330
1D0
100
AcDbEntity
  8
0
  6
Continuous
 62
     7
370
     0
100
AcDbLine
 10
27.7031943445
 20
132.2184805808
 30
0.0
 11
27.7031943445
 21
43.7184805808
 31
0.0
  0
MTEXT
  5
1D8
330
1D0
100
AcDbEntity
  8
0
  6
Continuous
 62
     7
370
    18
100
AcDbMText
 10
23.1914574299
 20
85.516275267
 30
0.0
 40
3.5
 41
0.0
 71
     1
 72
     1
  1
87
  7
SLDTEXTSTYLE1
 11
-7.044195017643634E-15
 21
1.0
 31
0.0
 73
     1
 44
1.0
  0
ENDBLK
  5
1D2
330
1D0
100
AcDbEntity
  8
0
100
AcDbBlockEnd
  0
BLOCK
  5
1DC
330
1DB
100
AcDbEntity
  8
0
100
AcDbBlockBegin
  2
_D_1
 70
     0
 10
0.0
 20
0.0
 30
0.0
  3
_D_1
  1

  0
INSERT
  5
1DE
330
1DB
100
AcDbEntity
  8
0
  6
Continuous
 62
     7
370
    18
100
AcDbBlockReference
  2
_Closed
 10
116.7080115021
 20
33.7184805808
 30
0.0
 41
3.556
 42
3.556
 50
180.0
  0
INSERT
  5
1DF
330
1DB
100
AcDbEntity
  8
0
  6
Continuous
 62
     7
370
    18
100
AcDbBlockReference
  2
_Closed
 10
188.7080115021
 20
33.7184805808
 30
0.0
 41
3.556
 42
3.556
 50
0.0
  0
LINE
  5
1E0
330
1DB
100
AcDbEntity
  8
0
  6
Continuous
 62
     7
370
     0
100
AcDbLine
 10
116.7080115021
 20
60.2184805808
 30
0.0
 11
116.7080115021
 21
32.7184805808
 31
0.0
  0
LINE
  5
1E1
330
1DB
100
AcDbEntity
  8
0
  6
Continuous
 62
     7
370
     0
100
AcDbLine
 10
188.7080115021
 20
60.2184805808
 30
0.0
 11
188.7080115021
 21
32.7184805808
 31
0.0
  0
LINE
  5
1E2
330
1DB
100
AcDbEntity
  8
0
  6
Continuous
 62
     7
370
     0
100
AcDbLine
 10
116.7080115021
 20
33.7184805808
 30
0.0
 11
188.7080115021
 21
33.7184805808
 31
0.0
  0
MTEXT
  5
1E3
330
1DB
100
AcDbEntity
  8
0
  6
Continuous
 62
     7
370
    18
100
AcDbMText
 10
151.6809471761
 20
38.2302174953
 30
0.0
 40
3.5
 41
0.0
 71
     1
 72
     1
  1
72
  7
SLDTEXTSTYLE1
 73
     1
 44
1.0
  0
ENDBLK
  5
1DD
330
1DB
100
AcDbEntity
  8
0
100
AcDbBlockEnd
  0
BLOCK
  5
399
330
398
100
AcDbEntity
  8
0
100
AcDbBlockBegin
  2
_D_2
 70
     0
 10
0.0
 20
0.0
 30
0.0
  3
_D_2
  1

  0
INSERT
  5
39B
330
398
100
AcDbEntity
  8
0
  6
Continuous
 62
     7
370
    18
100
AcDbBlockReference
  2
_Closed
 10
274.6185140073
 20
33.7184805808
 30
39.5024085788
 41
3.556
 42
3.556
 50
180.0
  0
INSERT
  5
39C
330
398
100
AcDbEntity
  8
0
  6
Continuous
 62
     7
370
    18
100
AcDbBlockReference
  2
_Closed
 10
306.6185140073
 20
33.7184805808
 30
39.5024085788
 41
3.556
 42
3.556
 50
0.0
  0
LINE
  5
39D
330
398
100
AcDbEntity
  8
0
  6
Continuous
 62
     7
370
     0
100
AcDbLine
 10
274.6185140073
 20
43.7184805808
 30
0.0
 11
274.6185140073
 21
32.7184805808
 31
0.0
  0
LINE
  5
39E
330
398
100
AcDbEntity
  8
0
  6
Continuous
 62
     7
370
     0
100
AcDbLine
 10
306.6185140073
 20
43.7184805808
 30
0.0
 11
306.6185140073
 21
32.7184805808
 31
0.0
  0
LINE
  5
39F
330
398
100
AcDbEntity
  8
0
  6
Continuous
 62
     7
370
     0
100
AcDbLine
 10
274.6185140073
 20
33.7184805808
 30
0.0
 11
306.6185140073
 21
33.7184805808
 31
0.0
  0
MTEXT
  5
3A0
330
398
100
AcDbEntity
  8
0
  6
Continuous
 62
     7
370
    18
100
AcDbMText
 10
287.8889900914
 20
38.2302174953
 30
0.0
 40
3.5
 41
0.0
 71
     1
 72
     1
  1
32
  7
SLDTEXTSTYLE1
 73
     1
 44
1.0
  0
ENDBLK
  5
39A
330
398
100
AcDbEntity
  8
0
100
AcDbBlockEnd
  0
ENDSEC
  0
SECTION
  2
ENTITIES
  0
MTEXT
  5
74
330
1F
100
AcDbEntity
  8
0
  6
Continuous
 62
     7
370
     0
100
AcDbMText
 10
247.3746957847
 20
179.2965229966
 30
0.0
 40
5.2916666667
 41
0.0
 71
     1
 72
     1
  1
BKH - Rc3/8 - 02
  7
SLDTEXTSTYLE0
 73
     1
 44
1.0
  0
LINE
  5
75
330
1F
100
AcDbEntity
  8
0
  6
Continuous
 62
     7
370
    25
100
AcDbLine
 10
141.7080115021
 20
96.4184805808
 30
0.0
 11
141.7080115021
 21
94.2189156661
 31
0.0
  0
LINE
  5
76
330
1F
100
AcDbEntity
  8
0
  6
Continuous
 62
     7
370
    25
100
AcDbLine
 10
163.7080115021
 20
94.2184805808
 30
0.0
 11
163.7080115021
 21
96.4184805808
 31
0.0
  0
ARC
  5
77
330
1F
100
AcDbEntity
  8
0
  6
Continuous
 62
     7
370
    25
100
AcDbCircle
 10
146.1580115021
 20
97.7030105269
 30
0.0
 40
0.1999999999999949
100
AcDbArc
 50
120.0
 51
178.6951043494
  0
ARC
  5
78
330
1F
100
AcDbEntity
  8
0
  6
Continuous
 62
     7
370
    25
100
AcDbCircle
 10
159.2580115021
 20
97.7030105269
 30
0.0
 40
0.1999999999999886
100
AcDbArc
 50
0.0
 51
60.0
  0
LINE
  5
79
330
1F
100
AcDbEntity
  8
0
  6
Continuous
 62
     7
370
    25
100
AcDbLine
 10
145.9580115021
 20
97.7030105269
 30
0.0
 11
145.9580115021
 21
96.8184805808
 31
0.0
  0
LINE
  5
7A
330
1F
100
AcDbEntity
  8
0
  6
Continuous
 62
     7
370
    25
100
AcDbLine
 10
159.4580115021
 20
96.8184805808
 30
0.0
 11
159.4580115021
 21
97.7030105269
 31
0.0
  0
LINE
  5
7B
330
1F
100
AcDbEntity
  8
0
  6
Continuous
 62
     7
370
    25
100
AcDbLine
 10
159.3580548033
 20
97.8761906077
 30
0.0
 11
157.6541639248
 21
98.8599324651
 31
0.0
  0
LINE
  5
7C
330
1F
100
AcDbEntity
  8
0
  6
Continuous
 62
     7
370
    25
100
AcDbLine
 10
147.7618590794
 20
98.8599324651
 30
0.0
 11
146.0579682008
 21
97.8761906077
 31
0.0
  0
LWPOLYLINE
  5
7D
330
1F
100
AcDbEntity
  8
0
  6
Continuous
 62
     7
370
    25
100
AcDbPolyline
 90
        3
 70
   128
 43
0.0
 10
150.1949753307
 20
96.8197672792
 10
150.2016602994
 20
96.7894779351
 10
150.2079277056
 20
96.7102933884
  0
LWPOLYLINE
  5
7E
330
1F
100
AcDbEntity
  8
0
  6
Continuous
 62
     7
370
    25
100
AcDbPolyline
 90
        3
 70
   128
 43
0.0
 10
155.2080952985
 20
96.7266677731
 10
155.2171579239
 20
96.8035304511
 10
155.2212024857
 20
96.8203569021
  0
LINE
  5
7F
330
1F
100
AcDbEntity
  8
0
  6
Continuous
 62
     7
370
    25
100
AcDbLine
 10
148.7080115021
 20
102.4184805808
 30
0.0
 11
148.0892093485
 21
102.2526730435
 31
0.0
  0
LINE
  5
80
330
1F
100
AcDbEntity
  8
0
  6
Continuous
 62
     7
370
    25
100
AcDbLine
 10
157.3268136556
 20
102.2526730435
 30
0.0
 11
156.7080115021
 21
102.4184805808
 31
0.0
  0
ARC
  5
81
330
1F
100
AcDbEntity
  8
0
  6
Continuous
 62
     7
370
    25
100
AcDbCircle
 10
144.7080115021
 20
89.7184805808
 30
0.0
 40
20.5000000000002
100
AcDbArc
 50
347.3179108914
 51
12.6799578463
  0
LINE
  5
82
330
1F
100
AcDbEntity
  8
0
  6
Continuous
 62
     7
370
    25
100
AcDbLine
 10
140.2080115021
 20
85.2178704943
 30
0.0
 11
144.0455598356
 21
85.2182242811
 31
0.0
  0
ARC
  5
83
330
1F
100
AcDbEntity
  8
0
  6
Continuous
 62
     7
370
    25
100
AcDbCircle
 10
46.7080115021
 20
123.2184805808
 30
0.0
 40
9.000000000000025
100
AcDbArc
 50
16.1210180243
 51
343.8789276969
  0
SPLINE
  5
84
330
1F
100
AcDbEntity
  8
0
  6
Continuous
 62
     7
370
    25
100
AcDbSpline
210
0.0
220
0.0
230
1.0
 70
     8
 71
     3
 72
    14
 73
    10
 74
     0
 42
0.00000001
 43
0.00000001
 40
0.0
 40
0.0
 40
0.0
 40
0.0
 40
0.1435455221692744
 40
0.2642781181078631
 40
0.3724279596035025
 40
0.4824569461625304
 40
0.6424960351156422
 40
0.817538636075593
 40
1.0
 40
1.0
 40
1.0
 40
1.0
 10
144.3239493815458
 20
94.21848058076378
 30
0.0
 10
144.1992490693535
 20
94.21780043594644
 30
0.0
 10
143.9696664022271
 20
94.21654823810951
 30
0.0
 10
143.4816245288957
 20
94.20757741746894
 30
0.0
 10
142.9523134328905
 20
94.20040517479342
 30
0.0
 10
142.3500509549471
 20
94.19855685077572
 30
0.0
 10
141.681400111915
 20
94.20456436196557
 30
0.0
 10
140.9522439902545
 20
94.21570784401881
 30
0.0
 10
140.4594974172263
 20
94.21792242361735
 30
0.0
 10
140.208011502062
 20
94.21905269140112
 30
0.0
  0
LWPOLYLINE
  5
85
330
1F
100
AcDbEntity
  8
0
  6
Continuous
 62
     7
370
    25
100
AcDbPolyline
 90
        3
 70
   128
 43
0.0
 10
120.2080115021
 20
109.2188422752
 10
129.2575986265
 20
98.3593133514
 10
140.2080115021
 20
85.21878089
  0
LINE
  5
86
330
1F
100
AcDbEntity
  8
0
  6
Continuous
 62
     7
370
    25
100
AcDbLine
 10
140.2080115021
 20
94.2181865341
 30
0.0
 11
120.2080115021
 21
115.2181198621
 31
0.0
  0
LINE
  5
87
330
1F
100
AcDbEntity
  8
0
  6
Continuous
 62
     7
370
    25
100
AcDbLine
 10
120.2080115021
 20
115.2181358543
 30
0.0
 11
55.7080115021
 21
125.7183998056
 31
0.0
  0
LINE
  5
88
330
1F
100
AcDbEntity
  8
0
  6
Continuous
 62
     7
370
    25
100
AcDbLine
 10
55.7080115021
 20
120.7185623447
 30
0.0
 11
120.2080115021
 21
109.2188256482
 31
0.0
  0
LINE
  5
89
330
1F
100
AcDbEntity
  8
0
  6
Continuous
 62
     7
370
    25
100
AcDbLine
 10
55.7184770881
 20
125.7184805808
 30
0.0
 11
55.353819735
 21
125.7184805808
 31
0.0
  0
LINE
  5
8A
330
1F
100
AcDbEntity
  8
0
  6
Continuous
 62
     7
370
    25
100
AcDbLine
 10
55.353819735
 20
120.7184805808
 30
0.0
 11
55.7084701014
 21
120.7184805808
 31
0.0
  0
LINE
  5
8B
330
1F
100
AcDbEntity
  8
0
  6
Continuous
 62
     7
370
    25
100
AcDbLine
 10
130.4080115021
 20
47.7184805808
 30
0.0
 11
131.1580115021
 21
47.7184805808
 31
0.0
  0
LINE
  5
8C
330
1F
100
AcDbEntity
  8
0
  6
Continuous
 62
     7
370
    25
100
AcDbLine
 10
131.1580115021
 20
74.7184805808
 30
0.0
 11
130.4080115021
 21
74.7184805808
 31
0.0
  0
LINE
  5
8D
330
1F
100
AcDbEntity
  8
0
  6
Continuous
 62
     7
370
    25
100
AcDbLine
 10
117.2676119405
 20
76.8069378489
 30
0.0
 11
116.7080115021
 21
74.7184805808
 31
0.0
  0
LINE
  5
8E
330
1F
100
AcDbEntity
  8
0
  6
Continuous
 62
     7
370
    25
100
AcDbLine
 10
116.7080115021
 20
47.7184805808
 30
0.0
 11
117.2676119405
 21
45.6300233126
 31
0.0
  0
LINE
  5
8F
330
1F
100
AcDbEntity
  8
0
  6
Continuous
 62
     7
370
    25
100
AcDbLine
 10
124.8909703664
 20
46.3371300938
 30
0.0
 11
125.5980771476
 21
45.6300233126
 31
0.0
  0
LINE
  5
90
330
1F
100
AcDbEntity
  8
0
  6
Continuous
 62
     7
370
    25
100
AcDbLine
 10
124.1838635852
 20
45.6300233126
 30
0.0
 11
124.8909703664
 21
46.3371300938
 31
0.0
  0
LINE
  5
91
330
1F
100
AcDbEntity
  8
0
  6
Continuous
 62
     7
370
    25
100
AcDbLine
 10
120.7689121352
 20
45.6300233126
 30
0.0
 11
121.4760189164
 21
46.3371300938
 31
0.0
  0
LINE
  5
92
330
1F
100
AcDbEntity
  8
0
  6
Continuous
 62
     7
370
    25
100
AcDbLine
 10
121.4760189164
 20
46.3371300938
 30
0.0
 11
122.1831256976
 21
45.6300233126
 31
0.0
  0
LINE
  5
93
330
1F
100
AcDbEntity
  8
0
  6
Continuous
 62
     7
370
    25
100
AcDbLine
 10
125.5980771476
 20
76.8069378489
 30
0.0
 11
124.8909703664
 21
76.0998310677
 31
0.0
  0
LINE
  5
94
330
1F
100
AcDbEntity
  8
0
  6
Continuous
 62
     7
370
    25
100
AcDbLine
 10
124.8909703664
 20
76.0998310677
 30
0.0
 11
124.1838635852
 21
76.8069378489
 31
0.0
  0
LINE
  5
95
330
1F
100
AcDbEntity
  8
0
  6
Continuous
 62
     7
370
    25
100
AcDbLine
 10
121.4760189164
 20
76.0998310677
 30
0.0
 11
120.7689121352
 21
76.8069378489
 31
0.0
  0
LINE
  5
96
330
1F
100
AcDbEntity
  8
0
  6
Continuous
 62
     7
370
    25
100
AcDbLine
 10
122.1831256976
 20
76.8069378489
 30
0.0
 11
121.4760189164
 21
76.0998310677
 31
0.0
  0
LINE
  5
97
330
1F
100
AcDbEntity
  8
0
  6
Continuous
 62
     7
370
    25
100
AcDbLine
 10
175.0080115021
 20
74.7184805808
 30
0.0
 11
174.2580115021
 21
74.7184805808
 31
0.0
  0
LINE
  5
98
330
1F
100
AcDbEntity
  8
0
  6
Continuous
 62
     7
370
    25
100
AcDbLine
 10
174.2580115021
 20
47.7184805808
 30
0.0
 11
175.0080115021
 21
47.7184805808
 31
0.0
  0
LINE
  5
99
330
1F
100
AcDbEntity
  8
0
  6
Continuous
 62
     7
370
    25
100
AcDbLine
 10
188.1484110636
 20
45.6300233126
 30
0.0
 11
188.7080115021
 21
47.7184805808
 31
0.0
  0
LINE
  5
9A
330
1F
100
AcDbEntity
  8
0
  6
Continuous
 62
     7
370
    25
100
AcDbLine
 10
188.7080115021
 20
74.7184805808
 30
0.0
 11
188.1484110636
 21
76.8069378489
 31
0.0
  0
LINE
  5
9B
330
1F
100
AcDbEntity
  8
0
  6
Continuous
 62
     7
370
    25
100
AcDbLine
 10
181.2321594189
 20
76.8069378489
 30
0.0
 11
180.5250526377
 21
76.0998310677
 31
0.0
  0
LINE
  5
9C
330
1F
100
AcDbEntity
  8
0
  6
Continuous
 62
     7
370
    25
100
AcDbLine
 10
180.5250526377
 20
76.0998310677
 30
0.0
 11
179.8179458565
 21
76.8069378489
 31
0.0
  0
LINE
  5
9D
330
1F
100
AcDbEntity
  8
0
  6
Continuous
 62
     7
370
    25
100
AcDbLine
 10
184.6471108689
 20
76.8069378489
 30
0.0
 11
183.9400040877
 21
76.0998310677
 31
0.0
  0
LINE
  5
9E
330
1F
100
AcDbEntity
  8
0
  6
Continuous
 62
     7
370
    25
100
AcDbLine
 10
183.9400040877
 20
76.0998310677
 30
0.0
 11
183.2328973065
 21
76.8069378489
 31
0.0
  0
LINE
  5
9F
330
1F
100
AcDbEntity
  8
0
  6
Continuous
 62
     7
370
    25
100
AcDbLine
 10
180.5250526377
 20
46.3371300938
 30
0.0
 11
181.2321594189
 21
45.6300233126
 31
0.0
  0
LINE
  5
A0
330
1F
100
AcDbEntity
  8
0
  6
Continuous
 62
     7
370
    25
100
AcDbLine
 10
179.8179458565
 20
45.6300233126
 30
0.0
 11
180.5250526377
 21
46.3371300938
 31
0.0
  0
LINE
  5
A1
330
1F
100
AcDbEntity
  8
0
  6
Continuous
 62
     7
370
    25
100
AcDbLine
 10
183.9400040877
 20
46.3371300938
 30
0.0
 11
184.6471108689
 21
45.6300233126
 31
0.0
  0
LINE
  5
A2
330
1F
100
AcDbEntity
  8
0
  6
Continuous
 62
     7
370
    25
100
AcDbLine
 10
183.2328973065
 20
45.6300233126
 30
0.0
 11
183.9400040877
 21
46.3371300938
 31
0.0
  0
LINE
  5
A3
330
1F
100
AcDbEntity
  8
0
  6
Continuous
 62
     7
370
    25
100
AcDbLine
 10
155.2080115021
 20
81.7184805808
 30
0.0
 11
155.2080115021
 21
82.4684805808
 31
0.0
  0
LINE
  5
A4
330
1F
100
AcDbEntity
  8
0
  6
Continuous
 62
     7
370
    25
100
AcDbLine
 10
150.2080115021
 20
82.4684805808
 30
0.0
 11
150.2080115021
 21
81.7184805808
 31
0.0
  0
LINE
  5
A5
330
1F
100
AcDbEntity
  8
0
  6
Continuous
 62
     7
370
    25
100
AcDbLine
 10
155.2080115021
 20
82.4684805808
 30
0.0
 11
154.7980115021
 21
84.4184805808
 31
0.0
  0
LINE
  5
A6
330
1F
100
AcDbEntity
  8
0
  6
Continuous
 62
     7
370
    25
100
AcDbLine
 10
150.6180115021
 20
84.4184805808
 30
0.0
 11
150.2080115021
 21
82.4684805808
 31
0.0
  0
ARC
  5
A7
330
1F
100
AcDbEntity
  8
0
  6
Continuous
 62
     7
370
    25
100
AcDbCircle
 10
152.7080115021
 20
80.3003805808
 30
0.0
 40
4.6181
100
AcDbArc
 50
63.0914956386
 51
116.9085043614
  0
ARC
  5
A8
330
1F
100
AcDbEntity
  8
0
  6
Continuous
 62
     7
370
    25
100
AcDbCircle
 10
146.1080115021
 20
81.6184805808
 30
0.0
 40
0.4000000000000057
100
AcDbArc
 50
90.0
 51
165.5224878141
  0
ARC
  5
A9
330
1F
100
AcDbEntity
  8
0
  6
Continuous
 62
     7
370
    25
100
AcDbCircle
 10
159.3080115021
 20
81.6184805808
 30
0.0
 40
0.4000000000000057
100
AcDbArc
 50
14.4775121859
 51
90.0
  0
LINE
  5
AA
330
1F
100
AcDbEntity
  8
0
  6
Continuous
 62
     7
370
    25
100
AcDbLine
 10
165.1862723716
 20
82.0184805808
 30
0.0
 11
165.1862723716
 21
85.0184805808
 31
0.0
  0
LINE
  5
AB
330
1F
100
AcDbEntity
  8
0
  6
Continuous
 62
     7
370
    25
100
AcDbLine
 10
158.4080115021
 20
85.0184805808
 30
0.0
 11
158.4080115021
 21
85.2184805808
 31
0.0
  0
LINE
  5
AC
330
1F
100
AcDbEntity
  8
0
  6
Continuous
 62
     7
370
    25
100
AcDbLine
 10
147.0080115021
 20
85.2184805808
 30
0.0
 11
147.0080115021
 21
85.0184805808
 31
0.0
  0
LINE
  5
AD
330
1F
100
AcDbEntity
  8
0
  6
Continuous
 62
     7
370
    25
100
AcDbLine
 10
140.2297506325
 20
85.0184805808
 30
0.0
 11
140.2297506325
 21
82.0184805808
 31
0.0
  0
SPLINE
  5
AE
330
1F
100
AcDbEntity
  8
0
  6
Continuous
 62
     7
370
    25
100
AcDbSpline
210
0.0
220
0.0
230
1.0
 70
     8
 71
     3
 72
     9
 73
     5
 74
     0
 42
0.00000001
 43
0.00000001
 40
0.0
 40
0.0
 40
0.0
 40
0.0
 40
0.5599892317495103
 40
0.9999999999999999
 40
0.9999999999999999
 40
0.9999999999999999
 40
0.9999999999999999
 10
141.709375222959
 20
96.71848058076378
 30
0.0
 10
141.708937379836
 20
96.66248224498129
 30
0.0
 10
141.7081555020816
 20
96.56248329391656
 30
0.0
 10
141.7080555028158
 20
96.46248215758635
 30
0.0
 10
141.708011502062
 20
96.41848058076377
 30
0.0
  0
SPLINE
  5
AF
330
1F
100
AcDbEntity
  8
0
  6
Continuous
 62
     7
370
    25
100
AcDbSpline
210
0.0
220
0.0
230
1.0
 70
    24
 71
     3
 72
    23
 73
    19
 74
     0
 42
0.00000001
 43
0.00000001
 40
0.0
 40
0.0
 40
0.0
 40
0.0
 40
0.058343093746039
 40
0.1201088138988291
 40
0.184387292337165
 40
0.2499999999999997
 40
0.3156127076628346
 40
0.3798911861011705
 40
0.4416569062539608
 40
0.5
 40
0.5583430937460392
 40
0.6201088138988294
 40
0.6843872923371653
 40
0.7500000000000002
 40
0.8156127076628351
 40
0.8798911861011709
 40
0.9416569062539611
 40
1.0
 40
1.0
 40
1.0
 40
1.0
 10
163.706647781165
 20
96.71848058076377
 30
0.0
 10
163.6611052941479
 20
96.71848058076377
 30
0.0
 10
163.5673486256819
 20
96.71848058076377
 30
0.0
 10
162.9347013026246
 20
96.7184805807638
 30
0.0
 10
161.9087319391912
 20
96.71848058076377
 30
0.0
 10
160.47809562955
 20
96.7184805807638
 30
0.0
 10
158.729292149543
 20
96.71848058076377
 30
0.0
 10
156.7740708823704
 20
96.71848058076378
 30
0.0
 10
154.7425152361212
 20
96.71848058076378
 30
0.0
 10
152.708011502062
 20
96.7184805807638
 30
0.0
 10
150.6735077680028
 20
96.71848058076378
 30
0.0
 10
148.6419521217537
 20
96.7184805807638
 30
0.0
 10
146.686730854581
 20
96.71848058076377
 30
0.0
 10
144.937927374574
 20
96.7184805807638
 30
0.0
 10
143.5072910649328
 20
96.71848058076378
 30
0.0
 10
142.4813217014994
 20
96.71848058076378
 30
0.0
 10
141.8486743784421
 20
96.71848058076377
 30
0.0
 10
141.7549177099761
 20
96.71848058076378
 30
0.0
 10
141.709375222959
 20
96.71848058076378
 30
0.0
  0
SPLINE
  5
B0
330
1F
100
AcDbEntity
  8
0
  6
Continuous
 62
     7
370
    25
100
AcDbSpline
210
0.0
220
0.0
230
1.0
 70
     8
 71
     3
 72
     9
 73
     5
 74
     0
 42
0.00000001
 43
0.00000001
 40
0.0
 40
0.0
 40
0.0
 40
0.0
 40
0.560012142875534
 40
1.0
 40
1.0
 40
1.0
 40
1.0
 10
163.708011502062
 20
96.41848058076377
 30
0.0
 10
163.7079402283789
 20
96.47448245745647
 30
0.0
 10
163.7078129567045
 20
96.57448364029716
 30
0.0
 10
163.707003800201
 20
96.67448235886563
 30
0.0
 10
163.706647781165
 20
96.71848058076378
 30
0.0
  0
SPLINE
  5
B1
330
1F
100
AcDbEntity
  8
0
  6
Continuous
 62
     7
370
    25
100
AcDbSpline
210
0.0
220
0.0
230
1.0
 70
    24
 71
     3
 72
    14
 73
    10
 74
     0
 42
0.00000001
 43
0.00000001
 40
0.0
 40
0.0
 40
0.0
 40
0.0
 40
0.0015829966343643
 40
0.2092156894778749
 40
0.3756399709854458
 40
0.5398259215177166
 40
0.6997105488458317
 40
0.8535485925747524
 40
1.0
 40
1.0
 40
1.0
 40
1.0
 10
146.7040443407832
 20
94.21848058076378
 30
0.0
 10
146.6989288834996
 20
94.21848058076378
 30
0.0
 10
146.0228478992742
 20
94.21848058076354
 30
0.0
 10
145.0048512077294
 20
94.21848058076387
 30
0.0
 10
143.7174090586749
 20
94.21848058076377
 30
0.0
 10
142.8010303345781
 20
94.2184805807638
 30
0.0
 10
142.1602988955388
 20
94.21848058076377
 30
0.0
 10
141.7767179979671
 20
94.2184805807638
 30
0.0
 10
141.7305349915332
 20
94.21848058076377
 30
0.0
 10
141.708011502062
 20
94.21848058076378
 30
0.0
  0
SPLINE
  5
B2
330
1F
100
AcDbEntity
  8
0
  6
Continuous
 62
     7
370
    25
100
AcDbSpline
210
0.0
220
0.0
230
1.0
 70
    24
 71
     3
 72
    18
 73
    14
 74
     0
 42
0.00000001
 43
0.00000001
 40
0.0
 40
0.0
 40
0.0
 40
0.0
 40
0.0701618786097361
 40
0.1633823710998172
 40
0.2513345616865989
 40
0.3392867522733811
 40
0.4325072447634621
 40
0.5296032809024678
 40
0.628759834237861
 40
0.7279163875732535
 40
0.8250124237122591
 40
0.9182329162023403
 40
1.0
 40
1.0
 40
1.0
 40
1.0
 10
146.0851891222223
 20
97.87621560768272
 30
0.0
 10
146.088159893571
 20
97.87621560768274
 30
0.0
 10
146.0950777765662
 20
97.87621560768275
 30
0.0
 10
146.4000171305392
 20
97.87621560768272
 30
0.0
 10
146.915354721172
 20
97.87621560768274
 30
0.0
 10
147.6362431838563
 20
97.87621560768274
 30
0.0
 10
148.5640028381808
 20
97.87621560768272
 30
0.0
 10
149.6947713065161
 20
97.87621560768274
 30
0.0
 10
150.9744642383847
 20
97.87621560768275
 30
0.0
 10
152.3280454722093
 20
97.87621560768275
 30
0.0
 10
153.6666537256269
 20
97.87621560768272
 30
0.0
 10
154.8979311983578
 20
97.87621560768275
 30
0.0
 10
155.618643389159
 20
97.87621560768275
 30
0.0
 10
155.9554132064764
 20
97.87621560768274
 30
0.0
  0
SPLINE
  5
B3
330
1F
100
AcDbEntity
  8
0
  6
Continuous
 62
     7
370
    25
100
AcDbSpline
210
0.0
220
0.0
230
1.0
 70
    24
 71
     3
 72
    12
 73
     8
 74
     0
 42
0.00000001
 43
0.00000001
 40
0.0
 40
0.0
 40
0.0
 40
0.0
 40
0.2116768327400294
 40
0.4491350167847302
 40
0.6916324041903845
 40
0.9341297915960389
 40
1.0
 40
1.0
 40
1.0
 40
1.0
 10
157.0893714016833
 20
97.87621560768274
 30
0.0
 10
157.3777340114292
 20
97.87621560768274
 30
0.0
 10
157.9895805885527
 20
97.87621560768274
 30
0.0
 10
158.6889991681661
 20
97.87621560768272
 30
0.0
 10
159.1646108004402
 20
97.87621560768275
 30
0.0
 10
159.376458539537
 20
97.87621560768272
 30
0.0
 10
159.3388643525622
 20
97.87621560768272
 30
0.0
 10
159.3308338819016
 20
97.87621560768272
 30
0.0
  0
SPLINE
  5
B4
330
1F
100
AcDbEntity
  8
0
  6
Continuous
 62
     7
370
    25
100
AcDbSpline
210
0.0
220
0.0
230
1.0
 70
     8
 71
     3
 72
     9
 73
     5
 74
     0
 42
0.00000001
 43
0.00000001
 40
0.0
 40
0.0
 40
0.0
 40
0.0
 40
0.5598886773269508
 40
0.9999999999999999
 40
0.9999999999999999
 40
0.9999999999999999
 40
0.9999999999999999
 10
159.2414598979321
 20
97.11753821271667
 30
0.0
 10
159.3108963032126
 20
97.06232051920314
 30
0.0
 10
159.4349145377159
 20
96.96369788983128
 30
0.0
 10
159.4509528564087
 20
96.8628603318028
 30
0.0
 10
159.458011502062
 20
96.81848058076378
 30
0.0
  0
SPLINE
  5
B5
330
1F
100
AcDbEntity
  8
0
  6
Continuous
 62
     7
370
    25
100
AcDbSpline
210
0.0
220
0.0
230
1.0
 70
     8
 71
     3
 72
     9
 73
     5
 74
     0
 42
0.00000001
 43
0.00000001
 40
0.0
 40
0.0
 40
0.0
 40
0.0
 40
0.5600038649198187
 40
1.0
 40
1.0
 40
1.0
 40
1.0
 10
159.2280108295132
 20
96.81848058076378
 30
0.0
 10
159.2305480810728
 20
96.87430507694168
 30
0.0
 10
159.2350788561593
 20
96.97399098926283
 30
0.0
 10
159.2395101470617
 20
97.07367682865977
 30
0.0
 10
159.2414598979321
 20
97.11753821271667
 30
0.0
  0
SPLINE
  5
B6
330
1F
100
AcDbEntity
  8
0
  6
Continuous
 62
     7
370
    25
100
AcDbSpline
210
0.0
220
0.0
230
1.0
 70
     8
 71
     3
 72
     9
 73
     5
 74
     0
 42
0.00000001
 43
0.00000001
 40
0.0
 40
0.0
 40
0.0
 40
0.0
 40
0.5598886773269478
 40
1.0
 40
1.0
 40
1.0
 40
1.0
 10
158.5798705603462
 20
97.11753821271667
 30
0.0
 10
158.7279914817902
 20
97.06232051920314
 30
0.0
 10
158.9925457180916
 20
96.96369788983128
 30
0.0
 10
159.156050516446
 20
96.8628603318028
 30
0.0
 10
159.2280108295132
 20
96.81848058076378
 30
0.0
  0
SPLINE
  5
B7
330
1F
100
AcDbEntity
  8
0
  6
Continuous
 62
     7
370
    25
100
AcDbSpline
210
0.0
220
0.0
230
1.0
 70
     8
 71
     3
 72
     9
 73
     5
 74
     0
 42
0.00000001
 43
0.00000001
 40
0.0
 40
0.0
 40
0.0
 40
0.0
 40
0.5600038649198428
 40
1.0
 40
1.0
 40
1.0
 40
1.0
 10
158.553682977607
 20
96.81848058076378
 30
0.0
 10
158.5585953367872
 20
96.87430507694167
 30
0.0
 10
158.5673673462106
 20
96.97399098926283
 30
0.0
 10
158.5760501571092
 20
97.07367682865979
 30
0.0
 10
158.5798705603462
 20
97.11753821271667
 30
0.0
  0
SPLINE
  5
B8
330
1F
100
AcDbEntity
  8
0
  6
Continuous
 62
     7
370
    25
100
AcDbSpline
210
0.0
220
0.0
230
1.0
 70
     8
 71
     3
 72
     9
 73
     5
 74
     0
 42
0.00000001
 43
0.00000001
 40
0.0
 40
0.0
 40
0.0
 40
0.0
 40
0.5598886773269509
 40
1.0
 40
1.0
 40
1.0
 40
1.0
 10
157.518123731644
 20
97.11753821271667
 30
0.0
 10
157.7348349732366
 20
97.06232051920313
 30
0.0
 10
158.1218962773287
 20
96.96369788983128
 30
0.0
 10
158.4217249735414
 20
96.8628603318028
 30
0.0
 10
158.553682977607
 20
96.81848058076378
 30
0.0
  0
SPLINE
  5
B9
330
1F
100
AcDbEntity
  8
0
  6
Continuous
 62
     7
370
    25
100
AcDbSpline
210
0.0
220
0.0
230
1.0
 70
     8
 71
     3
 72
     9
 73
     5
 74
     0
 42
0.00000001
 43
0.00000001
 40
0.0
 40
0.0
 40
0.0
 40
0.0
 40
0.5600038649198396
 40
1.0
 40
1.0
 40
1.0
 40
1.0
 10
157.4809822750712
 20
96.81848058076378
 30
0.0
 10
157.487934972712
 20
96.87430507694168
 30
0.0
 10
157.5003504185265
 20
96.97399098926284
 30
0.0
 10
157.5126930302076
 20
97.07367682865977
 30
0.0
 10
157.518123731644
 20
97.11753821271667
 30
0.0
  0
SPLINE
  5
BA
330
1F
100
AcDbEntity
  8
0
  6
Continuous
 62
     7
370
    25
100
AcDbSpline
210
0.0
220
0.0
230
1.0
 70
     8
 71
     3
 72
     9
 73
     5
 74
     0
 42
0.00000001
 43
0.00000001
 40
0.0
 40
0.0
 40
0.0
 40
0.0
 40
0.5598886773269516
 40
1.0
 40
1.0
 40
1.0
 40
1.0
 10
156.1285757035822
 20
97.11753821271667
 30
0.0
 10
156.399108752341
 20
97.06232051920313
 30
0.0
 10
156.8822995359991
 20
96.96369788983128
 30
0.0
 10
157.2980192999135
 20
96.8628603318028
 30
0.0
 10
157.4809822750712
 20
96.81848058076378
 30
0.0
  0
SPLINE
  5
BB
330
1F
100
AcDbEntity
  8
0
  6
Continuous
 62
     7
370
    25
100
AcDbSpline
210
0.0
220
0.0
230
1.0
 70
     8
 71
     3
 72
     9
 73
     5
 74
     0
 42
0.00000001
 43
0.00000001
 40
0.0
 40
0.0
 40
0.0
 40
0.0
 40
0.5600038649197988
 40
1.0
 40
1.0
 40
1.0
 40
1.0
 10
156.083011502062
 20
96.81848058076378
 30
0.0
 10
156.0915307233091
 20
96.87430507694168
 30
0.0
 10
156.1067435133999
 20
96.97399098926284
 30
0.0
 10
156.1219047972745
 20
97.07367682865977
 30
0.0
 10
156.1285757035822
 20
97.11753821271667
 30
0.0
  0
SPLINE
  5
BC
330
1F
100
AcDbEntity
  8
0
  6
Continuous
 62
     7
370
    25
100
AcDbSpline
210
0.0
220
0.0
230
1.0
 70
     8
 71
     3
 72
     9
 73
     5
 74
     0
 42
0.00000001
 43
0.00000001
 40
0.0
 40
0.0
 40
0.0
 40
0.0
 40
0.5598886773269478
 40
0.9999999999999999
 40
0.9999999999999999
 40
0.9999999999999999
 40
0.9999999999999999
 10
154.5059218779364
 20
97.11753821271667
 30
0.0
 10
154.8118403536656
 20
97.06232051920314
 30
0.0
 10
155.3582319634937
 20
96.96369788983128
 30
0.0
 10
155.8615121802085
 20
96.8628603318028
 30
0.0
 10
156.083011502062
 20
96.81848058076378
 30
0.0
  0
SPLINE
  5
BD
330
1F
100
AcDbEntity
  8
0
  6
Continuous
 62
     7
370
    25
100
AcDbSpline
210
0.0
220
0.0
230
1.0
 70
     8
 71
     3
 72
     9
 73
     5
 74
     0
 42
0.00000001
 43
0.00000001
 40
0.0
 40
0.0
 40
0.0
 40
0.0
 40
0.5600038649198397
 40
1.0
 40
1.0
 40
1.0
 40
1.0
 10
154.455040056504
 20
96.81848058076378
 30
0.0
 10
154.464545230508
 20
96.8743050769417
 30
0.0
 10
154.4815186383708
 20
96.97399098926284
 30
0.0
 10
154.4984653779981
 20
97.07367682865979
 30
0.0
 10
154.5059218779364
 20
97.11753821271667
 30
0.0
  0
SPLINE
  5
BE
330
1F
100
AcDbEntity
  8
0
  6
Continuous
 62
     7
370
    25
100
AcDbSpline
210
0.0
220
0.0
230
1.0
 70
     8
 71
     3
 72
     9
 73
     5
 74
     0
 42
0.00000001
 43
0.00000001
 40
0.0
 40
0.0
 40
0.0
 40
0.0
 40
0.5598886773269446
 40
1.0
 40
1.0
 40
1.0
 40
1.0
 10
152.7607434313621
 20
97.11753821271667
 30
0.0
 10
153.0811994954949
 20
97.06232051920314
 30
0.0
 10
153.6535562462382
 20
96.96369788983128
 30
0.0
 10
154.2100992006941
 20
96.8628603318028
 30
0.0
 10
154.455040056504
 20
96.81848058076378
 30
0.0
  0
SPLINE
  5
BF
330
1F
100
AcDbEntity
  8
0
  6
Continuous
 62
     7
370
    25
100
AcDbSpline
210
0.0
220
0.0
230
1.0
 70
    24
 71
     3
 72
     9
 73
     5
 74
     0
 42
0.00000001
 43
0.00000001
 40
0.0
 40
0.0
 40
0.0
 40
0.0
 40
0.5600038649197977
 40
0.9999999999999999
 40
0.9999999999999999
 40
0.9999999999999999
 40
0.9999999999999999
 10
152.708011502062
 20
96.81848058076378
 30
0.0
 10
152.7178548669226
 20
96.87430507694167
 30
0.0
 10
152.7354321828614
 20
96.97399098926282
 30
0.0
 10
152.7530094859416
 20
97.07367682865977
 30
0.0
 10
152.7607434313621
 20
97.11753821271667
 30
0.0
  0
SPLINE
  5
C0
330
1F
100
AcDbEntity
  8
0
  6
Continuous
 62
     7
370
    25
100
AcDbSpline
210
0.0
220
0.0
230
1.0
 70
    24
 71
     3
 72
     9
 73
     5
 74
     0
 42
0.00000001
 43
0.00000001
 40
0.0
 40
0.0
 40
0.0
 40
0.0
 40
0.559888677326948
 40
1.0
 40
1.0
 40
1.0
 40
1.0
 10
151.0119713909496
 20
97.11753821271667
 30
0.0
 10
151.3251264922941
 20
97.06232051920314
 30
0.0
 10
151.8844432172536
 20
96.96369788983128
 30
0.0
 10
152.4563214268352
 20
96.8628603318028
 30
0.0
 10
152.708011502062
 20
96.81848058076378
 30
0.0
  0
SPLINE
  5
C1
330
1F
100
AcDbEntity
  8
0
  6
Continuous
 62
     7
370
    25
100
AcDbSpline
210
0.0
220
0.0
230
1.0
 70
     8
 71
     3
 72
     9
 73
     5
 74
     0
 42
0.00000001
 43
0.00000001
 40
0.0
 40
0.0
 40
0.0
 40
0.0
 40
0.5600038649198184
 40
1.0
 40
1.0
 40
1.0
 40
1.0
 10
150.96098294762
 20
96.81848058076378
 30
0.0
 10
150.9704936942889
 20
96.87430507694167
 30
0.0
 10
150.9874770532703
 20
96.97399098926282
 30
0.0
 10
151.0044870556464
 20
97.07367682865979
 30
0.0
 10
151.0119713909496
 20
97.11753821271667
 30
0.0
  0
SPLINE
  5
C2
330
1F
100
AcDbEntity
  8
0
  6
Continuous
 62
     7
370
    25
100
AcDbSpline
210
0.0
220
0.0
230
1.0
 70
     8
 71
     3
 72
     9
 73
     5
 74
     0
 42
0.00000001
 43
0.00000001
 40
0.0
 40
0.0
 40
0.0
 40
0.0
 40
0.5598886773269448
 40
1.0
 40
1.0
 40
1.0
 40
1.0
 10
149.3787816812707
 20
97.11753821271667
 30
0.0
 10
149.6632948171834
 20
97.06232051920314
 30
0.0
 10
150.1714550058678
 20
96.96369788983128
 30
0.0
 10
150.7196959156655
 20
96.8628603318028
 30
0.0
 10
150.96098294762
 20
96.81848058076378
 30
0.0
  0
SPLINE
  5
C3
330
1F
100
AcDbEntity
  8
0
  6
Continuous
 62
     7
370
    25
100
AcDbSpline
210
0.0
220
0.0
230
1.0
 70
     8
 71
     3
 72
     9
 73
     5
 74
     0
 42
0.00000001
 43
0.00000001
 40
0.0
 40
0.0
 40
0.0
 40
0.0
 40
0.5600038649198193
 40
1.0
 40
1.0
 40
1.0
 40
1.0
 10
149.333011502062
 20
96.81848058076378
 30
0.0
 10
149.341541488871
 20
96.87430507694168
 30
0.0
 10
149.3567735030468
 20
96.97399098926284
 30
0.0
 10
149.3720570011672
 20
97.07367682865977
 30
0.0
 10
149.3787816812707
 20
97.11753821271667
 30
0.0
  0
SPLINE
  5
C4
330
1F
100
AcDbEntity
  8
0
  6
Continuous
 62
     7
370
    25
100
AcDbSpline
210
0.0
220
0.0
230
1.0
 70
     8
 71
     3
 72
     9
 73
     5
 74
     0
 42
0.00000001
 43
0.00000001
 40
0.0
 40
0.0
 40
0.0
 40
0.0
 40
0.5598886773269478
 40
1.0
 40
1.0
 40
1.0
 40
1.0
 10
147.9724734820662
 20
97.11753821271667
 30
0.0
 10
148.208955552515
 20
97.06232051920314
 30
0.0
 10
148.6313289278398
 20
96.96369788983128
 30
0.0
 10
149.1185708258618
 20
96.8628603318028
 30
0.0
 10
149.333011502062
 20
96.81848058076378
 30
0.0
  0
SPLINE
  5
C5
330
1F
100
AcDbEntity
  8
0
  6
Continuous
 62
     7
370
    25
100
AcDbSpline
210
0.0
220
0.0
230
1.0
 70
     8
 71
     3
 72
     9
 73
     5
 74
     0
 42
0.00000001
 43
0.00000001
 40
0.0
 40
0.0
 40
0.0
 40
0.0
 40
0.5600038649198423
 40
1.0
 40
1.0
 40
1.0
 40
1.0
 10
147.9350407290528
 20
96.81848058076378
 30
0.0
 10
147.9420086514972
 20
96.87430507694168
 30
0.0
 10
147.9544512842735
 20
96.97399098926284
 30
0.0
 10
147.9669667329985
 20
97.07367682865977
 30
0.0
 10
147.9724734820662
 20
97.11753821271667
 30
0.0
  0
SPLINE
  5
C6
330
1F
100
AcDbEntity
  8
0
  6
Continuous
 62
     7
370
    25
100
AcDbSpline
210
0.0
220
0.0
230
1.0
 70
     8
 71
     3
 72
     9
 73
     5
 74
     0
 42
0.00000001
 43
0.00000001
 40
0.0
 40
0.0
 40
0.0
 40
0.0
 40
0.5598886773269471
 40
1.0
 40
1.0
 40
1.0
 40
1.0
 10
146.8888843730779
 20
97.11753821271667
 30
0.0
 10
147.0612195157667
 20
97.06232051920314
 30
0.0
 10
147.3690220302086
 20
96.96369788983128
 30
0.0
 10
147.76206018631
 20
96.8628603318028
 30
0.0
 10
147.9350407290528
 20
96.81848058076378
 30
0.0
  0
SPLINE
  5
C7
330
1F
100
AcDbEntity
  8
0
  6
Continuous
 62
     7
370
    25
100
AcDbSpline
210
0.0
220
0.0
230
1.0
 70
     8
 71
     3
 72
     9
 73
     5
 74
     0
 42
0.00000001
 43
0.00000001
 40
0.0
 40
0.0
 40
0.0
 40
0.0
 40
0.5600038649197953
 40
1.0
 40
1.0
 40
1.0
 40
1.0
 10
146.862340026517
 20
96.81848058076378
 30
0.0
 10
146.8672710321974
 20
96.87430507694167
 30
0.0
 10
146.8760763387128
 20
96.97399098926282
 30
0.0
 10
146.8849708308945
 20
97.07367682865977
 30
0.0
 10
146.8888843730779
 20
97.11753821271667
 30
0.0
  0
SPLINE
  5
C8
330
1F
100
AcDbEntity
  8
0
  6
Continuous
 62
     7
370
    25
100
AcDbSpline
210
0.0
220
0.0
230
1.0
 70
     8
 71
     3
 72
     9
 73
     5
 74
     0
 42
0.00000001
 43
0.00000001
 40
0.0
 40
0.0
 40
0.0
 40
0.0
 40
0.5598886773269505
 40
1.0
 40
1.0
 40
1.0
 40
1.0
 10
146.2018591613676
 20
97.11753821271667
 30
0.0
 10
146.2983030211195
 20
97.06232051920315
 30
0.0
 10
146.4705584419869
 20
96.96369788983128
 30
0.0
 10
146.7426079553557
 20
96.8628603318028
 30
0.0
 10
146.862340026517
 20
96.81848058076378
 30
0.0
  0
SPLINE
  5
C9
330
1F
100
AcDbEntity
  8
0
  6
Continuous
 62
     7
370
    25
100
AcDbSpline
210
0.0
220
0.0
230
1.0
 70
     8
 71
     3
 72
     9
 73
     5
 74
     0
 42
0.00000001
 43
0.00000001
 40
0.0
 40
0.0
 40
0.0
 40
0.0
 40
0.5600038649198184
 40
1.0
 40
1.0
 40
1.0
 40
1.0
 10
146.1880121746108
 20
96.81848058076378
 30
0.0
 10
146.1905702236389
 20
96.87430507694167
 30
0.0
 10
146.1951381368058
 20
96.97399098926282
 30
0.0
 10
146.1998055275008
 20
97.07367682865979
 30
0.0
 10
146.2018591613676
 20
97.11753821271667
 30
0.0
  0
SPLINE
  5
CA
330
1F
100
AcDbEntity
  8
0
  6
Continuous
 62
     7
370
    25
100
AcDbSpline
210
0.0
220
0.0
230
1.0
 70
     8
 71
     3
 72
     9
 73
     5
 74
     0
 42
0.00000001
 43
0.00000001
 40
0.0
 40
0.0
 40
0.0
 40
0.0
 40
0.5598886773269467
 40
1.0
 40
1.0
 40
1.0
 40
1.0
 10
145.9582174797505
 20
97.11753821271667
 30
0.0
 10
145.9721975669044
 20
97.06232051920314
 30
0.0
 10
145.9971669719307
 20
96.96369788983128
 30
0.0
 10
146.129688117814
 20
96.8628603318028
 30
0.0
 10
146.1880121746108
 20
96.81848058076378
 30
0.0
  0
SPLINE
  5
CB
330
1F
100
AcDbEntity
  8
0
  6
Continuous
 62
     7
370
    25
100
AcDbSpline
210
0.0
220
0.0
230
1.0
 70
     8
 71
     3
 72
     9
 73
     5
 74
     0
 42
0.00000001
 43
0.00000001
 40
0.0
 40
0.0
 40
0.0
 40
0.0
 40
0.5600038649198201
 40
0.9999999999999999
 40
0.9999999999999999
 40
0.9999999999999999
 40
0.9999999999999999
 10
145.958011502062
 20
96.81848058076378
 30
0.0
 10
145.9580222676239
 20
96.87430507694167
 30
0.0
 10
145.9580414917089
 20
96.97399098926282
 30
0.0
 10
145.9581637059547
 20
97.07367682865977
 30
0.0
 10
145.9582174797505
 20
97.11753821271667
 30
0.0
  0
LINE
  5
CC
330
1F
100
AcDbEntity
  8
0
  6
Continuous
 62
     7
370
    25
100
AcDbLine
 10
153.558826918
 20
96.8184805808
 30
0.0
 11
154.4550400565
 21
96.8184805808
 31
0.0
  0
LINE
  5
CD
330
1F
100
AcDbEntity
  8
0
  6
Continuous
 62
     7
370
    25
100
AcDbLine
 10
153.558826918
 20
96.8184805808
 30
0.0
 11
152.7331513693
 21
96.9610558529
 31
0.0
  0
LINE
  5
CE
330
1F
100
AcDbEntity
  8
0
  6
Continuous
 62
     7
370
    25
100
AcDbLine
 10
151.8994269531
 20
96.9610558529
 30
0.0
 11
151.8571960861
 21
96.8184805808
 31
0.0
  0
LINE
  5
CF
330
1F
100
AcDbEntity
  8
0
  6
Continuous
 62
     7
370
    25
100
AcDbLine
 10
151.8571960861
 20
96.8184805808
 30
0.0
 11
150.9609829476
 21
96.8184805808
 31
0.0
  0
LINE
  5
D0
330
1F
100
AcDbEntity
  8
0
  6
Continuous
 62
     7
370
    25
100
AcDbLine
 10
156.0830115021
 20
96.8184805808
 30
0.0
 11
154.4550400565
 21
96.8184805808
 31
0.0
  0
LINE
  5
D1
330
1F
100
AcDbEntity
  8
0
  6
Continuous
 62
     7
370
    25
100
AcDbLine
 10
151.0643623348
 20
96.8184805808
 30
0.0
 11
149.3330115021
 21
96.8184805808
 31
0.0
  0
LINE
  5
D2
330
1F
100
AcDbEntity
  8
0
  6
Continuous
 62
     7
370
    25
100
AcDbLine
 10
156.1108326335
 20
96.8184805808
 30
0.0
 11
157.4809822751
 21
96.8184805808
 31
0.0
  0
LINE
  5
D3
330
1F
100
AcDbEntity
  8
0
  6
Continuous
 62
     7
370
    25
100
AcDbLine
 10
149.272189392
 20
96.8184805808
 30
0.0
 11
147.9350407291
 21
96.8184805808
 31
0.0
  0
LINE
  5
D4
330
1F
100
AcDbEntity
  8
0
  6
Continuous
 62
     7
370
    25
100
AcDbLine
 10
157.5418043851
 20
96.8184805808
 30
0.0
 11
158.5536829776
 21
96.8184805808
 31
0.0
  0
SPLINE
  5
D5
330
1F
100
AcDbEntity
  8
0
  6
Continuous
 62
     7
370
    25
100
AcDbSpline
210
0.0
220
0.0
230
1.0
 70
     8
 71
     3
 72
    19
 73
    15
 74
     0
 42
0.00000001
 43
0.00000001
 40
0.0
 40
0.0
 40
0.0
 40
0.0
 40
0.3057358733432871
 40
0.502057109799269
 40
0.7745366138409907
 40
0.893004451064352
 40
0.9479503447689228
 40
0.9745143604530669
 40
0.9936172590808313
 40
0.9983976689481739
 40
0.9995957745852021
 40
0.9998969224407289
 40
0.9999730999065325
 40
1.0
 40
1.0
 40
1.0
 40
1.0
 10
155.1810877134153
 20
98.85993246509118
 30
0.0
 10
155.1527669040262
 20
98.89380106340911
 30
0.0
 10
155.106260540368
 20
98.94941760064606
 30
0.0
 10
155.0500211460305
 20
99.07539408324733
 30
0.0
 10
155.023752687493
 20
99.19409575385963
 30
0.0
 10
155.0181560336936
 20
99.28973118225079
 30
0.0
 10
155.0175024007867
 20
99.33270683807807
 30
0.0
 10
155.0174185755154
 20
99.3543388626546
 30
0.0
 10
155.0174128679172
 20
99.3651884341685
 30
0.0
 10
155.0173607179647
 20
99.37057861915224
 30
0.0
 10
155.0173502618621
 20
99.37193033371011
 30
0.0
 10
155.0173347079249
 20
99.37226799135404
 30
0.0
 10
155.0173328955948
 20
99.37235536352212
 30
0.0
 10
155.0173278685738
 20
99.3723769804003
 30
0.0
 10
155.0173265566749
 20
99.372382621745
 30
0.0
  0
SPLINE
  5
D6
330
1F
100
AcDbEntity
  8
0
  6
Continuous
 62
     7
370
    25
100
AcDbSpline
210
0.0
220
0.0
230
1.0
 70
     8
 71
     3
 72
    19
 73
    15
 74
     0
 42
0.00000001
 43
0.00000001
 40
0.0
 40
0.0
 40
0.0
 40
0.0
 40
0.3057360504268158
 40
0.5020571787530791
 40
0.7745366675738729
 40
0.8930044771280493
 40
0.9479503587109336
 40
0.974514368464875
 40
0.9936172609942087
 40
0.9983976693774896
 40
0.9995957746644898
 40
0.9998969224440227
 40
0.9999730998975868
 40
1.0
 40
1.0
 40
1.0
 40
1.0
 10
157.6541639247686
 20
98.85993246509118
 30
0.0
 10
157.597283854753
 20
98.89380108508247
 30
0.0
 10
157.5038796015107
 20
98.94941763333497
 30
0.0
 10
157.3922590468783
 20
99.07539414096061
 30
0.0
 10
157.3392174965022
 20
99.19409578578775
 30
0.0
 10
157.3284588374895
 20
99.28973120254796
 30
0.0
 10
157.3270705916764
 20
99.33270684854459
 30
0.0
 10
157.3268469877921
 20
99.3543388678941
 30
0.0
 10
157.3268172545424
 20
99.36518843652398
 30
0.0
 10
157.3267880212411
 20
99.37057861976662
 30
0.0
 10
157.3267825369854
 20
99.37193033392971
 30
0.0
 10
157.3267747279714
 20
99.37226799146664
 30
0.0
 10
157.3267738154903
 20
99.37235536362279
 30
0.0
 10
157.3267713006297
 20
99.37237698049353
 30
0.0
 10
157.3267706443276
 20
99.37238262183834
 30
0.0
  0
SPLINE
  5
D7
330
1F
100
AcDbEntity
  8
0
  6
Continuous
 62
     7
370
    25
100
AcDbSpline
210
0.0
220
0.0
230
1.0
 70
     8
 71
     3
 72
    19
 73
    15
 74
     0
 42
0.00000001
 43
0.00000001
 40
0.0
 40
0.0
 40
0.0
 40
0.0
 40
0.305735968660748
 40
0.5020571786944118
 40
0.7745366675474002
 40
0.893004477118003
 40
0.9479503587064106
 40
0.9745143684626821
 40
0.9936172609936503
 40
0.9983976693773572
 40
0.9995957746644547
 40
0.9998969224440115
 40
0.9999730998975733
 40
1.0
 40
1.0
 40
1.0
 40
1.0
 10
147.7618590793554
 20
98.85993246509119
 30
0.0
 10
147.8187391343322
 20
98.89380107502639
 30
0.0
 10
147.9121433878479
 20
98.94941762163312
 30
0.0
 10
148.0237639497966
 20
99.07539412446134
 30
0.0
 10
148.0768055076071
 20
99.19409578569548
 30
0.0
 10
148.0875641666327
 20
99.28973120251447
 30
0.0
 10
148.0889524124474
 20
99.33270684852845
 30
0.0
 10
148.0891760163318
 20
99.3543388678869
 30
0.0
 10
148.0892057495815
 20
99.3651884365211
 30
0.0
 10
148.0892349828829
 20
99.37057861976592
 30
0.0
 10
148.0892404671386
 20
99.37193033392955
 30
0.0
 10
148.0892482761526
 20
99.3722679914666
 30
0.0
 10
148.0892491886337
 20
99.37235536362277
 30
0.0
 10
148.0892517034943
 20
99.37237698049353
 30
0.0
 10
148.0892523597963
 20
99.37238262183836
 30
0.0
  0
SPLINE
  5
D8
330
1F
100
AcDbEntity
  8
0
  6
Continuous
 62
     7
370
    25
100
AcDbSpline
210
0.0
220
0.0
230
1.0
 70
     8
 71
     3
 72
    19
 73
    15
 74
     0
 42
0.00000001
 43
0.00000001
 40
0.0
 40
0.0
 40
0.0
 40
0.0
 40
0.3057346352433624
 40
0.5020581146322088
 40
0.7745380345574963
 40
0.8930060660102506
 40
0.9479520738908762
 40
0.9745161477724572
 40
0.9936176329441117
 40
0.998397721630903
 40
0.9995957643931304
 40
0.9998969061304235
 40
0.9999730877037264
 40
1.0
 40
1.0
 40
1.0
 40
1.0
 10
150.2349352907087
 20
98.85993246509118
 30
0.0
 10
150.2634942680315
 20
98.89380089969076
 30
0.0
 10
150.3103920174445
 20
98.94941750461706
 30
0.0
 10
150.3657734590993
 20
99.0753937594522
 30
0.0
 10
150.3925461302653
 20
99.19409590698785
 30
0.0
 10
150.3977084773286
 20
99.28973119927866
 30
0.0
 10
150.398443250535
 20
99.33270684749418
 30
0.0
 10
150.3985830585895
 20
99.35433854197883
 30
0.0
 10
150.3986071277095
 20
99.36518775420454
 30
0.0
 10
150.3985841222281
 20
99.37057751449436
 30
0.0
 10
150.3985791279973
 20
99.37192915647815
 30
0.0
 10
150.3985713463596
 20
99.37226678889738
 30
0.0
 10
150.3985704405251
 20
99.37235416741542
 30
0.0
 10
150.3985679155289
 20
99.37237578217712
 30
0.0
 10
150.3985672563874
 20
99.3723814246355
 30
0.0
  0
LINE
  5
D9
330
1F
100
AcDbEntity
  8
0
  6
Continuous
 62
     7
370
    25
100
AcDbLine
 10
150.3986104253
 20
102.2526730435
 30
0.0
 11
150.3986104253
 21
99.3727092557
 31
0.0
  0
SPLINE
  5
DA
330
1F
100
AcDbEntity
  8
0
  6
Continuous
 62
     7
370
    25
100
AcDbSpline
210
0.0
220
0.0
230
1.0
 70
     8
 71
     3
 72
     9
 73
     5
 74
     0
 42
0.00000001
 43
0.00000001
 40
0.0
 40
0.0
 40
0.0
 40
0.0
 40
0.5778119623600652
 40
1.0
 40
1.0
 40
1.0
 40
1.0
 10
150.3986104253035
 20
102.2526730434543
 30
0.0
 10
150.8419752324625
 20
102.3062004579911
 30
0.0
 10
151.6092919999244
 20
102.398838579082
 30
0.0
 10
152.3818477190408
 20
102.4126496934789
 30
0.0
 10
152.708011502062
 20
102.4184805807638
 30
0.0
  0
SPLINE
  5
DB
330
1F
100
AcDbEntity
  8
0
  6
Continuous
 62
     7
370
    25
100
AcDbSpline
210
0.0
220
0.0
230
1.0
 70
     8
 71
     3
 72
     9
 73
     5
 74
     0
 42
0.00000001
 43
0.00000001
 40
0.0
 40
0.0
 40
0.0
 40
0.0
 40
0.5398560076902728
 40
1.0
 40
1.0
 40
1.0
 40
1.0
 10
152.708011502062
 20
102.4184805807638
 30
0.0
 10
153.1251065999419
 20
102.4089670463738
 30
0.0
 10
153.8977109461719
 20
102.3913446910524
 30
0.0
 10
154.6645542428234
 20
102.2963734770293
 30
0.0
 10
155.0174125788205
 20
102.2526730434543
 30
0.0
  0
LINE
  5
DC
330
1F
100
AcDbEntity
  8
0
  6
Continuous
 62
     7
370
    25
100
AcDbLine
 10
155.0174125788
 20
102.2526730435
 30
0.0
 11
155.0174125788
 21
99.3727092557
 31
0.0
  0
LINE
  5
DD
330
1F
100
AcDbEntity
  8
0
  6
Continuous
 62
     7
370
    25
100
AcDbLine
 10
148.0892093485
 20
102.2526730435
 30
0.0
 11
148.0892093485
 21
99.3727092557
 31
0.0
  0
SPLINE
  5
DE
330
1F
100
AcDbEntity
  8
0
  6
Continuous
 62
     7
370
    25
100
AcDbSpline
210
0.0
220
0.0
230
1.0
 70
     8
 71
     3
 72
     9
 73
     5
 74
     0
 42
0.00000001
 43
0.00000001
 40
0.0
 40
0.0
 40
0.0
 40
0.0
 40
0.5778119623600688
 40
1.0
 40
1.0
 40
1.0
 40
1.0
 10
148.089209348545
 20
102.2526730434543
 30
0.0
 10
148.3108917521245
 20
102.3062004579911
 30
0.0
 10
148.6945501358555
 20
102.398838579082
 30
0.0
 10
149.0808279954136
 20
102.4126496934789
 30
0.0
 10
149.2439098869242
 20
102.4184805807638
 30
0.0
  0
SPLINE
  5
DF
330
1F
100
AcDbEntity
  8
0
  6
Continuous
 62
     7
370
    25
100
AcDbSpline
210
0.0
220
0.0
230
1.0
 70
     8
 71
     3
 72
     9
 73
     5
 74
     0
 42
0.00000001
 43
0.00000001
 40
0.0
 40
0.0
 40
0.0
 40
0.0
 40
0.5398560076902701
 40
1.0
 40
1.0
 40
1.0
 40
1.0
 10
149.2439098869242
 20
102.4184805807638
 30
0.0
 10
149.4524574358642
 20
102.4089670463738
 30
0.0
 10
149.8387596089792
 20
102.3913446910524
 30
0.0
 10
150.2221812573049
 20
102.2963734770293
 30
0.0
 10
150.3986104253035
 20
102.2526730434543
 30
0.0
  0
SPLINE
  5
E0
330
1F
100
AcDbEntity
  8
0
  6
Continuous
 62
     7
370
    25
100
AcDbSpline
210
0.0
220
0.0
230
1.0
 70
     8
 71
     3
 72
     9
 73
     5
 74
     0
 42
0.00000001
 43
0.00000001
 40
0.0
 40
0.0
 40
0.0
 40
0.0
 40
0.5778119623600674
 40
1.0
 40
1.0
 40
1.0
 40
1.0
 10
155.0174125788205
 20
102.2526730434543
 30
0.0
 10
155.2390949824
 20
102.3062004579911
 30
0.0
 10
155.622753366131
 20
102.3988385790819
 30
0.0
 10
156.0090312256891
 20
102.4126496934789
 30
0.0
 10
156.1721131171998
 20
102.4184805807638
 30
0.0
  0
SPLINE
  5
E1
330
1F
100
AcDbEntity
  8
0
  6
Continuous
 62
     7
370
    25
100
AcDbSpline
210
0.0
220
0.0
230
1.0
 70
     8
 71
     3
 72
     9
 73
     5
 74
     0
 42
0.00000001
 43
0.00000001
 40
0.0
 40
0.0
 40
0.0
 40
0.0
 40
0.5398560076902711
 40
0.9999999999999999
 40
0.9999999999999999
 40
0.9999999999999999
 40
0.9999999999999999
 10
156.1721131171998
 20
102.4184805807638
 30
0.0
 10
156.3806606661397
 20
102.4089670463738
 30
0.0
 10
156.7669628392547
 20
102.3913446910524
 30
0.0
 10
157.1503844875804
 20
102.2963734770293
 30
0.0
 10
157.326813655579
 20
102.2526730434543
 30
0.0
  0
LINE
  5
E2
330
1F
100
AcDbEntity
  8
0
  6
Continuous
 62
     7
370
    25
100
AcDbLine
 10
157.3268136556
 20
102.2526730435
 30
0.0
 11
157.3268136556
 21
99.3727092557
 31
0.0
  0
SPLINE
  5
E3
330
1F
100
AcDbEntity
  8
0
  6
Continuous
 62
     7
370
    25
100
AcDbSpline
210
0.0
220
0.0
230
1.0
 70
    24
 71
     3
 72
    11
 73
     7
 74
     0
 42
0.00000001
 43
0.00000001
 40
0.0
 40
0.0
 40
0.0
 40
0.0
 40
0.2757314499394152
 40
0.5610422027418012
 40
0.7842685108023563
 40
1.0
 40
1.0
 40
1.0
 40
1.0
 10
149.2439098869242
 20
102.4184805807638
 30
0.0
 10
149.4644738495876
 20
102.4184805807638
 30
0.0
 10
149.9132644807807
 20
102.4184805807638
 30
0.0
 10
150.8394026995892
 20
102.4184805807638
 30
0.0
 10
151.7940649327806
 20
102.4184805807638
 30
0.0
 10
152.4068502359208
 20
102.4184805807638
 30
0.0
 10
152.708011502062
 20
102.4184805807638
 30
0.0
  0
SPLINE
  5
E4
330
1F
100
AcDbEntity
  8
0
  6
Continuous
 62
     7
370
    25
100
AcDbSpline
210
0.0
220
0.0
230
1.0
 70
    24
 71
     3
 72
    11
 73
     7
 74
     0
 42
0.00000001
 43
0.00000001
 40
0.0
 40
0.0
 40
0.0
 40
0.0
 40
0.2757314499394164
 40
0.5610422027418018
 40
0.7842685108023568
 40
1.0
 40
1.0
 40
1.0
 40
1.0
 10
152.708011502062
 20
102.4184805807638
 30
0.0
 10
153.0933816663266
 20
102.4184805807638
 30
0.0
 10
153.877510302641
 20
102.4184805807638
 30
0.0
 10
154.877736877812
 20
102.4184805807638
 30
0.0
 10
155.6634483730088
 20
102.4184805807638
 30
0.0
 10
156.0044992505353
 20
102.4184805807638
 30
0.0
 10
156.1721131171998
 20
102.4184805807638
 30
0.0
  0
LINE
  5
E5
330
1F
100
AcDbEntity
  8
0
  6
Continuous
 62
     7
370
    25
100
AcDbLine
 10
147.9345407291
 20
96.8184805808
 30
0.0
 11
146.8623400265
 21
96.8184805808
 31
0.0
  0
LINE
  5
E6
330
1F
100
AcDbEntity
  8
0
  6
Continuous
 62
     7
370
    25
100
AcDbLine
 10
158.6145050877
 20
96.8184805808
 30
0.0
 11
159.2280108295
 21
96.8184805808
 31
0.0
  0
SPLINE
  5
E7
330
1F
100
AcDbEntity
  8
0
  6
Continuous
 62
     7
370
    25
100
AcDbSpline
210
0.0
220
0.0
230
1.0
 70
    24
 71
     3
 72
    10
 73
     6
 74
     0
 42
0.00000001
 43
0.00000001
 40
0.0
 40
0.0
 40
0.0
 40
0.0
 40
0.1217108109959712
 40
0.5683534137597759
 40
1.0
 40
1.0
 40
1.0
 40
1.0
 10
148.7378954222362
 20
102.4184805807638
 30
0.0
 10
148.728578166716
 20
102.4184805807638
 30
0.0
 10
148.685069344957
 20
102.4184805807637
 30
0.0
 10
148.8513925452606
 20
102.4184805807638
 30
0.0
 10
149.1145686064041
 20
102.4184805807638
 30
0.0
 10
149.2439098869242
 20
102.4184805807638
 30
0.0
  0
SPLINE
  5
E8
330
1F
100
AcDbEntity
  8
0
  6
Continuous
 62
     7
370
    25
100
AcDbSpline
210
0.0
220
0.0
230
1.0
 70
    24
 71
     3
 72
     9
 73
     5
 74
     0
 42
0.00000001
 43
0.00000001
 40
0.0
 40
0.0
 40
0.0
 40
0.0
 40
0.5512284259675664
 40
1.0
 40
1.0
 40
1.0
 40
1.0
 10
156.1721131171998
 20
102.4184805807638
 30
0.0
 10
156.3443415403227
 20
102.4184805807638
 30
0.0
 10
156.6567862819389
 20
102.4184805807638
 30
0.0
 10
156.6715168994713
 20
102.4184805807638
 30
0.0
 10
156.6781275818878
 20
102.4184805807638
 30
0.0
  0
LINE
  5
E9
330
1F
100
AcDbEntity
  8
0
  6
Continuous
 62
     7
370
    25
100
AcDbLine
 10
146.8618400265
 20
96.8184805808
 30
0.0
 11
146.1880121746
 21
96.8184805808
 31
0.0
  0
LINE
  5
EA
330
1F
100
AcDbEntity
  8
0
  6
Continuous
 62
     7
370
    25
100
AcDbLine
 10
159.2285108295
 20
96.8184805808
 30
0.0
 11
159.4580115021
 21
96.8184805808
 31
0.0
  0
LINE
  5
EB
330
1F
100
AcDbEntity
  8
0
  6
Continuous
 62
     7
370
    25
100
AcDbLine
 10
146.1875121746
 20
96.8184805808
 30
0.0
 11
145.9580115021
 21
96.8184805808
 31
0.0
  0
SPLINE
  5
EC
330
1F
100
AcDbEntity
  8
0
  6
Continuous
 62
     7
370
    25
100
AcDbSpline
210
0.0
220
0.0
230
1.0
 70
    24
 71
     3
 72
    20
 73
    16
 74
     0
 42
0.00000001
 43
0.00000001
 40
0.0
 40
0.0
 40
0.0
 40
0.0
 40
0.0789088159730284
 40
0.1614839718939588
 40
0.2466979085500402
 40
0.3332952435355655
 40
0.4198925785210907
 40
0.5051065151771721
 40
0.5876816710981023
 40
0.66659048707113
 40
0.745499303044159
 40
0.828074458965089
 40
0.9132883956211704
 40
0.9998857306066953
 40
1.0
 40
1.0
 40
1.0
 40
1.0
 10
146.8256585608855
 20
85.21848058076378
 30
0.0
 10
147.4140974382607
 20
85.21848058076378
 30
0.0
 10
148.6183158258213
 20
85.21848058076378
 30
0.0
 10
150.6209339564765
 20
85.21848058076377
 30
0.0
 10
152.7385533656322
 20
85.21848058076378
 30
0.0
 10
154.8926124429086
 20
85.21848058076378
 30
0.0
 10
156.9751656730519
 20
85.21848058076377
 30
0.0
 10
158.8906041810725
 20
85.21848058076377
 30
0.0
 10
160.5624906521217
 20
85.21848058076378
 30
0.0
 10
161.9716074743582
 20
85.21848058076375
 30
0.0
 10
163.1241225906155
 20
85.2184805807638
 30
0.0
 10
164.0200079877474
 20
85.21848058076367
 30
0.0
 10
164.5488715963006
 20
85.21848058076417
 30
0.0
 10
164.7729375712839
 20
85.21848058076291
 30
0.0
 10
164.707840239575
 20
85.21848058076377
 30
0.0
 10
164.7077544536799
 20
85.21848058076377
 30
0.0
  0
LINE
  5
ED
330
1F
100
AcDbEntity
  8
0
  6
Continuous
 62
     7
370
    25
100
AcDbLine
 10
146.8256585609
 20
86.7424559368
 30
0.0
 11
146.8256585609
 21
85.2184805808
 31
0.0
  0
SPLINE
  5
EE
330
1F
100
AcDbEntity
  8
0
  6
Continuous
 62
     7
370
    25
100
AcDbSpline
210
0.0
220
0.0
230
1.0
 70
    24
 71
     3
 72
    19
 73
    15
 74
     0
 42
0.00000001
 43
0.00000001
 40
0.0
 40
0.0
 40
0.0
 40
0.0
 40
0.0789197265622584
 40
0.1615063000110751
 40
0.2467320190548157
 40
0.3333413277081598
 40
0.4199506363615038
 40
0.5051763554052444
 40
0.587762928854061
 40
0.6666826554163188
 40
0.7456023819785776
 40
0.8281889554273942
 40
0.9134146744711347
 40
1.0
 40
1.0
 40
1.0
 40
1.0
 10
146.8256585608855
 20
94.21848058076378
 30
0.0
 10
147.4140974626976
 20
94.21848058076377
 30
0.0
 10
148.6183159002674
 20
94.21848058076377
 30
0.0
 10
150.6209336382801
 20
94.21848058076378
 30
0.0
 10
152.7385546081049
 20
94.21848058076377
 30
0.0
 10
154.8926077259322
 20
94.21848058076375
 30
0.0
 10
156.9751831477765
 20
94.21848058076377
 30
0.0
 10
158.8905409629836
 20
94.21848058076377
 30
0.0
 10
160.5627143220849
 20
94.21848058076377
 30
0.0
 10
161.9708130416386
 20
94.2184805807638
 30
0.0
 10
163.1271504749783
 20
94.21848058076377
 30
0.0
 10
164.007959032957
 20
94.21848058076377
 30
0.0
 10
164.5956347867159
 20
94.21848058076377
 30
0.0
 10
164.6703196320678
 20
94.21848058076377
 30
0.0
 10
164.7079575596118
 20
94.21848058076377
 30
0.0
  0
SPLINE
  5
EF
330
1F
100
AcDbEntity
  8
0
  6
Continuous
 62
     7
370
    25
100
AcDbSpline
210
0.0
220
0.0
230
1.0
 70
     8
 71
     3
 72
    12
 73
     8
 74
     0
 42
0.00000001
 43
0.00000001
 40
0.0
 40
0.0
 40
0.0
 40
0.0
 40
0.2266812865343245
 40
0.3444553246026051
 40
0.4669993127561218
 40
0.7354979026902018
 40
1.0
 40
1.0
 40
1.0
 40
1.0
 10
144.0440504953715
 20
85.21824272590776
 30
0.0
 10
144.078737342878
 20
85.2246068060444
 30
0.0
 10
144.131446013717
 20
85.23427739386742
 30
0.0
 10
144.4406140058019
 20
85.28300721870403
 30
0.0
 10
144.8795293783198
 20
85.33049950674399
 30
0.0
 10
145.6224562476328
 20
85.36125089980754
 30
0.0
 10
146.4266009757494
 20
85.26583220078577
 30
0.0
 10
146.8256585608855
 20
85.21848058076378
 30
0.0
  0
LINE
  5
F0
330
1F
100
AcDbEntity
  8
0
  6
Continuous
 62
     7
370
    25
100
AcDbLine
 10
140.2080115021
 20
88.1250939583
 30
0.0
 11
140.2080115021
 21
91.3118672032
 31
0.0
  0
LINE
  5
F1
330
1F
100
AcDbEntity
  8
0
  6
Continuous
 62
     7
370
    25
100
AcDbLine
 10
146.8256585609
 20
94.2184805808
 30
0.0
 11
140.2080115021
 21
91.3118672032
 31
0.0
  0
LINE
  5
F2
330
1F
100
AcDbEntity
  8
0
  6
Continuous
 62
     7
370
    25
100
AcDbLine
 10
146.8256585609
 20
85.2184805808
 30
0.0
 11
146.8209177698
 21
85.2196002235
 31
0.0
  0
LINE
  5
F3
330
1F
100
AcDbEntity
  8
0
  6
Continuous
 62
     7
370
    25
100
AcDbLine
 10
146.8111855066
 20
85.2218987127
 30
0.0
 11
140.2080115021
 21
86.7813843336
 31
0.0
  0
SPLINE
  5
F4
330
1F
100
AcDbEntity
  8
0
  6
Continuous
 62
     7
370
    25
100
AcDbSpline
210
0.0
220
0.0
230
1.0
 70
    24
 71
     3
 72
    10
 73
     6
 74
     0
 42
0.00000001
 43
0.00000001
 40
0.0
 40
0.0
 40
0.0
 40
0.0
 40
0.4990889709159452
 40
0.7495470495136737
 40
1.0
 40
1.0
 40
1.0
 40
1.0
 10
140.208011502062
 20
86.78138433359953
 30
0.0
 10
140.208011502062
 20
86.88077916229487
 30
0.0
 10
140.208011502062
 20
87.03005334971839
 30
0.0
 10
140.208011502062
 20
87.32656845590739
 30
0.0
 10
140.208011502062
 20
87.49408558462439
 30
0.0
 10
140.208011502062
 20
87.57784329149877
 30
0.0
  0
LINE
  5
F5
330
1F
100
AcDbEntity
  8
0
  6
Continuous
 62
     7
370
    25
100
AcDbLine
 10
140.2080115021
 20
87.5778432915
 30
0.0
 11
140.2080115021
 21
88.1250939583
 31
0.0
  0
SPLINE
  5
F6
330
1F
100
AcDbEntity
  8
0
  6
Continuous
 62
     7
370
    25
100
AcDbSpline
210
0.0
220
0.0
230
1.0
 70
    24
 71
     3
 72
    15
 73
    11
 74
     0
 42
0.00000001
 43
0.00000001
 40
0.0
 40
0.0
 40
0.0
 40
0.0
 40
0.2343604088735688
 40
0.4611013821541378
 40
0.6632881527588381
 40
0.7914476788152702
 40
0.8937858944268138
 40
0.9650084352777629
 40
0.987357448602118
 40
0.9999999999999999
 40
0.9999999999999999
 40
0.9999999999999999
 40
0.9999999999999999
 10
140.208011502062
 20
85.22051546550306
 30
0.0
 10
140.208011502062
 20
85.23725509618401
 30
0.0
 10
140.208011502062
 20
85.27019012510314
 30
0.0
 10
140.208011502062
 20
85.52617298242818
 30
0.0
 10
140.208011502062
 20
85.85066653912679
 30
0.0
 10
140.208011502062
 20
86.17909182912973
 30
0.0
 10
140.208011502062
 20
86.44059719880119
 30
0.0
 10
140.208011502062
 20
86.62616502135002
 30
0.0
 10
140.208011502062
 20
86.73258334817642
 30
0.0
 10
140.208011502062
 20
86.76843208389423
 30
0.0
 10
140.208011502062
 20
86.78138433359953
 30
0.0
  0
LWPOLYLINE
  5
F7
330
1F
100
AcDbEntity
  8
0
  6
Continuous
 62
     7
370
    25
100
AcDbPolyline
 90
        2
 70
   128
 43
0.0
 10
146.8256585609
 20
85.2184805808
 10
146.8256585609
 20
85.2184805808
  0
SPLINE
  5
F8
330
1F
100
AcDbEntity
  8
0
  6
Continuous
 62
     7
370
    25
100
AcDbSpline
210
0.0
220
0.0
230
1.0
 70
    24
 71
     3
 72
    11
 73
     7
 74
     0
 42
0.00000001
 43
0.00000001
 40
0.0
 40
0.0
 40
0.0
 40
0.0
 40
0.2500442827497157
 40
0.5000000000000022
 40
0.7499557172502894
 40
1.0
 40
1.0
 40
1.0
 40
1.0
 10
140.208011502062
 20
91.31186720321155
 30
0.0
 10
140.208011502062
 20
91.45070082351513
 30
0.0
 10
140.208011502062
 20
91.72831888935703
 30
0.0
 10
140.208011502062
 20
92.11153939646783
 30
0.0
 10
140.208011502062
 20
92.43995391399702
 30
0.0
 10
140.208011502062
 20
92.58369403634053
 30
0.0
 10
140.208011502062
 20
92.65557682792799
 30
0.0
  0
LWPOLYLINE
  5
F9
330
1F
100
AcDbEntity
  8
0
  6
Continuous
 62
     7
370
    25
100
AcDbPolyline
 90
        2
 70
   128
 43
0.0
 10
146.8256585609
 20
94.2184805808
 10
146.8256585609
 20
94.2184805808
  0
SPLINE
  5
FA
330
1F
100
AcDbEntity
  8
0
  6
Continuous
 62
     7
370
    25
100
AcDbSpline
210
0.0
220
0.0
230
1.0
 70
     8
 71
     3
 72
    11
 73
     7
 74
     0
 42
0.00000001
 43
0.00000001
 40
0.0
 40
0.0
 40
0.0
 40
0.0
 40
0.2382923836808099
 40
0.4861749477674939
 40
0.7410987331907278
 40
1.0
 40
1.0
 40
1.0
 40
1.0
 10
54.26466030801228
 20
124.5420099925285
 30
0.0
 10
54.42368134102443
 20
124.7057232047901
 30
0.0
 10
54.74812327754125
 20
125.0397383385963
 30
0.0
 10
55.08371447817088
 20
125.4120909424448
 30
0.0
 10
55.31104473109091
 20
125.6694115826448
 30
0.0
 10
55.3393718697379
 20
125.701907750615
 30
0.0
 10
55.35364507819457
 20
125.7182816098057
 30
0.0
  0
SPLINE
  5
FB
330
1F
100
AcDbEntity
  8
0
  6
Continuous
 62
     7
370
    25
100
AcDbSpline
210
0.0
220
0.0
230
1.0
 70
     8
 71
     3
 72
    11
 73
     7
 74
     0
 42
0.00000001
 43
0.00000001
 40
0.0
 40
0.0
 40
0.0
 40
0.0
 40
0.2511681577535603
 40
0.4957505156922024
 40
0.7414255250192132
 40
1.0
 40
1.0
 40
1.0
 40
1.0
 10
53.83191492644949
 20
123.2184805807638
 30
0.0
 10
53.83866943852355
 20
123.3603158382438
 30
0.0
 10
53.85200135477406
 20
123.6402673363476
 30
0.0
 10
53.94967646683633
 20
124.0151472350309
 30
0.0
 10
54.08700470285118
 20
124.3322189812629
 30
0.0
 10
54.20444037879719
 20
124.4708971231264
 30
0.0
 10
54.26466030801228
 20
124.5420099925285
 30
0.0
  0
SPLINE
  5
FC
330
1F
100
AcDbEntity
  8
0
  6
Continuous
 62
     7
370
    25
100
AcDbSpline
210
0.0
220
0.0
230
1.0
 70
     8
 71
     3
 72
    11
 73
     7
 74
     0
 42
0.00000001
 43
0.00000001
 40
0.0
 40
0.0
 40
0.0
 40
0.0
 40
0.2496590287973831
 40
0.5044854015779217
 40
0.7516383007539765
 40
1.0
 40
1.0
 40
1.0
 40
1.0
 10
54.26466030801227
 20
121.8949511689991
 30
0.0
 10
54.20666749992364
 20
121.9636697466142
 30
0.0
 10
54.08948157150701
 20
122.1025292118258
 30
0.0
 10
53.95036981167369
 20
122.4188068777613
 30
0.0
 10
53.85122909128121
 20
122.7983433267459
 30
0.0
 10
53.83836344324209
 20
123.0782072548741
 30
0.0
 10
53.83191492644949
 20
123.2184805807638
 30
0.0
  0
SPLINE
  5
FD
330
1F
100
AcDbEntity
  8
0
  6
Continuous
 62
     7
370
    25
100
AcDbSpline
210
0.0
220
0.0
230
1.0
 70
     8
 71
     3
 72
    12
 73
     8
 74
     0
 42
0.00000001
 43
0.00000001
 40
0.0
 40
0.0
 40
0.0
 40
0.0
 40
0.0005813103263123
 40
0.2597666675391095
 40
0.5143819821092066
 40
0.7619748129696291
 40
1.0
 40
1.0
 40
1.0
 40
1.0
 10
55.35365212387274
 20
120.7186715252057
 30
0.0
 10
55.35370810796523
 20
120.7186077472059
 30
0.0
 10
55.37872538442119
 20
120.6901076540285
 30
0.0
 10
55.29335106016509
 20
120.7877094627122
 30
0.0
 10
55.08831529210619
 20
121.0195830223118
 30
0.0
 10
54.74706005765889
 20
121.3984288707427
 30
0.0
 10
54.42333420953193
 20
121.7316319916704
 30
0.0
 10
54.26466030801228
 20
121.8949511689991
 30
0.0
  0
SPLINE
  5
FE
330
1F
100
AcDbEntity
  8
0
  6
Continuous
 62
     7
370
    25
100
AcDbSpline
210
0.0
220
0.0
230
1.0
 70
    24
 71
     3
 72
    16
 73
    12
 74
     0
 42
0.00000001
 43
0.00000001
 40
0.0
 40
0.0
 40
0.0
 40
0.0
 40
0.0124967759961502
 40
0.0490297413502501
 40
0.1049943448084253
 40
0.2061744231962671
 40
0.3328944023371456
 40
0.5327813218412125
 40
0.7568806608000823
 40
0.9931000830197215
 40
0.9999999999999999
 40
0.9999999999999999
 40
0.9999999999999999
 40
0.9999999999999999
 10
140.208011502062
 20
92.65557682792799
 30
0.0
 10
140.208011502062
 20
92.66854110764967
 30
0.0
 10
140.208011502062
 20
92.7194050490168
 30
0.0
 10
140.208011502062
 20
92.82496995700643
 30
0.0
 10
140.208011502062
 20
93.00929040661786
 30
0.0
 10
140.208011502062
 20
93.25792565822782
 30
0.0
 10
140.208011502062
 20
93.58498321764597
 30
0.0
 10
140.208011502062
 20
93.91555897453475
 30
0.0
 10
140.208011502062
 20
94.14962812723383
 30
0.0
 10
140.208011502062
 20
94.24791917392378
 30
0.0
 10
140.208011502062
 20
94.2164665825093
 30
0.0
 10
140.208011502062
 20
94.21557393336717
 30
0.0
  0
LWPOLYLINE
  5
FF
330
1F
100
AcDbEntity
  8
0
  6
Continuous
 62
     7
370
    25
100
AcDbPolyline
 90
        2
 70
   128
 43
0.0
 10
146.8256585609
 20
94.2184805808
 10
146.8256585609
 20
94.2184805808
  0
LINE
  5
100
330
1F
100
AcDbEntity
  8
0
  6
Continuous
 62
     7
370
    25
100
AcDbLine
 10
120.2080115021
 20
114.1818759004
 30
0.0
 11
120.2080115021
 21
113.4728984239
 31
0.0
  0
LINE
  5
101
330
1F
100
AcDbEntity
  8
0
  6
Continuous
 62
     7
370
    25
100
AcDbLine
 10
120.2080117012
 20
110.9640625103
 30
0.0
 11
120.2080117012
 21
110.2550850274
 31
0.0
  0
SPLINE
  5
102
330
1F
100
AcDbEntity
  8
0
  6
Continuous
 62
     7
370
    25
100
AcDbSpline
210
0.0
220
0.0
230
1.0
 70
    24
 71
     3
 72
    10
 73
     6
 74
     0
 42
0.00000001
 43
0.00000001
 40
0.0
 40
0.0
 40
0.0
 40
0.0
 40
0.300337805144364
 40
0.5907622632588513
 40
1.0
 40
1.0
 40
1.0
 40
1.0
 10
120.208011502062
 20
112.2686207578227
 30
0.0
 10
120.208011502062
 20
112.1205468039952
 30
0.0
 10
120.208011502062
 20
111.8292864212045
 30
0.0
 10
120.208011502062
 20
111.3727983630749
 30
0.0
 10
120.208011502062
 20
111.1149059630074
 30
0.0
 10
120.208011502062
 20
110.9640627376589
 30
0.0
  0
SPLINE
  5
103
330
1F
100
AcDbEntity
  8
0
  6
Continuous
 62
     7
370
    25
100
AcDbSpline
210
0.0
220
0.0
230
1.0
 70
    24
 71
     3
 72
    10
 73
     6
 74
     0
 42
0.00000001
 43
0.00000001
 40
0.0
 40
0.0
 40
0.0
 40
0.0
 40
0.4058341963373358
 40
0.6965048340556129
 40
1.0
 40
1.0
 40
1.0
 40
1.0
 10
120.208011502062
 20
113.4728984238687
 30
0.0
 10
120.208011502062
 20
113.3340640655628
 30
0.0
 10
120.208011502062
 20
113.0957923709501
 30
0.0
 10
120.208011502062
 20
112.6781247668978
 30
0.0
 10
120.208011502062
 20
112.4070722349361
 30
0.0
 10
120.208011502062
 20
112.2686207578227
 30
0.0
  0
SPLINE
  5
104
330
1F
100
AcDbEntity
  8
0
  6
Continuous
 62
     7
370
    25
100
AcDbSpline
210
0.0
220
0.0
230
1.0
 70
    24
 71
     3
 72
    14
 73
    10
 74
     0
 42
0.00000001
 43
0.00000001
 40
0.0
 40
0.0
 40
0.0
 40
0.0
 40
0.0323219131016195
 40
0.1374620126281016
 40
0.3070246975820491
 40
0.5070960889897594
 40
0.7432392062946439
 40
0.999430448210977
 40
1.0
 40
1.0
 40
1.0
 40
1.0
 10
120.208011502062
 20
110.2550852610998
 30
0.0
 10
120.208011502062
 20
110.2295687154775
 30
0.0
 10
120.208011502062
 20
110.1210492814475
 30
0.0
 10
120.208011502062
 20
109.9126602005084
 30
0.0
 10
120.208011502062
 20
109.6518061209133
 30
0.0
 10
120.208011502062
 20
109.4167932197938
 30
0.0
 10
120.2080115020618
 20
109.2644400463289
 30
0.0
 10
120.2080115020624
 20
109.1990810738527
 30
0.0
 10
120.208011502062
 20
109.2189309550775
 30
0.0
 10
120.208011502062
 20
109.2189749864703
 30
0.0
  0
SPLINE
  5
105
330
1F
100
AcDbEntity
  8
0
  6
Continuous
 62
     7
370
    25
100
AcDbSpline
210
0.0
220
0.0
230
1.0
 70
    24
 71
     3
 72
    14
 73
    10
 74
     0
 42
0.00000001
 43
0.00000001
 40
0.0
 40
0.0
 40
0.0
 40
0.0
 40
0.2556682194950969
 40
0.4919404342299303
 40
0.6923024170932681
 40
0.8125633718526449
 40
0.9048914269017798
 40
0.967662160987871
 40
0.9999999999999999
 40
0.9999999999999999
 40
0.9999999999999999
 40
0.9999999999999999
 10
120.208011502062
 20
115.2179389150184
 30
0.0
 10
120.208011502062
 20
115.2071864733193
 30
0.0
 10
120.208011502062
 20
115.1864973127778
 30
0.0
 10
120.208011502062
 20
115.0175688412779
 30
0.0
 10
120.208011502062
 20
114.8041555899926
 30
0.0
 10
120.208011502062
 20
114.5873519681115
 30
0.0
 10
120.208011502062
 20
114.4150701649371
 30
0.0
 10
120.208011502062
 20
114.2825916698629
 30
0.0
 10
120.208011502062
 20
114.2074311929154
 30
0.0
 10
120.208011502062
 20
114.1818759004278
 30
0.0
  0
SPLINE
  5
106
330
1F
100
AcDbEntity
  8
0
  6
Continuous
 62
     7
370
    25
100
AcDbSpline
210
0.0
220
0.0
230
1.0
 70
    24
 71
     3
 72
    11
 73
     7
 74
     0
 42
0.00000001
 43
0.00000001
 40
0.0
 40
0.0
 40
0.0
 40
0.0
 40
0.2466210548154653
 40
0.5024533946839349
 40
0.7564776551724456
 40
1.0
 40
1.0
 40
1.0
 40
1.0
 10
55.70801150206199
 20
121.8949511689991
 30
0.0
 10
55.708011502062
 20
121.9736508826955
 30
0.0
 10
55.70801150206197
 20
122.1339897407749
 30
0.0
 10
55.70801150206191
 20
122.4993002252781
 30
0.0
 10
55.70801150206203
 20
122.9184549918639
 30
0.0
 10
55.70801150206201
 20
123.2110131394788
 30
0.0
 10
55.70801150206199
 20
123.3542046422333
 30
0.0
  0
SPLINE
  5
107
330
1F
100
AcDbEntity
  8
0
  6
Continuous
 62
     7
370
    25
100
AcDbSpline
210
0.0
220
0.0
230
1.0
 70
    24
 71
     3
 72
    11
 73
     7
 74
     0
 42
0.00000001
 43
0.00000001
 40
0.0
 40
0.0
 40
0.0
 40
0.0
 40
0.2482838598124391
 40
0.5029083505071438
 40
0.7560106703727052
 40
1.0
 40
1.0
 40
1.0
 40
1.0
 10
55.70801150206199
 20
123.3542046422333
 30
0.0
 10
55.70801150206197
 20
123.4759035091156
 30
0.0
 10
55.70801150206193
 20
123.7224091677944
 30
0.0
 10
55.70801150206199
 20
124.0584082910746
 30
0.0
 10
55.70801150206196
 20
124.3466578770805
 30
0.0
 10
55.70801150206197
 20
124.4776933617792
 30
0.0
 10
55.70801150206199
 20
124.5420099925285
 30
0.0
  0
SPLINE
  5
108
330
1F
100
AcDbEntity
  8
0
  6
Continuous
 62
     7
370
    25
100
AcDbSpline
210
0.0
220
0.0
230
1.0
 70
    24
 71
     3
 72
     9
 73
     5
 74
     0
 42
0.00000001
 43
0.00000001
 40
0.0
 40
0.0
 40
0.0
 40
0.0
 40
0.5599999999999714
 40
1.0
 40
1.0
 40
1.0
 40
1.0
 10
55.70801150206199
 20
121.4876965115253
 30
0.0
 10
55.70801150206199
 20
121.5582252672238
 30
0.0
 10
55.70801150206196
 20
121.6841694738284
 30
0.0
 10
55.70801150206197
 20
121.8305456510303
 30
0.0
 10
55.70801150206199
 20
121.8949511689991
 30
0.0
  0
SPLINE
  5
109
330
1F
100
AcDbEntity
  8
0
  6
Continuous
 62
     7
370
    25
100
AcDbSpline
210
0.0
220
0.0
230
1.0
 70
    24
 71
     3
 72
     9
 73
     5
 74
     0
 42
0.00000001
 43
0.00000001
 40
0.0
 40
0.0
 40
0.0
 40
0.0
 40
0.5600000000000163
 40
0.9999999999999999
 40
0.9999999999999999
 40
0.9999999999999999
 40
0.9999999999999999
 10
55.70801150206199
 20
124.5420099925285
 30
0.0
 10
55.708011502062
 20
124.6235378537276
 30
0.0
 10
55.70801150206206
 20
124.7691233201545
 30
0.0
 10
55.70801150206201
 20
124.8942214658822
 30
0.0
 10
55.70801150206199
 20
124.9492646500024
 30
0.0
  0
SPLINE
  5
10A
330
1F
100
AcDbEntity
  8
0
  6
Continuous
 62
     7
370
    25
100
AcDbSpline
210
0.0
220
0.0
230
1.0
 70
    24
 71
     3
 72
    10
 73
     6
 74
     0
 42
0.00000001
 43
0.00000001
 40
0.0
 40
0.0
 40
0.0
 40
0.0
 40
0.4946965781724095
 40
0.9991898846205668
 40
1.0
 40
1.0
 40
1.0
 40
1.0
 10
55.70801150206197
 20
124.9492646500024
 30
0.0
 10
55.70801150206245
 20
125.1569586292759
 30
0.0
 10
55.70801150206344
 20
125.5764596574685
 30
0.0
 10
55.70801150205838
 20
125.7844715763889
 30
0.0
 10
55.70801150206199
 20
125.7182687449447
 30
0.0
 10
55.70801150206197
 20
125.7181626068708
 30
0.0
  0
SPLINE
  5
10B
330
1F
100
AcDbEntity
  8
0
  6
Continuous
 62
     7
370
    25
100
AcDbSpline
210
0.0
220
0.0
230
1.0
 70
    24
 71
     3
 72
     9
 73
     5
 74
     0
 42
0.00000001
 43
0.00000001
 40
0.0
 40
0.0
 40
0.0
 40
0.0
 40
0.5045675202865609
 40
1.0
 40
1.0
 40
1.0
 40
1.0
 10
55.708011502062
 20
120.7187456219997
 30
0.0
 10
55.708011502062
 20
120.7523718143311
 30
0.0
 10
55.708011502062
 20
120.8190154070704
 30
0.0
 10
55.70801150206197
 20
121.2661643847246
 30
0.0
 10
55.70801150206197
 20
121.4876965115252
 30
0.0
  0
LINE
  5
10C
330
1F
100
AcDbEntity
  8
0
  6
Continuous
 62
     7
370
    25
100
AcDbLine
 10
124.1838635852
 20
45.6300233126
 30
0.0
 11
122.1831256976
 21
45.6300233126
 31
0.0
  0
LINE
  5
10D
330
1F
100
AcDbEntity
  8
0
  6
Continuous
 62
     7
370
    25
100
AcDbLine
 10
121.4760189164
 20
46.3964590964
 30
0.0
 11
122.1831256976
 21
45.6300233126
 31
0.0
  0
SPLINE
  5
10E
330
1F
100
AcDbEntity
  8
0
  6
Continuous
 62
     7
370
    25
100
AcDbSpline
210
0.0
220
0.0
230
1.0
 70
     8
 71
     3
 72
     9
 73
     5
 74
     0
 42
0.00000001
 43
0.00000001
 40
0.0
 40
0.0
 40
0.0
 40
0.0
 40
0.499743258137257
 40
0.9999999999999999
 40
0.9999999999999999
 40
0.9999999999999999
 40
0.9999999999999999
 10
120.7689121352352
 20
45.63002331264387
 30
0.0
 10
120.8929589484692
 20
45.75625400810383
 30
0.0
 10
121.1411800324242
 20
46.00884510043888
 30
0.0
 10
121.3643677540016
 20
46.26721020898295
 30
0.0
 10
121.4760189164217
 20
46.39645909639422
 30
0.0
  0
LINE
  5
10F
330
1F
100
AcDbEntity
  8
0
  6
Continuous
 62
     7
370
    25
100
AcDbLine
 10
120.7689121352
 20
45.6300233126
 30
0.0
 11
117.2676119405
 21
45.6300233126
 31
0.0
  0
SPLINE
  5
110
330
1F
100
AcDbEntity
  8
0
  6
Continuous
 62
     7
370
    25
100
AcDbSpline
210
0.0
220
0.0
230
1.0
 70
     8
 71
     3
 72
    10
 73
     6
 74
     0
 42
0.00000001
 43
0.00000001
 40
0.0
 40
0.0
 40
0.0
 40
0.0
 40
0.1246076860571755
 40
0.6240127910983526
 40
1.0
 40
1.0
 40
1.0
 40
1.0
 10
116.708011502062
 20
49.52713762967386
 30
0.0
 10
116.7100380373848
 20
49.36475490873059
 30
0.0
 10
116.7201865603456
 20
48.55157156404137
 30
0.0
 10
116.8702078435076
 20
47.24877644207665
 30
0.0
 10
117.148208630375
 20
46.1163909252869
 30
0.0
 10
117.2676119404816
 20
45.63002331264387
 30
0.0
  0
SPLINE
  5
111
330
1F
100
AcDbEntity
  8
0
  6
Continuous
 62
     7
370
    25
100
AcDbSpline
210
0.0
220
0.0
230
1.0
 70
     8
 71
     3
 72
    10
 73
     6
 74
     0
 42
0.00000001
 43
0.00000001
 40
0.0
 40
0.0
 40
0.0
 40
0.0
 40
0.249389544253099
 40
0.7492842205710215
 40
1.0
 40
1.0
 40
1.0
 40
1.0
 10
117.2676119404816
 20
53.42425194670383
 30
0.0
 10
117.1862953582799
 20
53.1018087603242
 30
0.0
 10
116.9419818603063
 20
52.13303682440177
 30
0.0
 10
116.7394171355346
 20
50.83208698966835
 30
0.0
 10
116.7158749611405
 20
49.85387569406593
 30
0.0
 10
116.708011502062
 20
49.52713762967386
 30
0.0
  0
LINE
  5
112
330
1F
100
AcDbEntity
  8
0
  6
Continuous
 62
     7
370
    25
100
AcDbLine
 10
120.7689121352
 20
53.4242519467
 30
0.0
 11
117.2676119405
 21
53.4242519467
 31
0.0
  0
LINE
  5
113
330
1F
100
AcDbEntity
  8
0
  6
Continuous
 62
     7
370
    25
100
AcDbLine
 10
121.4760189164
 20
52.657816163
 30
0.0
 11
120.7689121352
 21
53.4242519467
 31
0.0
  0
LINE
  5
114
330
1F
100
AcDbEntity
  8
0
  6
Continuous
 62
     7
370
    25
100
AcDbLine
 10
122.1831256976
 20
53.4242519467
 30
0.0
 11
121.4760189164
 21
52.657816163
 31
0.0
  0
LINE
  5
115
330
1F
100
AcDbEntity
  8
0
  6
Continuous
 62
     7
370
    25
100
AcDbLine
 10
124.1838635852
 20
53.4242519467
 30
0.0
 11
122.1831256976
 21
53.4242519467
 31
0.0
  0
LINE
  5
116
330
1F
100
AcDbEntity
  8
0
  6
Continuous
 62
     7
370
    25
100
AcDbLine
 10
124.1838635852
 20
53.4242519467
 30
0.0
 11
124.8909703664
 21
52.657816163
 31
0.0
  0
LINE
  5
117
330
1F
100
AcDbEntity
  8
0
  6
Continuous
 62
     7
370
    25
100
AcDbLine
 10
124.8909703664
 20
52.657816163
 30
0.0
 11
125.5980771476
 21
53.4242519467
 31
0.0
  0
LINE
  5
118
330
1F
100
AcDbEntity
  8
0
  6
Continuous
 62
     7
370
    25
100
AcDbLine
 10
130.4080115021
 20
53.4242519467
 30
0.0
 11
125.5980771476
 21
53.4242519467
 31
0.0
  0
LINE
  5
119
330
1F
100
AcDbEntity
  8
0
  6
Continuous
 62
     7
370
    25
100
AcDbLine
 10
130.4080115021
 20
53.4242519467
 30
0.0
 11
130.4080115021
 21
49.5271376297
 31
0.0
  0
LINE
  5
11A
330
1F
100
AcDbEntity
  8
0
  6
Continuous
 62
     7
370
    25
100
AcDbLine
 10
130.4080115021
 20
49.5271376297
 30
0.0
 11
130.4080115021
 21
45.6300233126
 31
0.0
  0
LINE
  5
11B
330
1F
100
AcDbEntity
  8
0
  6
Continuous
 62
     7
370
    25
100
AcDbLine
 10
130.4080115021
 20
45.6300233126
 30
0.0
 11
125.5980771476
 21
45.6300233126
 31
0.0
  0
LINE
  5
11C
330
1F
100
AcDbEntity
  8
0
  6
Continuous
 62
     7
370
    25
100
AcDbLine
 10
125.5980771476
 20
45.6300233126
 30
0.0
 11
124.8909703664
 21
46.3964590964
 31
0.0
  0
LINE
  5
11D
330
1F
100
AcDbEntity
  8
0
  6
Continuous
 62
     7
370
    25
100
AcDbLine
 10
124.8909703664
 20
46.3964590964
 30
0.0
 11
124.1838635852
 21
45.6300233126
 31
0.0
  0
LINE
  5
11E
330
1F
100
AcDbEntity
  8
0
  6
Continuous
 62
     7
370
    25
100
AcDbLine
 10
121.4760189164
 20
54.9571235142
 30
0.0
 11
122.1831256976
 21
53.4242519467
 31
0.0
  0
SPLINE
  5
11F
330
1F
100
AcDbEntity
  8
0
  6
Continuous
 62
     7
370
    25
100
AcDbSpline
210
0.0
220
0.0
230
1.0
 70
     8
 71
     3
 72
     9
 73
     5
 74
     0
 42
0.00000001
 43
0.00000001
 40
0.0
 40
0.0
 40
0.0
 40
0.0
 40
0.5073544304939892
 40
1.0
 40
1.0
 40
1.0
 40
1.0
 10
120.7689121352352
 20
53.42425194670383
 30
0.0
 10
120.8948203900724
 20
53.68057310350697
 30
0.0
 10
121.1429866566302
 20
54.18578433533469
 30
0.0
 10
121.3661020877782
 20
54.70254410378065
 30
0.0
 10
121.4760189164217
 20
54.9571235142045
 30
0.0
  0
SPLINE
  5
120
330
1F
100
AcDbEntity
  8
0
  6
Continuous
 62
     7
370
    25
100
AcDbSpline
210
0.0
220
0.0
230
1.0
 70
     8
 71
     3
 72
    11
 73
     7
 74
     0
 42
0.00000001
 43
0.00000001
 40
0.0
 40
0.0
 40
0.0
 40
0.0
 40
0.2564835385043187
 40
0.5133497009130988
 40
0.7565705436931325
 40
1.0
 40
1.0
 40
1.0
 40
1.0
 10
116.708011502062
 20
61.21848058076378
 30
0.0
 10
116.7156929862957
 20
60.54987911201495
 30
0.0
 10
116.731067414054
 20
59.21167875025374
 30
0.0
 10
116.8519875618497
 20
57.24263211378454
 30
0.0
 10
117.0276846461705
 20
55.312241885416
 30
0.0
 10
117.1876133233773
 20
54.05376175148626
 30
0.0
 10
117.2676119404816
 20
53.42425194670383
 30
0.0
  0
SPLINE
  5
121
330
1F
100
AcDbEntity
  8
0
  6
Continuous
 62
     7
370
    25
100
AcDbSpline
210
0.0
220
0.0
230
1.0
 70
     8
 71
     3
 72
    11
 73
     7
 74
     0
 42
0.00000001
 43
0.00000001
 40
0.0
 40
0.0
 40
0.0
 40
0.0
 40
0.2493715384613322
 40
0.498946353982611
 40
0.7493023221162598
 40
1.0
 40
1.0
 40
1.0
 40
1.0
 10
117.2676119404816
 20
69.01270921482374
 30
0.0
 10
117.185767677934
 20
68.36781737415478
 30
0.0
 10
117.0220124368808
 20
67.07750800444775
 30
0.0
 10
116.8472362044777
 20
65.1318551784043
 30
0.0
 10
116.7300102382695
 20
63.17814300374289
 30
0.0
 10
116.7153477473179
 20
61.871998310972
 30
0.0
 10
116.708011502062
 20
61.21848058076378
 30
0.0
  0
LINE
  5
122
330
1F
100
AcDbEntity
  8
0
  6
Continuous
 62
     7
370
    25
100
AcDbLine
 10
120.7689121352
 20
69.0127092148
 30
0.0
 11
117.2676119405
 21
69.0127092148
 31
0.0
  0
LINE
  5
123
330
1F
100
AcDbEntity
  8
0
  6
Continuous
 62
     7
370
    25
100
AcDbLine
 10
121.4760189164
 20
67.4798376473
 30
0.0
 11
120.7689121352
 21
69.0127092148
 31
0.0
  0
SPLINE
  5
124
330
1F
100
AcDbEntity
  8
0
  6
Continuous
 62
     7
370
    25
100
AcDbSpline
210
0.0
220
0.0
230
1.0
 70
     8
 71
     3
 72
     9
 73
     5
 74
     0
 42
0.00000001
 43
0.00000001
 40
0.0
 40
0.0
 40
0.0
 40
0.0
 40
0.507354430494125
 40
1.0
 40
1.0
 40
1.0
 40
1.0
 10
122.1831256976083
 20
69.01270921482374
 30
0.0
 10
122.057217442771
 20
68.75638805802059
 30
0.0
 10
121.8090511762134
 20
68.25117682619293
 30
0.0
 10
121.5859357450652
 20
67.73441705774718
 30
0.0
 10
121.4760189164217
 20
67.47983764732349
 30
0.0
  0
LINE
  5
125
330
1F
100
AcDbEntity
  8
0
  6
Continuous
 62
     7
370
    25
100
AcDbLine
 10
124.1838635852
 20
69.0127092148
 30
0.0
 11
122.1831256976
 21
69.0127092148
 31
0.0
  0
SPLINE
  5
126
330
1F
100
AcDbEntity
  8
0
  6
Continuous
 62
     7
370
    25
100
AcDbSpline
210
0.0
220
0.0
230
1.0
 70
     8
 71
     3
 72
     9
 73
     5
 74
     0
 42
0.00000001
 43
0.00000001
 40
0.0
 40
0.0
 40
0.0
 40
0.0
 40
0.5073544304940271
 40
1.0
 40
1.0
 40
1.0
 40
1.0
 10
124.1838635852136
 20
69.01270921482376
 30
0.0
 10
124.3097718400509
 20
68.7563880580206
 30
0.0
 10
124.5579381066086
 20
68.25117682619285
 30
0.0
 10
124.7810535377567
 20
67.73441705774688
 30
0.0
 10
124.8909703664002
 20
67.47983764732305
 30
0.0
  0
LINE
  5
127
330
1F
100
AcDbEntity
  8
0
  6
Continuous
 62
     7
370
    25
100
AcDbLine
 10
124.8909703664
 20
67.4798376473
 30
0.0
 11
125.5980771476
 21
69.0127092148
 31
0.0
  0
LINE
  5
128
330
1F
100
AcDbEntity
  8
0
  6
Continuous
 62
     7
370
    25
100
AcDbLine
 10
130.4080115021
 20
69.0127092148
 30
0.0
 11
125.5980771476
 21
69.0127092148
 31
0.0
  0
LINE
  5
129
330
1F
100
AcDbEntity
  8
0
  6
Continuous
 62
     7
370
    25
100
AcDbLine
 10
130.4080115021
 20
69.0127092148
 30
0.0
 11
130.4080115021
 21
61.2184805808
 31
0.0
  0
LINE
  5
12A
330
1F
100
AcDbEntity
  8
0
  6
Continuous
 62
     7
370
    25
100
AcDbLine
 10
130.4080115021
 20
61.2184805808
 30
0.0
 11
130.4080115021
 21
53.4242519467
 31
0.0
  0
SPLINE
  5
12B
330
1F
100
AcDbEntity
  8
0
  6
Continuous
 62
     7
370
    25
100
AcDbSpline
210
0.0
220
0.0
230
1.0
 70
     8
 71
     3
 72
     9
 73
     5
 74
     0
 42
0.00000001
 43
0.00000001
 40
0.0
 40
0.0
 40
0.0
 40
0.0
 40
0.5073544304939982
 40
1.0
 40
1.0
 40
1.0
 40
1.0
 10
125.5980771475867
 20
53.42425194670383
 30
0.0
 10
125.4721688927495
 20
53.68057310350697
 30
0.0
 10
125.2240026261917
 20
54.1857843353347
 30
0.0
 10
125.0008871950436
 20
54.70254410378066
 30
0.0
 10
124.8909703664002
 20
54.95712351420451
 30
0.0
  0
LINE
  5
12C
330
1F
100
AcDbEntity
  8
0
  6
Continuous
 62
     7
370
    25
100
AcDbLine
 10
124.8909703664
 20
54.9571235142
 30
0.0
 11
124.1838635852
 21
53.4242519467
 31
0.0
  0
LINE
  5
12D
330
1F
100
AcDbEntity
  8
0
  6
Continuous
 62
     7
370
    25
100
AcDbLine
 10
124.8909703664
 20
54.9571235142
 30
0.0
 11
124.8909703664
 21
52.657816163
 31
0.0
  0
LINE
  5
12E
330
1F
100
AcDbEntity
  8
0
  6
Continuous
 62
     7
370
    25
100
AcDbLine
 10
121.4760189164
 20
52.657816163
 30
0.0
 11
121.4760189164
 21
54.9571235142
 31
0.0
  0
LINE
  5
12F
330
1F
100
AcDbEntity
  8
0
  6
Continuous
 62
     7
370
    25
100
AcDbLine
 10
116.7080115021
 20
49.5271376297
 30
0.0
 11
116.7080115021
 21
61.2184805808
 31
0.0
  0
SPLINE
  5
130
330
1F
100
AcDbEntity
  8
0
  6
Continuous
 62
     7
370
    25
100
AcDbSpline
210
0.0
220
0.0
230
1.0
 70
     8
 71
     3
 72
    11
 73
     7
 74
     0
 42
0.00000001
 43
0.00000001
 40
0.0
 40
0.0
 40
0.0
 40
0.0
 40
0.2492273885944026
 40
0.4988069892729934
 40
0.749288341539427
 40
1.0
 40
1.0
 40
1.0
 40
1.0
 10
116.708011502062
 20
72.90982353185372
 30
0.0
 10
116.7152628545445
 20
72.58498123709514
 30
0.0
 10
116.7297758072354
 20
71.93483757531348
 30
0.0
 10
116.8462385965722
 20
70.95971129152143
 30
0.0
 10
117.0209065074621
 20
69.98495297543037
 30
0.0
 10
117.1853516077583
 20
69.33688973349642
 30
0.0
 10
117.2676119404816
 20
69.01270921482374
 30
0.0
  0
LINE
  5
131
330
1F
100
AcDbEntity
  8
0
  6
Continuous
 62
     7
370
    25
100
AcDbLine
 10
116.7080115021
 20
61.2184805808
 30
0.0
 11
116.7080115021
 21
72.9098235319
 31
0.0
  0
LINE
  5
132
330
1F
100
AcDbEntity
  8
0
  6
Continuous
 62
     7
370
    25
100
AcDbLine
 10
124.8909703664
 20
69.7791449986
 30
0.0
 11
124.8909703664
 21
67.4798376473
 31
0.0
  0
LINE
  5
133
330
1F
100
AcDbEntity
  8
0
  6
Continuous
 62
     7
370
    25
100
AcDbLine
 10
125.5980771476
 20
69.0127092148
 30
0.0
 11
124.8909703664
 21
69.7791449986
 31
0.0
  0
LINE
  5
134
330
1F
100
AcDbEntity
  8
0
  6
Continuous
 62
     7
370
    25
100
AcDbLine
 10
121.4760189164
 20
69.7791449986
 30
0.0
 11
122.1831256976
 21
69.0127092148
 31
0.0
  0
LINE
  5
135
330
1F
100
AcDbEntity
  8
0
  6
Continuous
 62
     7
370
    25
100
AcDbLine
 10
120.7689121352
 20
69.0127092148
 30
0.0
 11
121.4760189164
 21
69.7791449986
 31
0.0
  0
SPLINE
  5
136
330
1F
100
AcDbEntity
  8
0
  6
Continuous
 62
     7
370
    25
100
AcDbSpline
210
0.0
220
0.0
230
1.0
 70
     8
 71
     3
 72
     9
 73
     5
 74
     0
 42
0.00000001
 43
0.00000001
 40
0.0
 40
0.0
 40
0.0
 40
0.0
 40
0.4989631660071376
 40
1.0
 40
1.0
 40
1.0
 40
1.0
 10
117.2676119404816
 20
76.80693784888368
 30
0.0
 10
117.108944348153
 20
76.16112271523377
 30
0.0
 10
116.7909497482745
 20
74.86680846992
 30
0.0
 10
116.73569577693
 20
73.56305302984822
 30
0.0
 10
116.708011502062
 20
72.90982353185372
 30
0.0
  0
LINE
  5
137
330
1F
100
AcDbEntity
  8
0
  6
Continuous
 62
     7
370
    25
100
AcDbLine
 10
120.7689121352
 20
76.8069378489
 30
0.0
 11
117.2676119405
 21
76.8069378489
 31
0.0
  0
LINE
  5
138
330
1F
100
AcDbEntity
  8
0
  6
Continuous
 62
     7
370
    25
100
AcDbLine
 10
121.4760189164
 20
76.0405020651
 30
0.0
 11
120.7689121352
 21
76.8069378489
 31
0.0
  0
LINE
  5
139
330
1F
100
AcDbEntity
  8
0
  6
Continuous
 62
     7
370
    25
100
AcDbLine
 10
122.1831256976
 20
76.8069378489
 30
0.0
 11
121.4760189164
 21
76.0405020651
 31
0.0
  0
LINE
  5
13A
330
1F
100
AcDbEntity
  8
0
  6
Continuous
 62
     7
370
    25
100
AcDbLine
 10
124.1838635852
 20
76.8069378489
 30
0.0
 11
122.1831256976
 21
76.8069378489
 31
0.0
  0
LINE
  5
13B
330
1F
100
AcDbEntity
  8
0
  6
Continuous
 62
     7
370
    25
100
AcDbLine
 10
124.1838635852
 20
76.8069378489
 30
0.0
 11
124.8909703664
 21
76.0405020651
 31
0.0
  0
LINE
  5
13C
330
1F
100
AcDbEntity
  8
0
  6
Continuous
 62
     7
370
    25
100
AcDbLine
 10
124.8909703664
 20
76.0405020651
 30
0.0
 11
125.5980771476
 21
76.8069378489
 31
0.0
  0
LINE
  5
13D
330
1F
100
AcDbEntity
  8
0
  6
Continuous
 62
     7
370
    25
100
AcDbLine
 10
130.4080115021
 20
76.8069378489
 30
0.0
 11
125.5980771476
 21
76.8069378489
 31
0.0
  0
LINE
  5
13E
330
1F
100
AcDbEntity
  8
0
  6
Continuous
 62
     7
370
    25
100
AcDbLine
 10
130.4080115021
 20
76.8069378489
 30
0.0
 11
130.4080115021
 21
72.9098235319
 31
0.0
  0
LINE
  5
13F
330
1F
100
AcDbEntity
  8
0
  6
Continuous
 62
     7
370
    25
100
AcDbLine
 10
130.4080115021
 20
72.9098235319
 30
0.0
 11
130.4080115021
 21
69.0127092148
 31
0.0
  0
LINE
  5
140
330
1F
100
AcDbEntity
  8
0
  6
Continuous
 62
     7
370
    25
100
AcDbLine
 10
124.8909703664
 20
69.7791449986
 30
0.0
 11
124.1838635852
 21
69.0127092148
 31
0.0
  0
LINE
  5
141
330
1F
100
AcDbEntity
  8
0
  6
Continuous
 62
     7
370
    25
100
AcDbLine
 10
121.4760189164
 20
67.4798376473
 30
0.0
 11
121.4760189164
 21
69.7791449986
 31
0.0
  0
LINE
  5
142
330
1F
100
AcDbEntity
  8
0
  6
Continuous
 62
     7
370
    25
100
AcDbLine
 10
116.7080115021
 20
72.9098235319
 30
0.0
 11
116.7080115021
 21
74.7184805808
 31
0.0
  0
LINE
  5
143
330
1F
100
AcDbEntity
  8
0
  6
Continuous
 62
     7
370
    25
100
AcDbLine
 10
116.7080115021
 20
47.7184805808
 30
0.0
 11
116.7080115021
 21
49.5271376297
 31
0.0
  0
LINE
  5
144
330
1F
100
AcDbEntity
  8
0
  6
Continuous
 62
     7
370
    25
100
AcDbLine
 10
124.8909703664
 20
46.3964590964
 30
0.0
 11
124.8909703664
 21
46.3371300938
 31
0.0
  0
LINE
  5
145
330
1F
100
AcDbEntity
  8
0
  6
Continuous
 62
     7
370
    25
100
AcDbLine
 10
121.4760189164
 20
46.3371300938
 30
0.0
 11
121.4760189164
 21
46.3964590964
 31
0.0
  0
LINE
  5
146
330
1F
100
AcDbEntity
  8
0
  6
Continuous
 62
     7
370
    25
100
AcDbLine
 10
124.8909703664
 20
76.0998310677
 30
0.0
 11
124.8909703664
 21
76.0405020651
 31
0.0
  0
LINE
  5
147
330
1F
100
AcDbEntity
  8
0
  6
Continuous
 62
     7
370
    25
100
AcDbLine
 10
121.4760189164
 20
76.0405020651
 30
0.0
 11
121.4760189164
 21
76.0998310677
 31
0.0
  0
LINE
  5
148
330
1F
100
AcDbEntity
  8
0
  6
Continuous
 62
     7
370
    25
100
AcDbLine
 10
181.2321594189
 20
76.8069378489
 30
0.0
 11
183.2328973065
 21
76.8069378489
 31
0.0
  0
LINE
  5
149
330
1F
100
AcDbEntity
  8
0
  6
Continuous
 62
     7
370
    25
100
AcDbLine
 10
183.9400040877
 20
76.0405020651
 30
0.0
 11
183.2328973065
 21
76.8069378489
 31
0.0
  0
SPLINE
  5
14A
330
1F
100
AcDbEntity
  8
0
  6
Continuous
 62
     7
370
    25
100
AcDbSpline
210
0.0
220
0.0
230
1.0
 70
     8
 71
     3
 72
     9
 73
     5
 74
     0
 42
0.00000001
 43
0.00000001
 40
0.0
 40
0.0
 40
0.0
 40
0.0
 40
0.499743258137257
 40
0.9999999999999999
 40
0.9999999999999999
 40
0.9999999999999999
 40
0.9999999999999999
 10
184.6471108688888
 20
76.80693784888368
 30
0.0
 10
184.5230640556548
 20
76.68070715342373
 30
0.0
 10
184.2748429716998
 20
76.42811606108867
 30
0.0
 10
184.0516552501223
 20
76.1697509525446
 30
0.0
 10
183.9400040877022
 20
76.04050206513332
 30
0.0
  0
LINE
  5
14B
330
1F
100
AcDbEntity
  8
0
  6
Continuous
 62
     7
370
    25
100
AcDbLine
 10
184.6471108689
 20
76.8069378489
 30
0.0
 11
188.1484110636
 21
76.8069378489
 31
0.0
  0
SPLINE
  5
14C
330
1F
100
AcDbEntity
  8
0
  6
Continuous
 62
     7
370
    25
100
AcDbSpline
210
0.0
220
0.0
230
1.0
 70
     8
 71
     3
 72
    10
 73
     6
 74
     0
 42
0.00000001
 43
0.00000001
 40
0.0
 40
0.0
 40
0.0
 40
0.0
 40
0.1246076860571755
 40
0.6240127910983526
 40
1.0
 40
1.0
 40
1.0
 40
1.0
 10
188.708011502062
 20
72.90982353185369
 30
0.0
 10
188.7059849667392
 20
73.07220625279696
 30
0.0
 10
188.6958364437783
 20
73.88538959748617
 30
0.0
 10
188.5458151606163
 20
75.18818471945089
 30
0.0
 10
188.267814373749
 20
76.32057023624066
 30
0.0
 10
188.1484110636424
 20
76.80693784888368
 30
0.0
  0
SPLINE
  5
14D
330
1F
100
AcDbEntity
  8
0
  6
Continuous
 62
     7
370
    25
100
AcDbSpline
210
0.0
220
0.0
230
1.0
 70
     8
 71
     3
 72
    10
 73
     6
 74
     0
 42
0.00000001
 43
0.00000001
 40
0.0
 40
0.0
 40
0.0
 40
0.0
 40
0.249389544253099
 40
0.7492842205710215
 40
1.0
 40
1.0
 40
1.0
 40
1.0
 10
188.1484110636424
 20
69.01270921482372
 30
0.0
 10
188.2297276458441
 20
69.33515240120335
 30
0.0
 10
188.4740411438177
 20
70.30392433712579
 30
0.0
 10
188.6766058685894
 20
71.60487417185921
 30
0.0
 10
188.7001480429835
 20
72.58308546746161
 30
0.0
 10
188.708011502062
 20
72.90982353185369
 30
0.0
  0
LINE
  5
14E
330
1F
100
AcDbEntity
  8
0
  6
Continuous
 62
     7
370
    25
100
AcDbLine
 10
184.6471108689
 20
69.0127092148
 30
0.0
 11
188.1484110636
 21
69.0127092148
 31
0.0
  0
LINE
  5
14F
330
1F
100
AcDbEntity
  8
0
  6
Continuous
 62
     7
370
    25
100
AcDbLine
 10
183.9400040877
 20
69.7791449986
 30
0.0
 11
184.6471108689
 21
69.0127092148
 31
0.0
  0
LINE
  5
150
330
1F
100
AcDbEntity
  8
0
  6
Continuous
 62
     7
370
    25
100
AcDbLine
 10
183.2328973065
 20
69.0127092148
 30
0.0
 11
183.9400040877
 21
69.7791449986
 31
0.0
  0
LINE
  5
151
330
1F
100
AcDbEntity
  8
0
  6
Continuous
 62
     7
370
    25
100
AcDbLine
 10
181.2321594189
 20
69.0127092148
 30
0.0
 11
183.2328973065
 21
69.0127092148
 31
0.0
  0
LINE
  5
152
330
1F
100
AcDbEntity
  8
0
  6
Continuous
 62
     7
370
    25
100
AcDbLine
 10
181.2321594189
 20
69.0127092148
 30
0.0
 11
180.5250526377
 21
69.7791449986
 31
0.0
  0
LINE
  5
153
330
1F
100
AcDbEntity
  8
0
  6
Continuous
 62
     7
370
    25
100
AcDbLine
 10
180.5250526377
 20
69.7791449986
 30
0.0
 11
179.8179458565
 21
69.0127092148
 31
0.0
  0
LINE
  5
154
330
1F
100
AcDbEntity
  8
0
  6
Continuous
 62
     7
370
    25
100
AcDbLine
 10
175.0080115021
 20
69.0127092148
 30
0.0
 11
179.8179458565
 21
69.0127092148
 31
0.0
  0
LINE
  5
155
330
1F
100
AcDbEntity
  8
0
  6
Continuous
 62
     7
370
    25
100
AcDbLine
 10
175.0080115021
 20
69.0127092148
 30
0.0
 11
175.0080115021
 21
72.9098235319
 31
0.0
  0
LINE
  5
156
330
1F
100
AcDbEntity
  8
0
  6
Continuous
 62
     7
370
    25
100
AcDbLine
 10
175.0080115021
 20
72.9098235319
 30
0.0
 11
175.0080115021
 21
76.8069378489
 31
0.0
  0
LINE
  5
157
330
1F
100
AcDbEntity
  8
0
  6
Continuous
 62
     7
370
    25
100
AcDbLine
 10
175.0080115021
 20
76.8069378489
 30
0.0
 11
179.8179458565
 21
76.8069378489
 31
0.0
  0
LINE
  5
158
330
1F
100
AcDbEntity
  8
0
  6
Continuous
 62
     7
370
    25
100
AcDbLine
 10
179.8179458565
 20
76.8069378489
 30
0.0
 11
180.5250526377
 21
76.0405020651
 31
0.0
  0
LINE
  5
159
330
1F
100
AcDbEntity
  8
0
  6
Continuous
 62
     7
370
    25
100
AcDbLine
 10
180.5250526377
 20
76.0405020651
 30
0.0
 11
181.2321594189
 21
76.8069378489
 31
0.0
  0
LINE
  5
15A
330
1F
100
AcDbEntity
  8
0
  6
Continuous
 62
     7
370
    25
100
AcDbLine
 10
180.5250526377
 20
67.4798376473
 30
0.0
 11
180.5250526377
 21
69.7791449986
 31
0.0
  0
LINE
  5
15B
330
1F
100
AcDbEntity
  8
0
  6
Continuous
 62
     7
370
    25
100
AcDbLine
 10
180.5250526377
 20
67.4798376473
 30
0.0
 11
181.2321594189
 21
69.0127092148
 31
0.0
  0
LINE
  5
15C
330
1F
100
AcDbEntity
  8
0
  6
Continuous
 62
     7
370
    25
100
AcDbLine
 10
183.9400040877
 20
67.4798376473
 30
0.0
 11
183.2328973065
 21
69.0127092148
 31
0.0
  0
SPLINE
  5
15D
330
1F
100
AcDbEntity
  8
0
  6
Continuous
 62
     7
370
    25
100
AcDbSpline
210
0.0
220
0.0
230
1.0
 70
     8
 71
     3
 72
     9
 73
     5
 74
     0
 42
0.00000001
 43
0.00000001
 40
0.0
 40
0.0
 40
0.0
 40
0.0
 40
0.5073544304939892
 40
1.0
 40
1.0
 40
1.0
 40
1.0
 10
184.6471108688888
 20
69.01270921482372
 30
0.0
 10
184.5212026140515
 20
68.75638805802059
 30
0.0
 10
184.2730363474938
 20
68.25117682619286
 30
0.0
 10
184.0499209163457
 20
67.73441705774691
 30
0.0
 10
183.9400040877022
 20
67.47983764732304
 30
0.0
  0
SPLINE
  5
15E
330
1F
100
AcDbEntity
  8
0
  6
Continuous
 62
     7
370
    25
100
AcDbSpline
210
0.0
220
0.0
230
1.0
 70
     8
 71
     3
 72
    11
 73
     7
 74
     0
 42
0.00000001
 43
0.00000001
 40
0.0
 40
0.0
 40
0.0
 40
0.0
 40
0.2564835385043187
 40
0.5133497009130988
 40
0.7565705436931325
 40
1.0
 40
1.0
 40
1.0
 40
1.0
 10
188.708011502062
 20
61.21848058076377
 30
0.0
 10
188.7003300178283
 20
61.88708204951261
 30
0.0
 10
188.6849555900699
 20
63.22528241127382
 30
0.0
 10
188.5640354422743
 20
65.194329047743
 30
0.0
 10
188.3883383579535
 20
67.12471927611155
 30
0.0
 10
188.2284096807466
 20
68.38319941004129
 30
0.0
 10
188.1484110636424
 20
69.01270921482372
 30
0.0
  0
SPLINE
  5
15F
330
1F
100
AcDbEntity
  8
0
  6
Continuous
 62
     7
370
    25
100
AcDbSpline
210
0.0
220
0.0
230
1.0
 70
     8
 71
     3
 72
    11
 73
     7
 74
     0
 42
0.00000001
 43
0.00000001
 40
0.0
 40
0.0
 40
0.0
 40
0.0
 40
0.2493715384613322
 40
0.498946353982611
 40
0.7493023221162598
 40
1.0
 40
1.0
 40
1.0
 40
1.0
 10
188.1484110636424
 20
53.4242519467038
 30
0.0
 10
188.23025532619
 20
54.06914378737277
 30
0.0
 10
188.3940105672431
 20
55.3594531570798
 30
0.0
 10
188.5687867996462
 20
57.30510598312325
 30
0.0
 10
188.6860127658545
 20
59.25881815778467
 30
0.0
 10
188.7006752568061
 20
60.56496285055556
 30
0.0
 10
188.708011502062
 20
61.21848058076377
 30
0.0
  0
LINE
  5
160
330
1F
100
AcDbEntity
  8
0
  6
Continuous
 62
     7
370
    25
100
AcDbLine
 10
184.6471108689
 20
53.4242519467
 30
0.0
 11
188.1484110636
 21
53.4242519467
 31
0.0
  0
LINE
  5
161
330
1F
100
AcDbEntity
  8
0
  6
Continuous
 62
     7
370
    25
100
AcDbLine
 10
183.9400040877
 20
54.9571235142
 30
0.0
 11
184.6471108689
 21
53.4242519467
 31
0.0
  0
SPLINE
  5
162
330
1F
100
AcDbEntity
  8
0
  6
Continuous
 62
     7
370
    25
100
AcDbSpline
210
0.0
220
0.0
230
1.0
 70
     8
 71
     3
 72
     9
 73
     5
 74
     0
 42
0.00000001
 43
0.00000001
 40
0.0
 40
0.0
 40
0.0
 40
0.0
 40
0.507354430494125
 40
1.0
 40
1.0
 40
1.0
 40
1.0
 10
183.2328973065157
 20
53.42425194670381
 30
0.0
 10
183.3588055613529
 20
53.68057310350696
 30
0.0
 10
183.6069718279106
 20
54.18578433533462
 30
0.0
 10
183.8300872590588
 20
54.70254410378038
 30
0.0
 10
183.9400040877023
 20
54.95712351420406
 30
0.0
  0
LINE
  5
163
330
1F
100
AcDbEntity
  8
0
  6
Continuous
 62
     7
370
    25
100
AcDbLine
 10
181.2321594189
 20
53.4242519467
 30
0.0
 11
183.2328973065
 21
53.4242519467
 31
0.0
  0
SPLINE
  5
164
330
1F
100
AcDbEntity
  8
0
  6
Continuous
 62
     7
370
    25
100
AcDbSpline
210
0.0
220
0.0
230
1.0
 70
     8
 71
     3
 72
     9
 73
     5
 74
     0
 42
0.00000001
 43
0.00000001
 40
0.0
 40
0.0
 40
0.0
 40
0.0
 40
0.5073544304940271
 40
1.0
 40
1.0
 40
1.0
 40
1.0
 10
181.2321594189104
 20
53.4242519467038
 30
0.0
 10
181.1062511640731
 20
53.68057310350695
 30
0.0
 10
180.8580848975153
 20
54.1857843353347
 30
0.0
 10
180.6349694663673
 20
54.70254410378066
 30
0.0
 10
180.5250526377238
 20
54.9571235142045
 30
0.0
  0
LINE
  5
165
330
1F
100
AcDbEntity
  8
0
  6
Continuous
 62
     7
370
    25
100
AcDbLine
 10
180.5250526377
 20
54.9571235142
 30
0.0
 11
179.8179458565
 21
53.4242519467
 31
0.0
  0
LINE
  5
166
330
1F
100
AcDbEntity
  8
0
  6
Continuous
 62
     7
370
    25
100
AcDbLine
 10
175.0080115021
 20
53.4242519467
 30
0.0
 11
179.8179458565
 21
53.4242519467
 31
0.0
  0
LINE
  5
167
330
1F
100
AcDbEntity
  8
0
  6
Continuous
 62
     7
370
    25
100
AcDbLine
 10
175.0080115021
 20
53.4242519467
 30
0.0
 11
175.0080115021
 21
61.2184805808
 31
0.0
  0
LINE
  5
168
330
1F
100
AcDbEntity
  8
0
  6
Continuous
 62
     7
370
    25
100
AcDbLine
 10
175.0080115021
 20
61.2184805808
 30
0.0
 11
175.0080115021
 21
69.0127092148
 31
0.0
  0
SPLINE
  5
169
330
1F
100
AcDbEntity
  8
0
  6
Continuous
 62
     7
370
    25
100
AcDbSpline
210
0.0
220
0.0
230
1.0
 70
     8
 71
     3
 72
     9
 73
     5
 74
     0
 42
0.00000001
 43
0.00000001
 40
0.0
 40
0.0
 40
0.0
 40
0.0
 40
0.5073544304939982
 40
1.0
 40
1.0
 40
1.0
 40
1.0
 10
179.8179458565373
 20
69.01270921482372
 30
0.0
 10
179.9438541113745
 20
68.75638805802059
 30
0.0
 10
180.1920203779323
 20
68.25117682619285
 30
0.0
 10
180.4151358090803
 20
67.73441705774688
 30
0.0
 10
180.5250526377238
 20
67.47983764732304
 30
0.0
  0
LINE
  5
16A
330
1F
100
AcDbEntity
  8
0
  6
Continuous
 62
     7
370
    25
100
AcDbLine
 10
183.9400040877
 20
69.7791449986
 30
0.0
 11
183.9400040877
 21
67.4798376473
 31
0.0
  0
LINE
  5
16B
330
1F
100
AcDbEntity
  8
0
  6
Continuous
 62
     7
370
    25
100
AcDbLine
 10
188.7080115021
 20
72.9098235319
 30
0.0
 11
188.7080115021
 21
61.2184805808
 31
0.0
  0
LINE
  5
16C
330
1F
100
AcDbEntity
  8
0
  6
Continuous
 62
     7
370
    25
100
AcDbLine
 10
184.6471108689
 20
53.4242519467
 30
0.0
 11
183.9400040877
 21
52.657816163
 31
0.0
  0
LINE
  5
16D
330
1F
100
AcDbEntity
  8
0
  6
Continuous
 62
     7
370
    25
100
AcDbLine
 10
183.9400040877
 20
54.9571235142
 30
0.0
 11
183.9400040877
 21
52.657816163
 31
0.0
  0
LINE
  5
16E
330
1F
100
AcDbEntity
  8
0
  6
Continuous
 62
     7
370
    25
100
AcDbLine
 10
183.9400040877
 20
52.657816163
 30
0.0
 11
183.2328973065
 21
53.4242519467
 31
0.0
  0
LINE
  5
16F
330
1F
100
AcDbEntity
  8
0
  6
Continuous
 62
     7
370
    25
100
AcDbLine
 10
180.5250526377
 20
52.657816163
 30
0.0
 11
180.5250526377
 21
54.9571235142
 31
0.0
  0
LINE
  5
170
330
1F
100
AcDbEntity
  8
0
  6
Continuous
 62
     7
370
    25
100
AcDbLine
 10
180.5250526377
 20
52.657816163
 30
0.0
 11
181.2321594189
 21
53.4242519467
 31
0.0
  0
SPLINE
  5
171
330
1F
100
AcDbEntity
  8
0
  6
Continuous
 62
     7
370
    25
100
AcDbSpline
210
0.0
220
0.0
230
1.0
 70
     8
 71
     3
 72
    11
 73
     7
 74
     0
 42
0.00000001
 43
0.00000001
 40
0.0
 40
0.0
 40
0.0
 40
0.0
 40
0.2492273885944027
 40
0.4988069892729934
 40
0.749288341539427
 40
1.0
 40
1.0
 40
1.0
 40
1.0
 10
188.708011502062
 20
49.52713762967385
 30
0.0
 10
188.7007601495795
 20
49.85197992443241
 30
0.0
 10
188.6862471968886
 20
50.50212358621408
 30
0.0
 10
188.5697844075518
 20
51.47724987000612
 30
0.0
 10
188.3951164966619
 20
52.45200818609717
 30
0.0
 10
188.2306713963656
 20
53.10007142803113
 30
0.0
 10
188.1484110636424
 20
53.4242519467038
 30
0.0
  0
SPLINE
  5
172
330
1F
100
AcDbEntity
  8
0
  6
Continuous
 62
     7
370
    25
100
AcDbSpline
210
0.0
220
0.0
230
1.0
 70
     8
 71
     3
 72
     9
 73
     5
 74
     0
 42
0.00000001
 43
0.00000001
 40
0.0
 40
0.0
 40
0.0
 40
0.0
 40
0.4989631660071376
 40
1.0
 40
1.0
 40
1.0
 40
1.0
 10
188.1484110636424
 20
45.63002331264387
 30
0.0
 10
188.3070786559709
 20
46.27583844629378
 30
0.0
 10
188.6250732558495
 20
47.57015269160756
 30
0.0
 10
188.680327227194
 20
48.87390813167932
 30
0.0
 10
188.708011502062
 20
49.52713762967385
 30
0.0
  0
LINE
  5
173
330
1F
100
AcDbEntity
  8
0
  6
Continuous
 62
     7
370
    25
100
AcDbLine
 10
184.6471108689
 20
45.6300233126
 30
0.0
 11
188.1484110636
 21
45.6300233126
 31
0.0
  0
LINE
  5
174
330
1F
100
AcDbEntity
  8
0
  6
Continuous
 62
     7
370
    25
100
AcDbLine
 10
183.9400040877
 20
46.3964590964
 30
0.0
 11
184.6471108689
 21
45.6300233126
 31
0.0
  0
LINE
  5
175
330
1F
100
AcDbEntity
  8
0
  6
Continuous
 62
     7
370
    25
100
AcDbLine
 10
183.2328973065
 20
45.6300233126
 30
0.0
 11
183.9400040877
 21
46.3964590964
 31
0.0
  0
LINE
  5
176
330
1F
100
AcDbEntity
  8
0
  6
Continuous
 62
     7
370
    25
100
AcDbLine
 10
181.2321594189
 20
45.6300233126
 30
0.0
 11
183.2328973065
 21
45.6300233126
 31
0.0
  0
LINE
  5
177
330
1F
100
AcDbEntity
  8
0
  6
Continuous
 62
     7
370
    25
100
AcDbLine
 10
181.2321594189
 20
45.6300233126
 30
0.0
 11
180.5250526377
 21
46.3964590964
 31
0.0
  0
LINE
  5
178
330
1F
100
AcDbEntity
  8
0
  6
Continuous
 62
     7
370
    25
100
AcDbLine
 10
180.5250526377
 20
46.3964590964
 30
0.0
 11
179.8179458565
 21
45.6300233126
 31
0.0
  0
LINE
  5
179
330
1F
100
AcDbEntity
  8
0
  6
Continuous
 62
     7
370
    25
100
AcDbLine
 10
175.0080115021
 20
45.6300233126
 30
0.0
 11
179.8179458565
 21
45.6300233126
 31
0.0
  0
LINE
  5
17A
330
1F
100
AcDbEntity
  8
0
  6
Continuous
 62
     7
370
    25
100
AcDbLine
 10
175.0080115021
 20
45.6300233126
 30
0.0
 11
175.0080115021
 21
49.5271376297
 31
0.0
  0
LINE
  5
17B
330
1F
100
AcDbEntity
  8
0
  6
Continuous
 62
     7
370
    25
100
AcDbLine
 10
175.0080115021
 20
49.5271376297
 30
0.0
 11
175.0080115021
 21
53.4242519467
 31
0.0
  0
LINE
  5
17C
330
1F
100
AcDbEntity
  8
0
  6
Continuous
 62
     7
370
    25
100
AcDbLine
 10
179.8179458565
 20
53.4242519467
 30
0.0
 11
180.5250526377
 21
52.657816163
 31
0.0
  0
LINE
  5
17D
330
1F
100
AcDbEntity
  8
0
  6
Continuous
 62
     7
370
    25
100
AcDbLine
 10
188.7080115021
 20
61.2184805808
 30
0.0
 11
188.7080115021
 21
49.5271376297
 31
0.0
  0
LINE
  5
17E
330
1F
100
AcDbEntity
  8
0
  6
Continuous
 62
     7
370
    25
100
AcDbLine
 10
188.7080115021
 20
49.5271376297
 30
0.0
 11
188.7080115021
 21
47.7184805808
 31
0.0
  0
LINE
  5
17F
330
1F
100
AcDbEntity
  8
0
  6
Continuous
 62
     7
370
    25
100
AcDbLine
 10
188.7080115021
 20
74.7184805808
 30
0.0
 11
188.7080115021
 21
72.9098235319
 31
0.0
  0
LINE
  5
180
330
1F
100
AcDbEntity
  8
0
  6
Continuous
 62
     7
370
    25
100
AcDbLine
 10
180.5250526377
 20
76.0405020651
 30
0.0
 11
180.5250526377
 21
76.0998310677
 31
0.0
  0
LINE
  5
181
330
1F
100
AcDbEntity
  8
0
  6
Continuous
 62
     7
370
    25
100
AcDbLine
 10
183.9400040877
 20
76.0998310677
 30
0.0
 11
183.9400040877
 21
76.0405020651
 31
0.0
  0
LINE
  5
182
330
1F
100
AcDbEntity
  8
0
  6
Continuous
 62
     7
370
    25
100
AcDbLine
 10
180.5250526377
 20
46.3371300938
 30
0.0
 11
180.5250526377
 21
46.3964590964
 31
0.0
  0
LINE
  5
183
330
1F
100
AcDbEntity
  8
0
  6
Continuous
 62
     7
370
    25
100
AcDbLine
 10
183.9400040877
 20
46.3964590964
 30
0.0
 11
183.9400040877
 21
46.3371300938
 31
0.0
  0
LINE
  5
184
330
1F
100
AcDbEntity
  8
0
  6
Continuous
 62
     7
370
    25
100
AcDbLine
 10
131.1580115021
 20
81.7184805808
 30
0.0
 11
131.1580115021
 21
80.7184805808
 31
0.0
  0
LINE
  5
185
330
1F
100
AcDbEntity
  8
0
  6
Continuous
 62
     7
370
    25
100
AcDbLine
 10
174.2580115021
 20
81.7184805808
 30
0.0
 11
131.1580115021
 21
81.7184805808
 31
0.0
  0
LINE
  5
186
330
1F
100
AcDbEntity
  8
0
  6
Continuous
 62
     7
370
    25
100
AcDbLine
 10
174.2580115021
 20
80.7184805808
 30
0.0
 11
174.2580115021
 21
81.7184805808
 31
0.0
  0
LINE
  5
187
330
1F
100
AcDbEntity
  8
0
  6
Continuous
 62
     7
370
    25
100
AcDbLine
 10
131.1580115021
 20
80.7184805808
 30
0.0
 11
131.1580115021
 21
44.7184805808
 31
0.0
  0
LINE
  5
188
330
1F
100
AcDbEntity
  8
0
  6
Continuous
 62
     7
370
    25
100
AcDbLine
 10
174.2580115021
 20
44.7184805808
 30
0.0
 11
174.2580115021
 21
80.7184805808
 31
0.0
  0
LINE
  5
189
330
1F
100
AcDbEntity
  8
0
  6
Continuous
 62
     7
370
    25
100
AcDbLine
 10
174.2580115021
 20
43.7184805808
 30
0.0
 11
174.2580115021
 21
44.7184805808
 31
0.0
  0
LINE
  5
18A
330
1F
100
AcDbEntity
  8
0
  6
Continuous
 62
     7
370
    25
100
AcDbLine
 10
131.1580115021
 20
43.7184805808
 30
0.0
 11
174.2580115021
 21
43.7184805808
 31
0.0
  0
LINE
  5
18B
330
1F
100
AcDbEntity
  8
0
  6
Continuous
 62
     7
370
    25
100
AcDbLine
 10
131.1580115021
 20
44.7184805808
 30
0.0
 11
131.1580115021
 21
43.7184805808
 31
0.0
  0
LINE
  5
18C
330
1F
100
AcDbEntity
  8
0
  6
Continuous
 62
     7
370
    25
100
AcDbLine
 10
150.2080115021
 20
82.4684805808
 30
0.0
 11
155.2080115021
 21
82.4684805808
 31
0.0
  0
LINE
  5
18D
330
1F
100
AcDbEntity
  8
0
  6
Continuous
 62
     7
370
    25
100
AcDbLine
 10
150.6180115021
 20
84.4184805808
 30
0.0
 11
154.7980115021
 21
84.4184805808
 31
0.0
  0
LINE
  5
18E
330
1F
100
AcDbEntity
  8
0
  6
Continuous
 62
     7
370
    25
100
AcDbLine
 10
156.4996050291
 20
85.0184805808
 30
0.0
 11
155.2079632781
 21
85.0184805808
 31
0.0
  0
LINE
  5
18F
330
1F
100
AcDbEntity
  8
0
  6
Continuous
 62
     7
370
    25
100
AcDbLine
 10
155.2079632781
 20
82.0184805808
 30
0.0
 11
156.4996050291
 21
82.0184805808
 31
0.0
  0
LINE
  5
190
330
1F
100
AcDbEntity
  8
0
  6
Continuous
 62
     7
370
    25
100
AcDbLine
 10
165.1427941108
 20
85.0184805808
 30
0.0
 11
156.4996050291
 21
85.0184805808
 31
0.0
  0
LINE
  5
191
330
1F
100
AcDbEntity
  8
0
  6
Continuous
 62
     7
370
    25
100
AcDbLine
 10
165.1427941108
 20
82.0184805808
 30
0.0
 11
156.4996050291
 21
82.0184805808
 31
0.0
  0
LINE
  5
192
330
1F
100
AcDbEntity
  8
0
  6
Continuous
 62
     7
370
    25
100
AcDbLine
 10
152.7080115021
 20
85.0184805808
 30
0.0
 11
155.2079632781
 21
85.0184805808
 31
0.0
  0
LINE
  5
193
330
1F
100
AcDbEntity
  8
0
  6
Continuous
 62
     7
370
    25
100
AcDbLine
 10
143.7080115021
 20
85.0184805808
 30
0.0
 11
143.7080115021
 21
82.0184805808
 31
0.0
  0
LINE
  5
194
330
1F
100
AcDbEntity
  8
0
  6
Continuous
 62
     7
370
    25
100
AcDbLine
 10
143.7080115021
 20
85.0184805808
 30
0.0
 11
152.7080115021
 21
85.0184805808
 31
0.0
  0
LINE
  5
195
330
1F
100
AcDbEntity
  8
0
  6
Continuous
 62
     7
370
    25
100
AcDbLine
 10
150.2080115021
 20
82.0184805808
 30
0.0
 11
143.7080115021
 21
82.0184805808
 31
0.0
  0
LINE
  5
196
330
1F
100
AcDbEntity
  8
0
  6
Continuous
 62
     7
370
    25
100
AcDbLine
 10
153.416128642
 20
85.0184805808
 30
0.0
 11
153.416128642
 21
85.2184805808
 31
0.0
  0
LINE
  5
197
330
1F
100
AcDbEntity
  8
0
  6
Continuous
 62
     7
370
    25
100
AcDbLine
 10
151.9998943621
 20
85.2184805808
 30
0.0
 11
151.9998943621
 21
85.0184805808
 31
0.0
  0
LINE
  5
198
330
1F
100
AcDbEntity
  8
0
  6
Continuous
 62
     7
370
    25
100
AcDbLine
 10
158.3638553928
 20
85.2184805808
 30
0.0
 11
158.3638553928
 21
85.0184805808
 31
0.0
  0
LINE
  5
199
330
1F
100
AcDbEntity
  8
0
  6
Continuous
 62
     7
370
    25
100
AcDbLine
 10
147.0521676114
 20
85.0184805808
 30
0.0
 11
147.0521676114
 21
85.2184805808
 31
0.0
  0
LINE
  5
19A
330
1F
100
AcDbEntity
  8
0
  6
Continuous
 62
     7
370
    25
100
AcDbLine
 10
165.1862723716
 20
85.0184805808
 30
0.0
 11
165.1427941108
 21
85.0184805808
 31
0.0
  0
LINE
  5
19B
330
1F
100
AcDbEntity
  8
0
  6
Continuous
 62
     7
370
    25
100
AcDbLine
 10
165.1427941108
 20
82.0184805808
 30
0.0
 11
165.1862723716
 21
82.0184805808
 31
0.0
  0
LINE
  5
19C
330
1F
100
AcDbEntity
  8
0
  6
Continuous
 62
     7
370
    25
100
AcDbLine
 10
147.0416425184
 20
85.2184805808
 30
0.0
 11
147.0211445899
 21
85.2184805808
 31
0.0
  0
LINE
  5
19D
330
1F
100
AcDbEntity
  8
0
  6
Continuous
 62
     7
370
    25
100
AcDbLine
 10
141.2235394524
 20
85.0184805808
 30
0.0
 11
143.7080115021
 21
85.0184805808
 31
0.0
  0
LINE
  5
19E
330
1F
100
AcDbEntity
  8
0
  6
Continuous
 62
     7
370
    25
100
AcDbLine
 10
143.7080115021
 20
82.0184805808
 30
0.0
 11
141.2235394524
 21
82.0184805808
 31
0.0
  0
LINE
  5
19F
330
1F
100
AcDbEntity
  8
0
  6
Continuous
 62
     7
370
    25
100
AcDbLine
 10
141.2235394524
 20
85.0184805808
 30
0.0
 11
140.2297506325
 21
85.0184805808
 31
0.0
  0
LINE
  5
1A0
330
1F
100
AcDbEntity
  8
0
  6
Continuous
 62
     7
370
    25
100
AcDbLine
 10
140.2297506325
 20
82.0184805808
 30
0.0
 11
141.2235394524
 21
82.0184805808
 31
0.0
  0
ELLIPSE
  5
1A1
330
1F
100
AcDbEntity
  8
0
  6
Continuous
 62
     7
370
    25
100
AcDbEllipse
 10
147.0416431307
 20
85.6184804733
 30
0.0
 11
1.459629135069917E-5
 21
0.3999998715590181
 31
0.0
210
0.0
220
0.0
230
1.0
 40
0.9788010274
 41
2.618012197682137
 42
3.141628639322522
  0
ELLIPSE
  5
1A2
330
1F
100
AcDbEntity
  8
0
  6
Continuous
 62
     7
370
    25
100
AcDbEllipse
 10
147.0211439776
 20
85.6184806882
 30
0.0
 11
-1.459629137912088E-5
 21
0.3999998715590181
 31
0.0
210
0.0
220
0.0
230
1.0
 40
0.9788010274
 41
2.646511126728905
 42
3.14155666785599
  0
SPLINE
  5
1A3
330
1F
100
AcDbEntity
  8
0
  6
PHANTOM
 62
     8
370
    18
100
AcDbSpline
210
0.0
220
0.0
230
1.0
 70
    24
 71
     3
 72
    13
 73
     9
 74
     0
 42
0.00000001
 43
0.00000001
 40
0.0
 40
0.0
 40
0.0
 40
0.0
 40
0.1747884445046876
 40
0.3600466486448696
 40
0.5530067672170421
 40
0.7500617763567929
 40
0.9471167854965437
 40
1.0
 40
1.0
 40
1.0
 40
1.0
 10
156.083011502062
 20
97.70301052692584
 30
0.0
 10
156.4286666823609
 20
97.70301052692585
 30
0.0
 10
157.1406816534078
 20
97.70301052692584
 30
0.0
 10
158.0412878329893
 20
97.70301052692584
 30
0.0
 10
158.7820281509912
 20
97.70301052692584
 30
0.0
 10
159.2607679830791
 20
97.70301052692585
 30
0.0
 10
159.4766683420769
 20
97.70301052692587
 30
0.0
 10
159.4386716966062
 20
97.70301052692584
 30
0.0
 10
159.4306321709845
 20
97.70301052692584
 30
0.0
  0
SPLINE
  5
1A4
330
1F
100
AcDbEntity
  8
0
  6
PHANTOM
 62
     8
370
    18
100
AcDbSpline
210
0.0
220
0.0
230
1.0
 70
    24
 71
     3
 72
    18
 73
    14
 74
     0
 42
0.00000001
 43
0.00000001
 40
0.0
 40
0.0
 40
0.0
 40
0.0
 40
0.0700297996625801
 40
0.1626474585695868
 40
0.2500308843625513
 40
0.3374143101555159
 40
0.4300319690625225
 40
0.5265001094480893
 40
0.6250154421812759
 40
0.7235307749144619
 40
0.8199989153000287
 40
0.9126165742070352
 40
1.0
 40
1.0
 40
1.0
 40
1.0
 10
145.9853908331395
 20
97.70301052692584
 30
0.0
 10
145.9883907089243
 20
97.70301052692584
 30
0.0
 10
145.9953580596062
 20
97.70301052692584
 30
0.0
 10
146.305125993021
 20
97.70301052692584
 30
0.0
 10
146.8282560514233
 20
97.70301052692584
 30
0.0
 10
147.5599731940099
 20
97.70301052692585
 30
0.0
 10
148.5016887045696
 20
97.70301052692585
 30
0.0
 10
149.6494550590187
 20
97.70301052692584
 30
0.0
 10
150.9484117887133
 20
97.70301052692584
 30
0.0
 10
152.3222730033225
 20
97.70301052692584
 30
0.0
 10
153.6812797234426
 20
97.70301052692584
 30
0.0
 10
154.958540294792
 20
97.70301052692585
 30
0.0
 10
155.7155251951116
 20
97.70301052692584
 30
0.0
 10
156.083011502062
 20
97.70301052692584
 30
0.0
  0
LINE
  5
1A5
330
1F
100
AcDbEntity
  8
0
  6
PHANTOM
 62
     8
370
    18
100
AcDbLine
 10
155.9554132065
 20
97.8762156077
 30
0.0
 11
156.0330115021
 21
97.8762156077
 31
0.0
  0
SPLINE
  5
1A6
330
1F
100
AcDbEntity
  8
0
  6
PHANTOM
 62
     8
370
    18
100
AcDbSpline
210
0.0
220
0.0
230
1.0
 70
    24
 71
     3
 72
     9
 73
     5
 74
     0
 42
0.00000001
 43
0.00000001
 40
0.0
 40
0.0
 40
0.0
 40
0.0
 40
0.9295446574226324
 40
1.0
 40
1.0
 40
1.0
 40
1.0
 10
156.033011502062
 20
97.87621560768274
 30
0.0
 10
156.3868970129401
 20
97.87621560768272
 30
0.0
 10
156.767605468475
 20
97.87621560768272
 30
0.0
 10
157.0681933775732
 20
97.87621560768274
 30
0.0
 10
157.0893714016833
 20
97.87621560768274
 30
0.0
  0
SPLINE
  5
1A7
330
1F
100
AcDbEntity
  8
0
  6
PHANTOM
 62
     8
370
    18
100
AcDbSpline
210
0.0
220
0.0
230
1.0
 70
     8
 71
     3
 72
    11
 73
     7
 74
     0
 42
0.00000001
 43
0.00000001
 40
0.0
 40
0.0
 40
0.0
 40
0.0
 40
0.2519803780325576
 40
0.5000207188848936
 40
0.7481636611739629
 40
1.0
 40
1.0
 40
1.0
 40
1.0
 10
147.7618590793554
 20
98.85993246509118
 30
0.0
 10
147.9733687942255
 20
98.97062045305852
 30
0.0
 10
148.3930809976369
 20
99.19026567999046
 30
0.0
 10
149.0307221111602
 20
99.29772728767591
 30
0.0
 10
149.6475614630774
 20
99.18461357352163
 30
0.0
 10
150.0381821635463
 20
98.9686911812768
 30
0.0
 10
150.2349352907087
 20
98.85993246509118
 30
0.0
  0
SPLINE
  5
1A8
330
1F
100
AcDbEntity
  8
0
  6
PHANTOM
 62
     8
370
    18
100
AcDbSpline
210
0.0
220
0.0
230
1.0
 70
     8
 71
     3
 72
    11
 73
     7
 74
     0
 42
0.00000001
 43
0.00000001
 40
0.0
 40
0.0
 40
0.0
 40
0.0
 40
0.2519805309852629
 40
0.5000202912600126
 40
0.748163233656351
 40
1.0
 40
1.0
 40
1.0
 40
1.0
 10
150.2349352907087
 20
98.85993246509118
 30
0.0
 10
150.6427671267095
 20
98.97062790259776
 30
0.0
 10
151.4520526402566
 20
99.19028759093467
 30
0.0
 10
152.7081842152649
 20
99.29778133013923
 30
0.0
 10
153.9629782606388
 20
99.18462866228577
 30
0.0
 10
154.7730562911114
 20
98.96869629649893
 30
0.0
 10
155.1810877134153
 20
98.85993246509118
 30
0.0
  0
SPLINE
  5
1A9
330
1F
100
AcDbEntity
  8
0
  6
PHANTOM
 62
     8
370
    18
100
AcDbSpline
210
0.0
220
0.0
230
1.0
 70
     8
 71
     3
 72
    11
 73
     7
 74
     0
 42
0.00000001
 43
0.00000001
 40
0.0
 40
0.0
 40
0.0
 40
0.0
 40
0.2519805309852626
 40
0.5000202912600121
 40
0.7481632336563504
 40
1.0
 40
1.0
 40
1.0
 40
1.0
 10
155.1810877134153
 20
98.85993246509119
 30
0.0
 10
155.3774097327016
 20
98.97062790259776
 30
0.0
 10
155.7669834544509
 20
99.19028759093467
 30
0.0
 10
156.385470462554
 20
99.29778133013922
 30
0.0
 10
157.0234272064806
 20
99.18462866228579
 30
0.0
 10
157.4428853736698
 20
98.96869629649893
 30
0.0
 10
157.6541639247686
 20
98.85993246509118
 30
0.0
  0
SPLINE
  5
1AA
330
1F
100
AcDbEntity
  8
0
  6
PHANTOM
 62
     8
370
    18
100
AcDbSpline
210
0.0
220
0.0
230
1.0
 70
     8
 71
     3
 72
    11
 73
     7
 74
     0
 42
0.00000001
 43
0.00000001
 40
0.0
 40
0.0
 40
0.0
 40
0.0
 40
0.2804325661057824
 40
0.55974273626987
 40
0.779450267430745
 40
1.0
 40
1.0
 40
1.0
 40
1.0
 10
157.3267709478683
 20
99.37238246316267
 30
0.0
 10
157.1134811812351
 20
99.46917424524065
 30
0.0
 10
156.6877553133321
 20
99.6623704125087
 30
0.0
 10
156.0779359034367
 20
99.72147798919694
 30
0.0
 10
155.5184791561691
 20
99.61178260766108
 30
0.0
 10
155.184646501963
 20
99.45251059498968
 30
0.0
 10
155.017410867997
 20
99.37272224691604
 30
0.0
  0
SPLINE
  5
1AB
330
1F
100
AcDbEntity
  8
0
  6
PHANTOM
 62
     8
370
    18
100
AcDbSpline
210
0.0
220
0.0
230
1.0
 70
     8
 71
     3
 72
    11
 73
     7
 74
     0
 42
0.00000001
 43
0.00000001
 40
0.0
 40
0.0
 40
0.0
 40
0.0
 40
0.2804312944588859
 40
0.5597413355502517
 40
0.7794498005208739
 40
0.9999999999999999
 40
0.9999999999999999
 40
0.9999999999999999
 40
0.9999999999999999
 10
150.3985675624101
 20
99.37238126466752
 30
0.0
 10
150.185278429161
 20
99.46916517042808
 30
0.0
 10
149.7595529603483
 20
99.66234600915982
 30
0.0
 10
149.1497359093072
 20
99.72142550919689
 30
0.0
 10
148.5902789211126
 20
99.61175938852689
 30
0.0
 10
148.2564443056309
 20
99.45250162790754
 30
0.0
 10
148.0892078671849
 20
99.3727205044239
 30
0.0
  0
SPLINE
  5
1AC
330
1F
100
AcDbEntity
  8
0
  6
PHANTOM
 62
     8
370
    18
100
AcDbSpline
210
0.0
220
0.0
230
1.0
 70
     8
 71
     3
 72
    11
 73
     7
 74
     0
 42
0.00000001
 43
0.00000001
 40
0.0
 40
0.0
 40
0.0
 40
0.0
 40
0.2804325661058055
 40
0.5597427362699142
 40
0.7794502674307571
 40
0.9999999999999999
 40
0.9999999999999999
 40
0.9999999999999999
 40
0.9999999999999999
 10
155.0173271634801
 20
99.37238246314148
 30
0.0
 10
154.5907476302067
 20
99.46917424522428
 30
0.0
 10
153.739295894387
 20
99.66237041250187
 30
0.0
 10
152.5196570745746
 20
99.72147798919876
 30
0.0
 10
151.400743580019
 20
99.611782607665
 30
0.0
 10
150.7330782715948
 20
99.45251059499104
 30
0.0
 10
150.3986070036568
 20
99.37272224691611
 30
0.0
  0
LINE
  5
1AD
330
1F
100
AcDbEntity
  8
0
  6
PHANTOM
 62
     8
370
    18
100
AcDbLine
 10
146.8256585609
 20
88.2939324202
 30
0.0
 11
146.8256585609
 21
86.7424559368
 31
0.0
  0
LINE
  5
1AE
330
1F
100
AcDbEntity
  8
0
  6
PHANTOM
 62
     8
370
    18
100
AcDbLine
 10
146.8256585609
 20
89.7137236046
 30
0.0
 11
146.8256585609
 21
88.2939324202
 31
0.0
  0
SPLINE
  5
1AF
330
1F
100
AcDbEntity
  8
0
  6
PHANTOM
 62
     8
370
    18
100
AcDbSpline
210
0.0
220
0.0
230
1.0
 70
    24
 71
     3
 72
     9
 73
     5
 74
     0
 42
0.00000001
 43
0.00000001
 40
0.0
 40
0.0
 40
0.0
 40
0.0
 40
0.5256915871068343
 40
1.0
 40
1.0
 40
1.0
 40
1.0
 10
146.8256585608855
 20
92.85389530194455
 30
0.0
 10
146.8256585608855
 20
92.30761530213185
 30
0.0
 10
146.8256585608855
 20
91.26845086958089
 30
0.0
 10
146.8256585608855
 20
90.2171311498754
 30
0.0
 10
146.8256585608855
 20
89.7184813621786
 30
0.0
  0
LINE
  5
1B0
330
1F
100
AcDbEntity
  8
0
  6
PHANTOM
 62
     8
370
    18
100
AcDbLine
 10
146.8256585609
 20
94.2184805808
 30
0.0
 11
146.8241299808
 21
92.8559789639
 31
0.0
  0
LINE
  5
1B1
330
1F
100
AcDbEntity
  8
0
  6
PHANTOM
 62
     8
370
    18
100
AcDbLine
 10
146.8256585609
 20
88.2939324202
 30
0.0
 11
140.2080115021
 21
88.1250939583
 31
0.0
  0
LINE
  5
1B2
330
1F
100
AcDbEntity
  8
0
  6
PHANTOM
 62
     8
370
    18
100
AcDbLine
 10
146.8256585609
 20
94.2184805808
 30
0.0
 11
140.2080115021
 21
92.6555768279
 31
0.0
  0
SPLINE
  5
1B3
330
1F
100
AcDbEntity
  8
0
  6
PHANTOM
 62
     8
370
    18
100
AcDbSpline
210
0.0
220
0.0
230
1.0
 70
    24
 71
     3
 72
    12
 73
     8
 74
     0
 42
0.00000001
 43
0.00000001
 40
0.0
 40
0.0
 40
0.0
 40
0.0
 40
0.1953079019820321
 40
0.389745681498958
 40
0.5803286157885684
 40
0.7963349348810661
 40
1.0
 40
1.0
 40
1.0
 40
1.0
 10
53.83191492644949
 20
123.2184805807638
 30
0.0
 10
53.48305426616737
 20
123.2184805807638
 30
0.0
 10
52.78688716586061
 20
123.2184805807638
 30
0.0
 10
51.49964688311194
 20
123.2184805807638
 30
0.0
 10
50.02999481328951
 20
123.2184805807638
 30
0.0
 10
48.41570240822979
 20
123.2184805807638
 30
0.0
 10
47.26597178174929
 20
123.2184805807638
 30
0.0
 10
46.708011502062
 20
123.2184805807638
 30
0.0
  0
LINE
  5
1B4
330
1F
100
AcDbEntity
  8
0
  6
PHANTOM
 62
     8
370
    18
100
AcDbLine
 10
140.2080115021
 20
91.3118672032
 30
0.0
 11
120.2080115021
 21
113.4728984239
 31
0.0
  0
LINE
  5
1B5
330
1F
100
AcDbEntity
  8
0
  6
PHANTOM
 62
     8
370
    18
100
AcDbLine
 10
140.2080115021
 20
92.6555768279
 30
0.0
 11
120.2080115021
 21
114.1818759004
 31
0.0
  0
LINE
  5
1B6
330
1F
100
AcDbEntity
  8
0
  6
PHANTOM
 62
     8
370
    18
100
AcDbLine
 10
140.2080115021
 20
86.7813843336
 30
0.0
 11
120.2080115021
 21
110.2550852611
 31
0.0
  0
LINE
  5
1B7
330
1F
100
AcDbEntity
  8
0
  6
PHANTOM
 62
     8
370
    18
100
AcDbLine
 10
140.2080115021
 20
88.1250939583
 30
0.0
 11
120.2080115021
 21
110.9640627377
 31
0.0
  0
LINE
  5
1B8
330
1F
100
AcDbEntity
  8
0
  6
PHANTOM
 62
     8
370
    18
100
AcDbLine
 10
120.2080115021
 20
110.9640627377
 30
0.0
 11
55.7080115021
 21
121.894951169
 31
0.0
  0
LINE
  5
1B9
330
1F
100
AcDbEntity
  8
0
  6
PHANTOM
 62
     8
370
    18
100
AcDbLine
 10
120.2080115021
 20
113.4728984239
 30
0.0
 11
55.7080115021
 21
124.5420099925
 31
0.0
  0
LINE
  5
1BA
330
1F
100
AcDbEntity
  8
0
  6
PHANTOM
 62
     8
370
    18
100
AcDbLine
 10
120.2080115021
 20
110.2550852611
 30
0.0
 11
55.7080115021
 21
121.4876965115
 31
0.0
  0
LINE
  5
1BB
330
1F
100
AcDbEntity
  8
0
  6
PHANTOM
 62
     8
370
    18
100
AcDbLine
 10
120.2080115021
 20
114.1818759004
 30
0.0
 11
55.7080115021
 21
124.94926465
 31
0.0
  0
LINE
  5
1BC
330
1F
100
AcDbEntity
  8
0
  6
PHANTOM
 62
     8
370
    18
100
AcDbLine
 10
55.7080115021
 20
124.5420099925
 30
0.0
 11
54.264660308
 21
124.5420099925
 31
0.0
  0
LINE
  5
1BD
330
1F
100
AcDbEntity
  8
0
  6
PHANTOM
 62
     8
370
    18
100
AcDbLine
 10
55.7080115021
 20
121.894951169
 30
0.0
 11
54.264660308
 21
121.894951169
 31
0.0
  0
LINE
  5
1BE
330
1F
100
AcDbEntity
  8
0
  6
PHANTOM
 62
     8
370
    18
100
AcDbLine
 10
131.1580115021
 20
80.7184805808
 30
0.0
 11
174.2580115021
 21
80.7184805808
 31
0.0
  0
LINE
  5
1BF
330
1F
100
AcDbEntity
  8
0
  6
PHANTOM
 62
     8
370
    18
100
AcDbLine
 10
174.2580115021
 20
44.7184805808
 30
0.0
 11
131.1580115021
 21
44.7184805808
 31
0.0
  0
LINE
  5
1C0
330
1F
100
AcDbEntity
  8
0
  6
PHANTOM
 62
     8
370
    18
100
AcDbLine
 10
155.2079632781
 20
85.0184805808
 30
0.0
 11
155.2079632781
 21
82.4687099384
 31
0.0
  0
LINE
  5
1C1
330
1F
100
AcDbEntity
  8
0
  6
PHANTOM
 62
     8
370
    18
100
AcDbLine
 10
156.4996050291
 20
82.0184805808
 30
0.0
 11
156.4996050291
 21
85.0184805808
 31
0.0
  0
LINE
  5
1C2
330
1F
100
AcDbEntity
  8
0
  6
PHANTOM
 62
     8
370
    18
100
AcDbLine
 10
165.1427941108
 20
85.0184805808
 30
0.0
 11
165.1427941108
 21
82.0184805808
 31
0.0
  0
LINE
  5
1C3
330
1F
100
AcDbEntity
  8
0
  6
PHANTOM
 62
     8
370
    18
100
AcDbLine
 10
152.7080115021
 20
85.0184805808
 30
0.0
 11
152.7080115021
 21
84.9184805808
 31
0.0
  0
LINE
  5
1C4
330
1F
100
AcDbEntity
  8
0
  6
PHANTOM
 62
     8
370
    18
100
AcDbLine
 10
141.2235394524
 20
82.0184805808
 30
0.0
 11
141.2235394524
 21
85.0184805808
 31
0.0
  0
POINT
  5
1C5
330
1F
100
AcDbEntity
  8
0
  6
Continuous
 62
     7
370
     0
100
AcDbPoint
 10
46.7080115021
 20
132.2184805808
 30
0.0
  0
DIMENSION
  5
1C6
330
1F
100
AcDbEntity
  8
0
  6
Continuous
 62
     7
370
    18
100
AcDbDimension
  2
_D
 10
27.7031943445
 20
43.7184805808
 30
0.0
 11
27.7031943445
 21
88.1023864605
 31
0.0
 70
   160
  1
<>
 71
     2
 42
-1.0
  3
SLDDIMSTYLE0
100
AcDbAlignedDimension
 13
46.7080115021
 23
132.2184805808
 33
0.0
 14
131.1580115021
 24
43.7184805808
 34
0.0
 50
90.0
100
AcDbRotatedDimension
  0
DIMENSION
  5
1D9
330
1F
100
AcDbEntity
  8
0
  6
Continuous
 62
     7
370
    18
100
AcDbDimension
  2
_D_1
 10
188.7080115021
 20
33.7184805808
 30
0.0
 11
154.2670583696
 21
33.7184805808
 31
0.0
 70
   160
  1
<>
 71
     2
 42
-1.0
  3
SLDDIMSTYLE1
100
AcDbAlignedDimension
 13
116.7080115021
 23
61.2184805808
 33
0.0
 14
188.7080115021
 24
61.2184805808
 34
0.0
 50
0.0
100
AcDbRotatedDimension
  0
ARC
  5
1E4
330
1F
100
AcDbEntity
  8
0
  6
Continuous
 62
     7
370
    25
100
AcDbCircle
 10
46.7080115021
 20
205.8982947625
 30
0.0
 40
9.000000000000057
100
AcDbArc
 50
90.0
 51
269.1840234
  0
LINE
  5
1E5
330
1F
100
AcDbEntity
  8
0
  6
Continuous
 62
     7
370
    25
100
AcDbLine
 10
55.7184619565
 20
211.3982947625
 30
0.0
 11
53.8319149264
 21
211.3982947625
 31
0.0
  0
LINE
  5
1E6
330
1F
100
AcDbEntity
  8
0
  6
Continuous
 62
     7
370
    25
100
AcDbLine
 10
53.8319149264
 20
200.3982947625
 30
0.0
 11
55.7184770881
 21
200.3982947625
 31
0.0
  0
LWPOLYLINE
  5
1E7
330
1F
100
AcDbEntity
  8
0
  6
Continuous
 62
     7
370
    25
100
AcDbPolyline
 90
        4
 70
   128
 43
0.0
 10
55.7080115021
 20
200.3984389761
 10
82.475384821
 20
199.9833900861
 10
94.2866637543
 20
199.800250991
 10
120.2080115021
 20
199.3983200854
  0
LWPOLYLINE
  5
1E8
330
1F
100
AcDbEntity
  8
0
  6
Continuous
 62
     7
370
    25
100
AcDbPolyline
 90
        5
 70
   128
 43
0.0
 10
120.2080115021
 20
212.3982694395
 10
85.24017242
 20
211.8560687019
 10
75.1216620787
 20
211.6991762606
 10
68.0861392749
 20
211.5900858686
 10
55.7080115021
 20
211.3981505488
  0
LWPOLYLINE
  5
1E9
330
1F
100
AcDbEntity
  8
0
  6
Continuous
 62
     7
370
    25
100
AcDbPolyline
 90
        3
 70
   128
 43
0.0
 10
120.2080115021
 20
199.3975543305
 10
130.9138942537
 20
198.8626682193
 10
140.2080115021
 20
198.3982947625
  0
LWPOLYLINE
  5
1EA
330
1F
100
AcDbEntity
  8
0
  6
Continuous
 62
     7
370
    25
100
AcDbPolyline
 90
        3
 70
   128
 43
0.0
 10
140.2080115021
 20
213.3982947625
 10
130.913893679
 20
212.9339212772
 10
120.2080115021
 20
212.399035195
  0
ARC
  5
1EB
330
1F
100
AcDbEntity
  8
0
  6
Continuous
 62
     7
370
    25
100
AcDbCircle
 10
152.7080115021
 20
205.8982947625
 30
0.0
 40
12.50000000000009
100
AcDbArc
 50
241.9231028613
 51
90.0
  0
ARC
  5
1EC
330
1F
100
AcDbEntity
  8
0
  6
Continuous
 62
     7
370
    25
100
AcDbCircle
 10
152.7080115021
 20
205.8982947625
 30
0.0
 40
12.5000000000001
100
AcDbArc
 50
90.0
 51
118.0725365729
  0
SPLINE
  5
1ED
330
1F
100
AcDbEntity
  8
0
  6
Continuous
 62
     7
370
    25
100
AcDbSpline
210
0.0
220
0.0
230
1.0
 70
     8
 71
     3
 72
    17
 73
    13
 74
     0
 42
0.00000001
 43
0.00000001
 40
0.0
 40
0.0
 40
0.0
 40
0.0
 40
0.0088899747990501
 40
0.061974606106769
 40
0.1215857734102804
 40
0.1871203060839683
 40
0.2604817767879507
 40
0.3885339830029863
 40
0.5328089888361445
 40
0.6794770871216829
 40
0.8427452088103913
 40
1.0
 40
1.0
 40
1.0
 40
1.0
 10
140.2079264549962
 20
198.3981272680057
 30
0.0
 10
140.2142007753265
 20
198.3949567644738
 30
0.0
 10
140.2579408915643
 20
198.3728542600248
 30
0.0
 10
140.433975196669
 20
198.2792908926694
 30
0.0
 10
140.7340395728039
 20
198.1185631451507
 30
0.0
 10
141.1518886830966
 20
197.8949139035084
 30
0.0
 10
141.7717435169107
 20
197.5646683032405
 30
0.0
 10
142.5916964443708
 20
197.1281290419408
 30
0.0
 10
143.5621865479314
 20
196.6103796225365
 30
0.0
 10
144.6102544720676
 20
196.0515725669464
 30
0.0
 10
145.7034762358968
 20
195.4689539320936
 30
0.0
 10
146.4563057307089
 20
195.0674948597477
 30
0.0
 10
146.8256585608855
 20
194.8705312104848
 30
0.0
  0
SPLINE
  5
1EE
330
1F
100
AcDbEntity
  8
0
  6
Continuous
 62
     7
370
    25
100
AcDbSpline
210
0.0
220
0.0
230
1.0
 70
     8
 71
     3
 72
    12
 73
     8
 74
     0
 42
0.00000001
 43
0.00000001
 40
0.0
 40
0.0
 40
0.0
 40
0.0
 40
0.2732666273832253
 40
0.5401506541857034
 40
0.826518267380901
 40
0.9282904578835317
 40
1.0
 40
1.0
 40
1.0
 40
1.0
 10
146.8256585608855
 20
216.9276248765431
 30
0.0
 10
146.2227640587588
 20
216.6060876199772
 30
0.0
 10
145.0310566671641
 20
215.9705231489613
 30
0.0
 10
143.2105458169823
 20
214.9995792960801
 30
0.0
 10
141.7671631887787
 20
214.2298899231703
 30
0.0
 10
140.7441721098033
 20
213.6841826279105
 30
0.0
 10
140.3648115782564
 20
213.4819205088526
 30
0.0
 10
140.2080010045806
 20
213.3983144500118
 30
0.0
  0
LINE
  5
1EF
330
1F
100
AcDbEntity
  8
0
  6
Continuous
 62
     7
370
    25
100
AcDbLine
 10
130.4080115021
 20
192.3982947625
 30
0.0
 11
131.1580115021
 21
192.3982947625
 31
0.0
  0
LINE
  5
1F0
330
1F
100
AcDbEntity
  8
0
  6
Continuous
 62
     7
370
    25
100
AcDbLine
 10
131.1580115021
 20
219.3982947625
 30
0.0
 11
130.4080115021
 21
219.3982947625
 31
0.0
  0
LINE
  5
1F1
330
1F
100
AcDbEntity
  8
0
  6
Continuous
 62
     7
370
    25
100
AcDbLine
 10
175.0080115021
 20
219.3982947625
 30
0.0
 11
174.2580115021
 21
219.3982947625
 31
0.0
  0
LINE
  5
1F2
330
1F
100
AcDbEntity
  8
0
  6
Continuous
 62
     7
370
    25
100
AcDbLine
 10
174.2580115021
 20
192.3982947625
 30
0.0
 11
175.0080115021
 21
192.3982947625
 31
0.0
  0
SPLINE
  5
1F3
330
1F
100
AcDbEntity
  8
0
  6
Continuous
 62
     7
370
    25
100
AcDbSpline
210
0.0
220
0.0
230
1.0
 70
     8
 71
     3
 72
    16
 73
    12
 74
     0
 42
0.00000001
 43
0.00000001
 40
0.0
 40
0.0
 40
0.0
 40
0.0
 40
0.1041997197396797
 40
0.2140295189846902
 40
0.3282478159868166
 40
0.4452432110273836
 40
0.563147446205159
 40
0.677943366094153
 40
0.789968517633101
 40
0.8977094860753313
 40
1.0
 40
1.0
 40
1.0
 40
1.0
 10
141.709375222959
 20
206.0714998432417
 30
0.0
 10
141.7466743186026
 20
206.6650055109959
 30
0.0
 10
141.8232878403962
 20
207.884084918325
 30
0.0
 10
142.3294587470385
 20
209.6975692968639
 30
0.0
 10
143.1513619076985
 20
211.4662577141396
 30
0.0
 10
144.309657900278
 20
213.0967072893087
 30
0.0
 10
145.7456450002115
 20
214.4918691465999
 30
0.0
 10
147.3856201691103
 20
215.5912542449429
 30
0.0
 10
149.1389956799924
 20
216.3561616579343
 30
0.0
 10
150.9276013277359
 20
216.8160728046357
 30
0.0
 10
152.1248983243449
 20
216.8713657391559
 30
0.0
 10
152.708011502062
 20
216.8982947624848
 30
0.0
  0
SPLINE
  5
1F4
330
1F
100
AcDbEntity
  8
0
  6
Continuous
 62
     7
370
    25
100
AcDbSpline
210
0.0
220
0.0
230
1.0
 70
     8
 71
     3
 72
    16
 73
    12
 74
     0
 42
0.00000001
 43
0.00000001
 40
0.0
 40
0.0
 40
0.0
 40
0.0
 40
0.10419971973968
 40
0.2140295189846907
 40
0.3282478159868175
 40
0.4452432110273845
 40
0.5631474462051599
 40
0.6779433660941541
 40
0.7899685176331017
 40
0.8977094860753314
 40
1.0
 40
1.0
 40
1.0
 40
1.0
 10
152.708011502062
 20
216.8982947624848
 30
0.0
 10
153.3020308986154
 20
216.8703455816293
 30
0.0
 10
154.5221655211415
 20
216.8129370804408
 30
0.0
 10
156.3433951984275
 20
216.3353838996239
 30
0.0
 10
158.1248059616997
 20
215.5414322541152
 30
0.0
 10
159.7732918343941
 20
214.4089527836072
 30
0.0
 10
161.190891659888
 20
212.9951118116535
 30
0.0
 10
162.3159633743343
 20
211.3726507839501
 30
0.0
 10
163.1083844624835
 20
209.6315368153465
 30
0.0
 10
163.596401826932
 20
207.8503946318033
 30
0.0
 10
163.6705404449847
 20
206.6541167075692
 30
0.0
 10
163.706647781165
 20
206.0714998432417
 30
0.0
  0
LINE
  5
1F5
330
1F
100
AcDbEntity
  8
0
  6
Continuous
 62
     7
370
    25
100
AcDbLine
 10
159.4226745134
 20
206.0714998432
 30
0.0
 11
163.7066477812
 21
206.0714998432
 31
0.0
  0
LINE
  5
1F6
330
1F
100
AcDbEntity
  8
0
  6
Continuous
 62
     7
370
    25
100
AcDbLine
 10
141.709375223
 20
206.0714998432
 30
0.0
 11
145.9775392188
 21
206.0714998432
 31
0.0
  0
LINE
  5
1F7
330
1F
100
AcDbEntity
  8
0
  6
Continuous
 62
     7
370
    25
100
AcDbLine
 10
163.7066477812
 20
205.7250896817
 30
0.0
 11
159.4384837853
 21
205.7250896817
 31
0.0
  0
LINE
  5
1F8
330
1F
100
AcDbEntity
  8
0
  6
Continuous
 62
     7
370
    25
100
AcDbLine
 10
145.9933484907
 20
205.7250896817
 30
0.0
 11
141.709375223
 21
205.7250896817
 31
0.0
  0
SPLINE
  5
1F9
330
1F
100
AcDbEntity
  8
0
  6
Continuous
 62
     7
370
    25
100
AcDbSpline
210
0.0
220
0.0
230
1.0
 70
     8
 71
     3
 72
    23
 73
    19
 74
     0
 42
0.00000001
 43
0.00000001
 40
0.0
 40
0.0
 40
0.0
 40
0.0
 40
0.058343093746039
 40
0.1201088138988291
 40
0.184387292337165
 40
0.2499999999999997
 40
0.3156127076628346
 40
0.3798911861011705
 40
0.4416569062539608
 40
0.5
 40
0.5583430937460392
 40
0.6201088138988294
 40
0.6843872923371653
 40
0.7500000000000002
 40
0.8156127076628351
 40
0.8798911861011709
 40
0.9416569062539611
 40
1.0
 40
1.0
 40
1.0
 40
1.0
 10
163.706647781165
 20
205.725089681728
 30
0.0
 10
163.6611052941479
 20
205.0605653074644
 30
0.0
 10
163.5673486256819
 20
203.6925330473467
 30
0.0
 10
162.9347013026246
 20
201.6706579086796
 30
0.0
 10
161.9087319391912
 20
199.7314735156519
 30
0.0
 10
160.47809562955
 20
198.0045122579992
 30
0.0
 10
158.729292149543
 20
196.6029891121912
 30
0.0
 10
156.7740708823704
 20
195.6013621304074
 30
0.0
 10
154.7425152361212
 20
195.0228186677798
 30
0.0
 10
152.708011502062
 20
194.8378070293667
 30
0.0
 10
150.6735077680028
 20
195.0228186677798
 30
0.0
 10
148.6419521217537
 20
195.6013621304074
 30
0.0
 10
146.686730854581
 20
196.6029891121912
 30
0.0
 10
144.937927374574
 20
198.0045122579992
 30
0.0
 10
143.5072910649328
 20
199.7314735156519
 30
0.0
 10
142.4813217014994
 20
201.6706579086796
 30
0.0
 10
141.8486743784421
 20
203.6925330473467
 30
0.0
 10
141.7549177099761
 20
205.0605653074644
 30
0.0
 10
141.709375222959
 20
205.7250896817279
 30
0.0
  0
LINE
  5
1FA
330
1F
100
AcDbEntity
  8
0
  6
Continuous
 62
     7
370
    25
100
AcDbLine
 10
145.9854438548
 20
205.8982947625
 30
0.0
 11
141.7080115021
 21
205.8982947625
 31
0.0
  0
SPLINE
  5
1FB
330
1F
100
AcDbEntity
  8
0
  6
Continuous
 62
     7
370
    25
100
AcDbSpline
210
0.0
220
0.0
230
1.0
 70
     8
 71
     3
 72
     9
 73
     5
 74
     0
 42
0.00000001
 43
0.00000001
 40
0.0
 40
0.0
 40
0.0
 40
0.0
 40
0.5599892317495103
 40
0.9999999999999999
 40
0.9999999999999999
 40
0.9999999999999999
 40
0.9999999999999999
 10
141.709375222959
 20
205.7250896817279
 30
0.0
 10
141.708937379836
 20
205.7574203359661
 30
0.0
 10
141.7081555020816
 20
205.815154757282
 30
0.0
 10
141.7080555028158
 20
205.8728904402615
 30
0.0
 10
141.708011502062
 20
205.8982947624848
 30
0.0
  0
SPLINE
  5
1FC
330
1F
100
AcDbEntity
  8
0
  6
Continuous
 62
     7
370
    25
100
AcDbSpline
210
0.0
220
0.0
230
1.0
 70
     8
 71
     3
 72
     9
 73
     5
 74
     0
 42
0.00000001
 43
0.00000001
 40
0.0
 40
0.0
 40
0.0
 40
0.0
 40
0.5600121428755354
 40
1.0
 40
1.0
 40
1.0
 40
1.0
 10
141.708011502062
 20
205.8982947624848
 30
0.0
 10
141.7080827757451
 20
205.9306274610685
 30
0.0
 10
141.7082100474196
 20
205.9883631709008
 30
0.0
 10
141.709019203923
 20
206.0460974579849
 30
0.0
 10
141.709375222959
 20
206.0714998432417
 30
0.0
  0
LINE
  5
1FD
330
1F
100
AcDbEntity
  8
0
  6
Continuous
 62
     7
370
    25
100
AcDbLine
 10
159.4305791494
 20
205.8982947625
 30
0.0
 11
163.7080115021
 21
205.8982947625
 31
0.0
  0
SPLINE
  5
1FE
330
1F
100
AcDbEntity
  8
0
  6
Continuous
 62
     7
370
    25
100
AcDbSpline
210
0.0
220
0.0
230
1.0
 70
     8
 71
     3
 72
     9
 73
     5
 74
     0
 42
0.00000001
 43
0.00000001
 40
0.0
 40
0.0
 40
0.0
 40
0.0
 40
0.560012142875534
 40
1.0
 40
1.0
 40
1.0
 40
1.0
 10
163.708011502062
 20
205.8982947624848
 30
0.0
 10
163.7079402283789
 20
205.8659620639012
 30
0.0
 10
163.7078129567045
 20
205.8082263540688
 30
0.0
 10
163.707003800201
 20
205.7504920669847
 30
0.0
 10
163.706647781165
 20
205.725089681728
 30
0.0
  0
SPLINE
  5
1FF
330
1F
100
AcDbEntity
  8
0
  6
Continuous
 62
     7
370
    25
100
AcDbSpline
210
0.0
220
0.0
230
1.0
 70
     8
 71
     3
 72
     9
 73
     5
 74
     0
 42
0.00000001
 43
0.00000001
 40
0.0
 40
0.0
 40
0.0
 40
0.0
 40
0.5599892317494959
 40
0.9999999999999999
 40
0.9999999999999999
 40
0.9999999999999999
 40
0.9999999999999999
 10
163.706647781165
 20
206.0714998432417
 30
0.0
 10
163.707085624288
 20
206.0391691890035
 30
0.0
 10
163.7078675020425
 20
205.9814347676876
 30
0.0
 10
163.7079675013082
 20
205.9236990847081
 30
0.0
 10
163.708011502062
 20
205.8982947624848
 30
0.0
  0
SPLINE
  5
200
330
1F
100
AcDbEntity
  8
0
  6
Continuous
 62
     7
370
    25
100
AcDbSpline
210
0.0
220
0.0
230
1.0
 70
     8
 71
     3
 72
    11
 73
     7
 74
     0
 42
0.00000001
 43
0.00000001
 40
0.0
 40
0.0
 40
0.0
 40
0.0
 40
0.2757314499394166
 40
0.5610422027418017
 40
0.7842685108023567
 40
1.0
 40
1.0
 40
1.0
 40
1.0
 10
152.708011502062
 20
209.8982947624848
 30
0.0
 10
152.3226413377974
 20
209.8661030041262
 30
0.0
 10
151.538512701483
 20
209.8006010999234
 30
0.0
 10
150.538286126312
 20
209.3086698824771
 30
0.0
 10
149.7525746311152
 20
208.659951631098
 30
0.0
 10
149.4115237535887
 20
208.1492739275985
 30
0.0
 10
149.2439098869242
 20
207.8982947624848
 30
0.0
  0
SPLINE
  5
201
330
1F
100
AcDbEntity
  8
0
  6
Continuous
 62
     7
370
    25
100
AcDbSpline
210
0.0
220
0.0
230
1.0
 70
    24
 71
     3
 72
     9
 73
     5
 74
     0
 42
0.00000001
 43
0.00000001
 40
0.0
 40
0.0
 40
0.0
 40
0.0
 40
0.5398560076902732
 40
1.0
 40
1.0
 40
1.0
 40
1.0
 10
152.708011502062
 20
209.8982947624848
 30
0.0
 10
152.2909164041821
 20
209.8982947624848
 30
0.0
 10
151.5183120579521
 20
209.8982947624848
 30
0.0
 10
150.7514687613006
 20
209.8982947624848
 30
0.0
 10
150.3986104253035
 20
209.8982947624848
 30
0.0
  0
SPLINE
  5
202
330
1F
100
AcDbEntity
  8
0
  6
Continuous
 62
     7
370
    25
100
AcDbSpline
210
0.0
220
0.0
230
1.0
 70
    24
 71
     3
 72
     9
 73
     5
 74
     0
 42
0.00000001
 43
0.00000001
 40
0.0
 40
0.0
 40
0.0
 40
0.0
 40
0.5778119623600693
 40
1.0
 40
1.0
 40
1.0
 40
1.0
 10
150.3986104253035
 20
209.8982947624848
 30
0.0
 10
150.176928021724
 20
209.5143295763412
 30
0.0
 10
149.7932696379931
 20
208.8498137629694
 30
0.0
 10
149.4069917784349
 20
208.1807608843756
 30
0.0
 10
149.2439098869242
 20
207.8982947624848
 30
0.0
  0
SPLINE
  5
203
330
1F
100
AcDbEntity
  8
0
  6
Continuous
 62
     7
370
    25
100
AcDbSpline
210
0.0
220
0.0
230
1.0
 70
     8
 71
     3
 72
    11
 73
     7
 74
     0
 42
0.00000001
 43
0.00000001
 40
0.0
 40
0.0
 40
0.0
 40
0.0
 40
0.2757314499394152
 40
0.5610422027418012
 40
0.7842685108023563
 40
1.0
 40
1.0
 40
1.0
 40
1.0
 10
149.2439098869242
 20
203.8982947624848
 30
0.0
 10
149.4644738495876
 20
203.5806502895504
 30
0.0
 10
149.9132644807807
 20
202.9343259227686
 30
0.0
 10
150.8394026995892
 20
202.3140699078535
 30
0.0
 10
151.7940649327806
 20
201.9579829186571
 30
0.0
 10
152.4068502359208
 20
201.9179630464859
 30
0.0
 10
152.708011502062
 20
201.8982947624848
 30
0.0
  0
SPLINE
  5
204
330
1F
100
AcDbEntity
  8
0
  6
Continuous
 62
     7
370
    25
100
AcDbSpline
210
0.0
220
0.0
230
1.0
 70
     8
 71
     3
 72
    11
 73
     7
 74
     0
 42
0.00000001
 43
0.00000001
 40
0.0
 40
0.0
 40
0.0
 40
0.0
 40
0.2757314499394157
 40
0.5610422027418012
 40
0.7842685108023563
 40
1.0
 40
1.0
 40
1.0
 40
1.0
 10
149.2439098869242
 20
207.8982947624848
 30
0.0
 10
149.079103685323
 20
207.5484585311918
 30
0.0
 10
148.7437656802016
 20
206.8366322602072
 30
0.0
 10
148.6696773238392
 20
205.7244450278457
 30
0.0
 10
148.8386280618338
 20
204.7196397872703
 30
0.0
 10
149.1103624874474
 20
204.1689422115996
 30
0.0
 10
149.2439098869242
 20
203.8982947624848
 30
0.0
  0
SPLINE
  5
205
330
1F
100
AcDbEntity
  8
0
  6
Continuous
 62
     7
370
    25
100
AcDbSpline
210
0.0
220
0.0
230
1.0
 70
     8
 71
     3
 72
    11
 73
     7
 74
     0
 42
0.00000001
 43
0.00000001
 40
0.0
 40
0.0
 40
0.0
 40
0.0
 40
0.275731449939416
 40
0.561042202741802
 40
0.7842685108023569
 40
1.0
 40
1.0
 40
1.0
 40
1.0
 10
156.1721131171998
 20
207.8982947624848
 30
0.0
 10
155.9515491545364
 20
208.2159392354193
 30
0.0
 10
155.5027585233433
 20
208.862263602201
 30
0.0
 10
154.5766203045348
 20
209.4825196171162
 30
0.0
 10
153.6219580713434
 20
209.8386066063126
 30
0.0
 10
153.0091727682033
 20
209.8786264784837
 30
0.0
 10
152.708011502062
 20
209.8982947624848
 30
0.0
  0
SPLINE
  5
206
330
1F
100
AcDbEntity
  8
0
  6
Continuous
 62
     7
370
    25
100
AcDbSpline
210
0.0
220
0.0
230
1.0
 70
     8
 71
     3
 72
    11
 73
     7
 74
     0
 42
0.00000001
 43
0.00000001
 40
0.0
 40
0.0
 40
0.0
 40
0.0
 40
0.2757314499394156
 40
0.5610422027418013
 40
0.7842685108023562
 40
1.0
 40
1.0
 40
1.0
 40
1.0
 10
156.1721131171998
 20
203.8982947624848
 30
0.0
 10
156.336919318801
 20
204.2481309937779
 30
0.0
 10
156.6722573239223
 20
204.9599572647624
 30
0.0
 10
156.7463456802847
 20
206.0721444971239
 30
0.0
 10
156.5773949422902
 20
207.0769497376994
 30
0.0
 10
156.3056605166765
 20
207.6276473133701
 30
0.0
 10
156.1721131171998
 20
207.8982947624848
 30
0.0
  0
SPLINE
  5
207
330
1F
100
AcDbEntity
  8
0
  6
Continuous
 62
     7
370
    25
100
AcDbSpline
210
0.0
220
0.0
230
1.0
 70
     8
 71
     3
 72
    11
 73
     7
 74
     0
 42
0.00000001
 43
0.00000001
 40
0.0
 40
0.0
 40
0.0
 40
0.0
 40
0.2757314499394164
 40
0.5610422027418018
 40
0.7842685108023568
 40
1.0
 40
1.0
 40
1.0
 40
1.0
 10
152.708011502062
 20
201.8982947624848
 30
0.0
 10
153.0933816663266
 20
201.9304865208434
 30
0.0
 10
153.877510302641
 20
201.9959884250462
 30
0.0
 10
154.877736877812
 20
202.4879196424925
 30
0.0
 10
155.6634483730088
 20
203.1366378938716
 30
0.0
 10
156.0044992505353
 20
203.6473155973712
 30
0.0
 10
156.1721131171998
 20
203.8982947624848
 30
0.0
  0
SPLINE
  5
208
330
1F
100
AcDbEntity
  8
0
  6
Continuous
 62
     7
370
    25
100
AcDbSpline
210
0.0
220
0.0
230
1.0
 70
     8
 71
     3
 72
    19
 73
    15
 74
     0
 42
0.00000001
 43
0.00000001
 40
0.0
 40
0.0
 40
0.0
 40
0.0
 40
0.0785035252242152
 40
0.1626765933322123
 40
0.2500000000000002
 40
0.3373234066677879
 40
0.4214964747757849
 40
0.4999999999999999
 40
0.5785035252242154
 40
0.6626765933322124
 40
0.7500000000000001
 40
0.8373234066677878
 40
0.9214964747757848
 40
1.0
 40
1.0
 40
1.0
 40
1.0
 10
151.008011502062
 20
208.8427811353519
 30
0.0
 10
150.7760945218618
 20
208.6856982258728
 30
0.0
 10
150.2955114631122
 20
208.36018784259
 30
0.0
 10
149.7453404341282
 20
207.644318485122
 30
0.0
 10
149.3819896487216
 20
206.7900729256946
 30
0.0
 10
149.2668617741296
 20
205.8659178412366
 30
0.0
 10
149.3964222853708
 20
204.977525881839
 30
0.0
 10
149.7335621751937
 20
204.1809956429265
 30
0.0
 10
150.254807652063
 20
203.4907588142546
 30
0.0
 10
150.9593974017985
 20
202.9343601404935
 30
0.0
 10
151.8173031192717
 20
202.5719862623449
 30
0.0
 10
152.7387768675091
 20
202.4595344932784
 30
0.0
 10
153.6338234313593
 20
202.5780619020707
 30
0.0
 10
154.1560152218526
 20
202.8315038479349
 30
0.0
 10
154.408011502062
 20
202.9538083896177
 30
0.0
  0
SPLINE
  5
209
330
1F
100
AcDbEntity
  8
0
  6
Continuous
 62
     7
370
    25
100
AcDbSpline
210
0.0
220
0.0
230
1.0
 70
     8
 71
     3
 72
    19
 73
    15
 74
     0
 42
0.00000001
 43
0.00000001
 40
0.0
 40
0.0
 40
0.0
 40
0.0
 40
0.0785035252242149
 40
0.1626765933322117
 40
0.2499999999999992
 40
0.3373234066677867
 40
0.4214964747757835
 40
0.5
 40
0.578503525224214
 40
0.6626765933322113
 40
0.7499999999999992
 40
0.8373234066677873
 40
0.9214964747757846
 40
1.0
 40
1.0
 40
1.0
 40
1.0
 10
154.408011502062
 20
202.9538083896177
 30
0.0
 10
154.6399284822623
 20
203.1108912990969
 30
0.0
 10
155.1205115410118
 20
203.4364016823796
 30
0.0
 10
155.6706825699958
 20
204.1522710398476
 30
0.0
 10
156.0340333554024
 20
205.006516599275
 30
0.0
 10
156.1491612299944
 20
205.930671683733
 30
0.0
 10
156.0196007187531
 20
206.8190636431306
 30
0.0
 10
155.6824608289303
 20
207.6155938820431
 30
0.0
 10
155.161215352061
 20
208.3058307107151
 30
0.0
 10
154.4566256023255
 20
208.8622293844761
 30
0.0
 10
153.5987198848523
 20
209.2246032626247
 30
0.0
 10
152.6772461366149
 20
209.3370550316912
 30
0.0
 10
151.7821995727647
 20
209.2185276228989
 30
0.0
 10
151.2600077822714
 20
208.9650856770347
 30
0.0
 10
151.008011502062
 20
208.8427811353519
 30
0.0
  0
SPLINE
  5
20A
330
1F
100
AcDbEntity
  8
0
  6
Continuous
 62
     7
370
    25
100
AcDbSpline
210
0.0
220
0.0
230
1.0
 70
    24
 71
     3
 72
     9
 73
     5
 74
     0
 42
0.00000001
 43
0.00000001
 40
0.0
 40
0.0
 40
0.0
 40
0.0
 40
0.5398560076902721
 40
1.0
 40
1.0
 40
1.0
 40
1.0
 10
156.1721131171998
 20
207.8982947624848
 30
0.0
 10
155.9635655682598
 20
208.2595097130428
 30
0.0
 10
155.5772633951448
 20
208.9286047039523
 30
0.0
 10
155.1938417468191
 20
209.5927104795742
 30
0.0
 10
155.0174125788205
 20
209.8982947624848
 30
0.0
  0
SPLINE
  5
20B
330
1F
100
AcDbEntity
  8
0
  6
Continuous
 62
     7
370
    25
100
AcDbSpline
210
0.0
220
0.0
230
1.0
 70
    24
 71
     3
 72
     9
 73
     5
 74
     0
 42
0.00000001
 43
0.00000001
 40
0.0
 40
0.0
 40
0.0
 40
0.0
 40
0.5778119623600679
 40
1.0
 40
1.0
 40
1.0
 40
1.0
 10
155.0174125788205
 20
209.8982947624848
 30
0.0
 10
154.5740477716615
 20
209.8982947624848
 30
0.0
 10
153.8067310041996
 20
209.8982947624848
 30
0.0
 10
153.0341752850832
 20
209.8982947624848
 30
0.0
 10
152.708011502062
 20
209.8982947624848
 30
0.0
  0
SPLINE
  5
20C
330
1F
100
AcDbEntity
  8
0
  6
Continuous
 62
     7
370
    25
100
AcDbSpline
210
0.0
220
0.0
230
1.0
 70
    24
 71
     3
 72
     9
 73
     5
 74
     0
 42
0.00000001
 43
0.00000001
 40
0.0
 40
0.0
 40
0.0
 40
0.0
 40
0.5778119623600688
 40
1.0
 40
1.0
 40
1.0
 40
1.0
 10
148.089209348545
 20
205.8982947624848
 30
0.0
 10
148.3108917521245
 20
205.5143295763412
 30
0.0
 10
148.6945501358555
 20
204.8498137629694
 30
0.0
 10
149.0808279954136
 20
204.1807608843756
 30
0.0
 10
149.2439098869242
 20
203.8982947624848
 30
0.0
  0
SPLINE
  5
20D
330
1F
100
AcDbEntity
  8
0
  6
Continuous
 62
     7
370
    25
100
AcDbSpline
210
0.0
220
0.0
230
1.0
 70
    24
 71
     3
 72
     9
 73
     5
 74
     0
 42
0.00000001
 43
0.00000001
 40
0.0
 40
0.0
 40
0.0
 40
0.0
 40
0.5398560076902675
 40
0.9999999999999999
 40
0.9999999999999999
 40
0.9999999999999999
 40
0.9999999999999999
 10
149.2439098869242
 20
207.8982947624848
 30
0.0
 10
149.0353623379843
 20
207.5370798119269
 30
0.0
 10
148.6490601648693
 20
206.8679848210174
 30
0.0
 10
148.2656385165436
 20
206.2038790453954
 30
0.0
 10
148.089209348545
 20
205.8982947624848
 30
0.0
  0
SPLINE
  5
20E
330
1F
100
AcDbEntity
  8
0
  6
Continuous
 62
     7
370
    25
100
AcDbSpline
210
0.0
220
0.0
230
1.0
 70
    24
 71
     3
 72
     9
 73
     5
 74
     0
 42
0.00000001
 43
0.00000001
 40
0.0
 40
0.0
 40
0.0
 40
0.0
 40
0.5398560076902711
 40
0.9999999999999999
 40
0.9999999999999999
 40
0.9999999999999999
 40
0.9999999999999999
 10
156.1721131171998
 20
203.8982947624848
 30
0.0
 10
156.3806606661397
 20
204.2595097130428
 30
0.0
 10
156.7669628392547
 20
204.9286047039522
 30
0.0
 10
157.1503844875804
 20
205.5927104795742
 30
0.0
 10
157.326813655579
 20
205.8982947624848
 30
0.0
  0
SPLINE
  5
20F
330
1F
100
AcDbEntity
  8
0
  6
Continuous
 62
     7
370
    25
100
AcDbSpline
210
0.0
220
0.0
230
1.0
 70
    24
 71
     3
 72
     9
 73
     5
 74
     0
 42
0.00000001
 43
0.00000001
 40
0.0
 40
0.0
 40
0.0
 40
0.0
 40
0.5778119623600662
 40
1.0
 40
1.0
 40
1.0
 40
1.0
 10
157.326813655579
 20
205.8982947624848
 30
0.0
 10
157.1051312519995
 20
206.2822599486285
 30
0.0
 10
156.7214728682685
 20
206.9467757620003
 30
0.0
 10
156.3351950087104
 20
207.615828640594
 30
0.0
 10
156.1721131171998
 20
207.8982947624848
 30
0.0
  0
SPLINE
  5
210
330
1F
100
AcDbEntity
  8
0
  6
Continuous
 62
     7
370
    25
100
AcDbSpline
210
0.0
220
0.0
230
1.0
 70
    24
 71
     3
 72
     9
 73
     5
 74
     0
 42
0.00000001
 43
0.00000001
 40
0.0
 40
0.0
 40
0.0
 40
0.0
 40
0.5398560076902728
 40
1.0
 40
1.0
 40
1.0
 40
1.0
 10
152.708011502062
 20
201.8982947624848
 30
0.0
 10
153.1251065999419
 20
201.8982947624848
 30
0.0
 10
153.8977109461719
 20
201.8982947624848
 30
0.0
 10
154.6645542428234
 20
201.8982947624848
 30
0.0
 10
155.0174125788205
 20
201.8982947624848
 30
0.0
  0
SPLINE
  5
211
330
1F
100
AcDbEntity
  8
0
  6
Continuous
 62
     7
370
    25
100
AcDbSpline
210
0.0
220
0.0
230
1.0
 70
    24
 71
     3
 72
     9
 73
     5
 74
     0
 42
0.00000001
 43
0.00000001
 40
0.0
 40
0.0
 40
0.0
 40
0.0
 40
0.5778119623600674
 40
1.0
 40
1.0
 40
1.0
 40
1.0
 10
155.0174125788205
 20
201.8982947624848
 30
0.0
 10
155.2390949824
 20
202.2822599486285
 30
0.0
 10
155.622753366131
 20
202.9467757620003
 30
0.0
 10
156.0090312256891
 20
203.615828640594
 30
0.0
 10
156.1721131171998
 20
203.8982947624848
 30
0.0
  0
SPLINE
  5
212
330
1F
100
AcDbEntity
  8
0
  6
Continuous
 62
     7
370
    25
100
AcDbSpline
210
0.0
220
0.0
230
1.0
 70
    24
 71
     3
 72
     9
 73
     5
 74
     0
 42
0.00000001
 43
0.00000001
 40
0.0
 40
0.0
 40
0.0
 40
0.0
 40
0.5778119623600652
 40
1.0
 40
1.0
 40
1.0
 40
1.0
 10
150.3986104253035
 20
201.8982947624848
 30
0.0
 10
150.8419752324625
 20
201.8982947624848
 30
0.0
 10
151.6092919999244
 20
201.8982947624848
 30
0.0
 10
152.3818477190408
 20
201.8982947624848
 30
0.0
 10
152.708011502062
 20
201.8982947624848
 30
0.0
  0
SPLINE
  5
213
330
1F
100
AcDbEntity
  8
0
  6
Continuous
 62
     7
370
    25
100
AcDbSpline
210
0.0
220
0.0
230
1.0
 70
    24
 71
     3
 72
     9
 73
     5
 74
     0
 42
0.00000001
 43
0.00000001
 40
0.0
 40
0.0
 40
0.0
 40
0.0
 40
0.5398560076902701
 40
1.0
 40
1.0
 40
1.0
 40
1.0
 10
149.2439098869242
 20
203.8982947624848
 30
0.0
 10
149.4524574358642
 20
203.5370798119269
 30
0.0
 10
149.8387596089792
 20
202.8679848210174
 30
0.0
 10
150.2221812573049
 20
202.2038790453954
 30
0.0
 10
150.3986104253035
 20
201.8982947624848
 30
0.0
  0
SPLINE
  5
214
330
1F
100
AcDbEntity
  8
0
  6
Continuous
 62
     7
370
    25
100
AcDbSpline
210
0.0
220
0.0
230
1.0
 70
     8
 71
     3
 72
     9
 73
     5
 74
     0
 42
0.00000001
 43
0.00000001
 40
0.0
 40
0.0
 40
0.0
 40
0.0
 40
0.569080499910961
 40
1.0
 40
1.0
 40
1.0
 40
1.0
 10
154.1298455189509
 20
206.4756213997622
 30
0.0
 10
154.0814967820193
 20
206.4090529484572
 30
0.0
 10
153.9965373835878
 20
206.2920774918822
 30
0.0
 10
153.9443951868917
 20
206.157472010975
 30
0.0
 10
153.9219260975579
 20
206.0994678844332
 30
0.0
  0
LINE
  5
215
330
1F
100
AcDbEntity
  8
0
  6
Continuous
 62
     7
370
    25
100
AcDbLine
 10
154.2190223518
 20
206.3211625945
 30
0.0
 11
154.129845519
 21
206.4756213998
 31
0.0
  0
SPLINE
  5
216
330
1F
100
AcDbEntity
  8
0
  6
Continuous
 62
     7
370
    25
100
AcDbSpline
210
0.0
220
0.0
230
1.0
 70
     8
 71
     3
 72
    10
 73
     6
 74
     0
 42
0.00000001
 43
0.00000001
 40
0.0
 40
0.0
 40
0.0
 40
0.0
 40
0.2298180414041955
 40
0.5105092302075602
 40
1.0
 40
1.0
 40
1.0
 40
1.0
 10
154.0318383183708
 20
205.7787589625797
 30
0.0
 10
154.0332840525893
 20
205.8234485840658
 30
0.0
 10
154.0364955526893
 20
205.9227204433322
 30
0.0
 10
154.0925742452743
 20
206.1110435488343
 30
0.0
 10
154.1698864297181
 20
206.2395133445694
 30
0.0
 10
154.2190223517627
 20
206.321162594474
 30
0.0
  0
LINE
  5
217
330
1F
100
AcDbEntity
  8
0
  6
Continuous
 62
     7
370
    25
100
AcDbLine
 10
153.9288657815
 20
205.7193077407
 30
0.0
 11
154.0318383184
 21
205.7787589626
 31
0.0
  0
LINE
  5
218
330
1F
100
AcDbEntity
  8
0
  6
Continuous
 62
     7
370
    25
100
AcDbLine
 10
153.1760075199
 20
207.0232965007
 30
0.0
 11
153.9288657815
 21
205.7193077407
 31
0.0
  0
LINE
  5
219
330
1F
100
AcDbEntity
  8
0
  6
Continuous
 62
     7
370
    25
100
AcDbLine
 10
153.3354169279
 20
207.1153315654
 30
0.0
 11
153.1760075199
 21
207.0232965007
 31
0.0
  0
LINE
  5
21A
330
1F
100
AcDbEntity
  8
0
  6
Continuous
 62
     7
370
    25
100
AcDbLine
 10
153.9219260976
 20
206.0994678844
 30
0.0
 11
153.3354169279
 21
207.1153315654
 31
0.0
  0
SPLINE
  5
21B
330
1F
100
AcDbEntity
  8
0
  6
Continuous
 62
     7
370
    25
100
AcDbSpline
210
0.0
220
0.0
230
1.0
 70
     8
 71
     3
 72
    12
 73
     8
 74
     0
 42
0.00000001
 43
0.00000001
 40
0.0
 40
0.0
 40
0.0
 40
0.0
 40
0.1194719429101263
 40
0.2419269204089505
 40
0.3852845301339702
 40
0.633374055169426
 40
1.0
 40
1.0
 40
1.0
 40
1.0
 10
152.4061972401575
 20
206.4336286483212
 30
0.0
 10
152.4342345686931
 20
206.4461100840388
 30
0.0
 10
152.491009275657
 20
206.4713845981372
 30
0.0
 10
152.5914543048631
 20
206.4620591209753
 30
0.0
 10
152.7132239448023
 20
206.4106086921782
 30
0.0
 10
152.8436652893897
 20
206.2629050513091
 30
0.0
 10
152.9244197151982
 20
206.1306088130319
 30
0.0
 10
152.9725829209619
 20
206.0517052621477
 30
0.0
  0
SPLINE
  5
21C
330
1F
100
AcDbEntity
  8
0
  6
Continuous
 62
     7
370
    25
100
AcDbSpline
210
0.0
220
0.0
230
1.0
 70
     8
 71
     3
 72
    12
 73
     8
 74
     0
 42
0.00000001
 43
0.00000001
 40
0.0
 40
0.0
 40
0.0
 40
0.0
 40
0.3189556322940093
 40
0.551572104651438
 40
0.7113715777570401
 40
0.8604355822665908
 40
0.9999999999999999
 40
0.9999999999999999
 40
0.9999999999999999
 40
0.9999999999999999
 10
152.4547498750276
 20
205.7527342136823
 30
0.0
 10
152.4161850738669
 20
205.8232915402019
 30
0.0
 10
152.3494947057153
 20
205.9453067960765
 30
0.0
 10
152.284531537546
 20
206.1154997898668
 30
0.0
 10
152.2808375671886
 20
206.253778944577
 30
0.0
 10
152.3188126120139
 20
206.3664933666395
 30
0.0
 10
152.377715248851
 20
206.411746693224
 30
0.0
 10
152.4061972401575
 20
206.4336286483212
 30
0.0
  0
SPLINE
  5
21D
330
1F
100
AcDbEntity
  8
0
  6
Continuous
 62
     7
370
    25
100
AcDbSpline
210
0.0
220
0.0
230
1.0
 70
     8
 71
     3
 72
    10
 73
     6
 74
     0
 42
0.00000001
 43
0.00000001
 40
0.0
 40
0.0
 40
0.0
 40
0.0
 40
0.2919261392676127
 40
0.5635127627568413
 40
1.0
 40
1.0
 40
1.0
 40
1.0
 10
153.1436422549153
 20
205.5656352117242
 30
0.0
 10
153.1401525317176
 20
205.5426840288767
 30
0.0
 10
153.1334162265504
 20
205.4983807524131
 30
0.0
 10
153.0967306612932
 20
205.4256166982202
 30
0.0
 10
153.0505768650549
 20
205.3920651152725
 30
0.0
 10
153.0221256763787
 20
205.3713824738729
 30
0.0
  0
SPLINE
  5
21E
330
1F
100
AcDbEntity
  8
0
  6
Continuous
 62
     7
370
    25
100
AcDbSpline
210
0.0
220
0.0
230
1.0
 70
     8
 71
     3
 72
    10
 73
     6
 74
     0
 42
0.00000001
 43
0.00000001
 40
0.0
 40
0.0
 40
0.0
 40
0.0
 40
0.6567497629929497
 40
0.8451424227901699
 40
0.9999999999999999
 40
0.9999999999999999
 40
0.9999999999999999
 40
0.9999999999999999
 10
152.9725829209619
 20
206.0517052621477
 30
0.0
 10
153.0271442977372
 20
205.951064363709
 30
0.0
 10
153.0973569369447
 20
205.8215540120789
 30
0.0
 10
153.143110672864
 20
205.6524207600569
 30
0.0
 10
153.1434769904762
 20
205.5926161169982
 30
0.0
 10
153.1436422549153
 20
205.5656352117242
 30
0.0
  0
SPLINE
  5
21F
330
1F
100
AcDbEntity
  8
0
  6
Continuous
 62
     7
370
    25
100
AcDbSpline
210
0.0
220
0.0
230
1.0
 70
     8
 71
     3
 72
    12
 73
     8
 74
     0
 42
0.00000001
 43
0.00000001
 40
0.0
 40
0.0
 40
0.0
 40
0.0
 40
0.1644820175587973
 40
0.316087586418736
 40
0.4763353976125843
 40
0.7011919144233006
 40
1.0
 40
1.0
 40
1.0
 40
1.0
 10
152.3307399200859
 20
206.5643245604881
 30
0.0
 10
152.283926395364
 20
206.5321731895756
 30
0.0
 10
152.1939641352901
 20
206.4703874127312
 30
0.0
 10
152.118085400845
 20
206.3198731188771
 30
0.0
 10
152.1014364324793
 20
206.1350844016521
 30
0.0
 10
152.1568820585001
 20
205.9047539528545
 30
0.0
 10
152.2418858684118
 20
205.7475455512657
 30
0.0
 10
152.2903898642722
 20
205.6578409172286
 30
0.0
  0
SPLINE
  5
220
330
1F
100
AcDbEntity
  8
0
  6
Continuous
 62
     7
370
    25
100
AcDbSpline
210
0.0
220
0.0
230
1.0
 70
     8
 71
     3
 72
    10
 73
     6
 74
     0
 42
0.00000001
 43
0.00000001
 40
0.0
 40
0.0
 40
0.0
 40
0.0
 40
0.2761144361987165
 40
0.5455083397130146
 40
1.0
 40
1.0
 40
1.0
 40
1.0
 10
152.7029681021724
 20
206.6010089032062
 30
0.0
 10
152.6688895641001
 20
206.6116561794483
 30
0.0
 10
152.6015619481319
 20
206.632691580803
 30
0.0
 10
152.4697089909211
 20
206.6296355891198
 30
0.0
 10
152.3843392959405
 20
206.5895145567228
 30
0.0
 10
152.3307399200859
 20
206.5643245604881
 30
0.0
  0
SPLINE
  5
221
330
1F
100
AcDbEntity
  8
0
  6
Continuous
 62
     7
370
    25
100
AcDbSpline
210
0.0
220
0.0
230
1.0
 70
     8
 71
     3
 72
     9
 73
     5
 74
     0
 42
0.00000001
 43
0.00000001
 40
0.0
 40
0.0
 40
0.0
 40
0.0
 40
0.6316065132316522
 40
1.0
 40
1.0
 40
1.0
 40
1.0
 10
153.1369429317172
 20
206.1465985586013
 30
0.0
 10
153.0666597671607
 20
206.2642709923873
 30
0.0
 10
152.9553829467288
 20
206.4505775476884
 30
0.0
 10
152.7709222291084
 20
206.5605103681617
 30
0.0
 10
152.7029681021724
 20
206.6010089032062
 30
0.0
  0
SPLINE
  5
222
330
1F
100
AcDbEntity
  8
0
  6
Continuous
 62
     7
370
    25
100
AcDbSpline
210
0.0
220
0.0
230
1.0
 70
     8
 71
     3
 72
    12
 73
     8
 74
     0
 42
0.00000001
 43
0.00000001
 40
0.0
 40
0.0
 40
0.0
 40
0.0
 40
0.16481542270071
 40
0.3155823586924696
 40
0.4751090844167877
 40
0.6998460527381948
 40
1.0
 40
1.0
 40
1.0
 40
1.0
 10
153.096174401721
 20
205.2385531484309
 30
0.0
 10
153.1432464198535
 20
205.2707451128947
 30
0.0
 10
153.2333781458003
 20
205.3323850729783
 30
0.0
 10
153.3096330725845
 20
205.4826390149931
 30
0.0
 10
153.3262061040161
 20
205.6672587668085
 30
0.0
 10
153.2712947718736
 20
205.898387375411
 30
0.0
 10
153.1858205588147
 20
206.0562985400881
 30
0.0
 10
153.1369429317172
 20
206.1465985586013
 30
0.0
  0
SPLINE
  5
223
330
1F
100
AcDbEntity
  8
0
  6
Continuous
 62
     7
370
    25
100
AcDbSpline
210
0.0
220
0.0
230
1.0
 70
     8
 71
     3
 72
    12
 73
     8
 74
     0
 42
0.00000001
 43
0.00000001
 40
0.0
 40
0.0
 40
0.0
 40
0.0
 40
0.2764954345015497
 40
0.4721937840823145
 40
0.6353320315828614
 40
0.8112872334423376
 40
1.0
 40
1.0
 40
1.0
 40
1.0
 10
152.2903898642722
 20
205.6578409172286
 30
0.0
 10
152.3390895859772
 20
205.5767929495054
 30
0.0
 10
152.4222580690918
 20
205.4383807307271
 30
0.0
 10
152.5779241311974
 20
205.2850433356284
 30
0.0
 10
152.734114818982
 20
205.1878903411715
 30
0.0
 10
152.9213899500346
 20
205.1590246767283
 30
0.0
 10
153.0365697654474
 20
205.2114325116494
 30
0.0
 10
153.096174401721
 20
205.2385531484309
 30
0.0
  0
SPLINE
  5
224
330
1F
100
AcDbEntity
  8
0
  6
Continuous
 62
     7
370
    25
100
AcDbSpline
210
0.0
220
0.0
230
1.0
 70
     8
 71
     3
 72
    12
 73
     8
 74
     0
 42
0.00000001
 43
0.00000001
 40
0.0
 40
0.0
 40
0.0
 40
0.0
 40
0.1202056296560068
 40
0.2429066195475246
 40
0.3861263041295134
 40
0.6338761023791976
 40
1.0
 40
1.0
 40
1.0
 40
1.0
 10
153.0221256763787
 20
205.3713824738729
 30
0.0
 10
152.9938974208524
 20
205.3587719146694
 30
0.0
 10
152.9368549167265
 20
205.3332890124501
 30
0.0
 10
152.8360272637134
 20
205.3423214422958
 30
0.0
 10
152.7141077062222
 20
205.3938232469643
 30
0.0
 10
152.5836728084751
 20
205.541532600614
 30
0.0
 10
152.5029150615546
 20
205.6738299813924
 30
0.0
 10
152.4547498750276
 20
205.7527342136823
 30
0.0
  0
SPLINE
  5
225
330
1F
100
AcDbEntity
  8
0
  6
Continuous
 62
     7
370
    25
100
AcDbSpline
210
0.0
220
0.0
230
1.0
 70
     8
 71
     3
 72
    12
 73
     8
 74
     0
 42
0.00000001
 43
0.00000001
 40
0.0
 40
0.0
 40
0.0
 40
0.0
 40
0.1194719429101225
 40
0.241926920408945
 40
0.3852845301339661
 40
0.6333740551694228
 40
1.0
 40
1.0
 40
1.0
 40
1.0
 10
151.3972644030505
 20
205.8511210032232
 30
0.0
 10
151.4253017315861
 20
205.8636024389408
 30
0.0
 10
151.48207643855
 20
205.8888769530392
 30
0.0
 10
151.582521467756
 20
205.8795514758773
 30
0.0
 10
151.7042911076952
 20
205.8281010470802
 30
0.0
 10
151.8347324522827
 20
205.6803974062111
 30
0.0
 10
151.9154868780911
 20
205.5481011679339
 30
0.0
 10
151.9636500838548
 20
205.4691976170496
 30
0.0
  0
SPLINE
  5
226
330
1F
100
AcDbEntity
  8
0
  6
Continuous
 62
     7
370
    25
100
AcDbSpline
210
0.0
220
0.0
230
1.0
 70
     8
 71
     3
 72
    10
 73
     6
 74
     0
 42
0.00000001
 43
0.00000001
 40
0.0
 40
0.0
 40
0.0
 40
0.0
 40
0.2919261392676117
 40
0.5635127627568425
 40
1.0
 40
1.0
 40
1.0
 40
1.0
 10
152.1347094178082
 20
204.9831275666262
 30
0.0
 10
152.1312196946106
 20
204.9601763837787
 30
0.0
 10
152.1244833894434
 20
204.915873107315
 30
0.0
 10
152.0877978241862
 20
204.8431090531222
 30
0.0
 10
152.0416440279479
 20
204.8095574701745
 30
0.0
 10
152.0131928392717
 20
204.7888748287749
 30
0.0
  0
SPLINE
  5
227
330
1F
100
AcDbEntity
  8
0
  6
Continuous
 62
     7
370
    25
100
AcDbSpline
210
0.0
220
0.0
230
1.0
 70
     8
 71
     3
 72
    12
 73
     8
 74
     0
 42
0.00000001
 43
0.00000001
 40
0.0
 40
0.0
 40
0.0
 40
0.0
 40
0.1202056296560075
 40
0.2429066195475268
 40
0.3861263041295135
 40
0.6338761023791961
 40
1.0
 40
1.0
 40
1.0
 40
1.0
 10
152.0131928392717
 20
204.7888748287749
 30
0.0
 10
151.9849645837454
 20
204.7762642695714
 30
0.0
 10
151.9279220796195
 20
204.7507813673521
 30
0.0
 10
151.8270944266064
 20
204.7598137971978
 30
0.0
 10
151.7051748691152
 20
204.8113156018664
 30
0.0
 10
151.5747399713681
 20
204.959024955516
 30
0.0
 10
151.4939822244476
 20
205.0913223362944
 30
0.0
 10
151.4458170379206
 20
205.1702265685843
 30
0.0
  0
SPLINE
  5
228
330
1F
100
AcDbEntity
  8
0
  6
Continuous
 62
     7
370
    25
100
AcDbSpline
210
0.0
220
0.0
230
1.0
 70
     8
 71
     3
 72
    10
 73
     6
 74
     0
 42
0.00000001
 43
0.00000001
 40
0.0
 40
0.0
 40
0.0
 40
0.0
 40
0.6567497629929494
 40
0.8451424227901695
 40
0.9999999999999999
 40
0.9999999999999999
 40
0.9999999999999999
 40
0.9999999999999999
 10
151.9636500838548
 20
205.4691976170496
 30
0.0
 10
152.0182114606302
 20
205.368556718611
 30
0.0
 10
152.0884240998377
 20
205.2390463669809
 30
0.0
 10
152.134177835757
 20
205.0699131149589
 30
0.0
 10
152.1345441533691
 20
205.0101084719002
 30
0.0
 10
152.1347094178082
 20
204.9831275666262
 30
0.0
  0
SPLINE
  5
229
330
1F
100
AcDbEntity
  8
0
  6
Continuous
 62
     7
370
    25
100
AcDbSpline
210
0.0
220
0.0
230
1.0
 70
     8
 71
     3
 72
     9
 73
     5
 74
     0
 42
0.00000001
 43
0.00000001
 40
0.0
 40
0.0
 40
0.0
 40
0.0
 40
0.631606513231653
 40
1.0
 40
1.0
 40
1.0
 40
1.0
 10
152.1280100946102
 20
205.5640909135033
 30
0.0
 10
152.0577269300537
 20
205.6817633472893
 30
0.0
 10
151.9464501096217
 20
205.8680699025904
 30
0.0
 10
151.7619893920013
 20
205.9780027230638
 30
0.0
 10
151.6940352650654
 20
206.0185012581082
 30
0.0
  0
SPLINE
  5
22A
330
1F
100
AcDbEntity
  8
0
  6
Continuous
 62
     7
370
    25
100
AcDbSpline
210
0.0
220
0.0
230
1.0
 70
     8
 71
     3
 72
    10
 73
     6
 74
     0
 42
0.00000001
 43
0.00000001
 40
0.0
 40
0.0
 40
0.0
 40
0.0
 40
0.2761144361987208
 40
0.5455083397130206
 40
1.0
 40
1.0
 40
1.0
 40
1.0
 10
151.6940352650654
 20
206.0185012581082
 30
0.0
 10
151.6599567269931
 20
206.0291485343503
 30
0.0
 10
151.5926291110249
 20
206.050183935705
 30
0.0
 10
151.4607761538141
 20
206.0471279440218
 30
0.0
 10
151.3754064588335
 20
206.0070069116248
 30
0.0
 10
151.3218070829789
 20
205.9818169153901
 30
0.0
  0
SPLINE
  5
22B
330
1F
100
AcDbEntity
  8
0
  6
Continuous
 62
     7
370
    25
100
AcDbSpline
210
0.0
220
0.0
230
1.0
 70
     8
 71
     3
 72
    12
 73
     8
 74
     0
 42
0.00000001
 43
0.00000001
 40
0.0
 40
0.0
 40
0.0
 40
0.0
 40
0.1644820175588031
 40
0.3160875864187383
 40
0.4763353976125864
 40
0.7011919144233021
 40
1.0
 40
1.0
 40
1.0
 40
1.0
 10
151.3218070829789
 20
205.9818169153901
 30
0.0
 10
151.274993558257
 20
205.9496655444776
 30
0.0
 10
151.1850312981831
 20
205.8878797676332
 30
0.0
 10
151.109152563738
 20
205.7373654737791
 30
0.0
 10
151.0925035953722
 20
205.5525767565541
 30
0.0
 10
151.1479492213931
 20
205.3222463077565
 30
0.0
 10
151.2329530313048
 20
205.1650379061677
 30
0.0
 10
151.2814570271652
 20
205.0753332721306
 30
0.0
  0
SPLINE
  5
22C
330
1F
100
AcDbEntity
  8
0
  6
Continuous
 62
     7
370
    25
100
AcDbSpline
210
0.0
220
0.0
230
1.0
 70
     8
 71
     3
 72
    12
 73
     8
 74
     0
 42
0.00000001
 43
0.00000001
 40
0.0
 40
0.0
 40
0.0
 40
0.0
 40
0.1648154227007073
 40
0.3155823586924672
 40
0.4751090844167854
 40
0.6998460527381933
 40
1.0
 40
1.0
 40
1.0
 40
1.0
 10
152.087241564614
 20
204.6560455033329
 30
0.0
 10
152.1343135827465
 20
204.6882374677967
 30
0.0
 10
152.2244453086933
 20
204.7498774278803
 30
0.0
 10
152.3007002354774
 20
204.9001313698951
 30
0.0
 10
152.317273266909
 20
205.0847511217105
 30
0.0
 10
152.2623619347665
 20
205.315879730313
 30
0.0
 10
152.1768877217077
 20
205.4737908949901
 30
0.0
 10
152.1280100946102
 20
205.5640909135033
 30
0.0
  0
SPLINE
  5
22D
330
1F
100
AcDbEntity
  8
0
  6
Continuous
 62
     7
370
    25
100
AcDbSpline
210
0.0
220
0.0
230
1.0
 70
     8
 71
     3
 72
    12
 73
     8
 74
     0
 42
0.00000001
 43
0.00000001
 40
0.0
 40
0.0
 40
0.0
 40
0.0
 40
0.2764954345015493
 40
0.4721937840823133
 40
0.6353320315828596
 40
0.8112872334423309
 40
1.0
 40
1.0
 40
1.0
 40
1.0
 10
151.2814570271652
 20
205.0753332721306
 30
0.0
 10
151.3301567488702
 20
204.9942853044074
 30
0.0
 10
151.4133252319848
 20
204.8558730856291
 30
0.0
 10
151.5689912940904
 20
204.7025356905303
 30
0.0
 10
151.725181981875
 20
204.6053826960735
 30
0.0
 10
151.9124571129276
 20
204.5765170316303
 30
0.0
 10
152.0276369283404
 20
204.6289248665515
 30
0.0
 10
152.087241564614
 20
204.6560455033329
 30
0.0
  0
SPLINE
  5
22E
330
1F
100
AcDbEntity
  8
0
  6
Continuous
 62
     7
370
    25
100
AcDbSpline
210
0.0
220
0.0
230
1.0
 70
     8
 71
     3
 72
    12
 73
     8
 74
     0
 42
0.00000001
 43
0.00000001
 40
0.0
 40
0.0
 40
0.0
 40
0.0
 40
0.3189556322940068
 40
0.5515721046514325
 40
0.7113715777570305
 40
0.8604355822665841
 40
1.0
 40
1.0
 40
1.0
 40
1.0
 10
151.4458170379206
 20
205.1702265685843
 30
0.0
 10
151.4072522367599
 20
205.2407838951039
 30
0.0
 10
151.3405618686083
 20
205.3627991509785
 30
0.0
 10
151.2755987004389
 20
205.5329921447688
 30
0.0
 10
151.2719047300816
 20
205.671271299479
 30
0.0
 10
151.3098797749068
 20
205.7839857215415
 30
0.0
 10
151.368782411744
 20
205.8292390481261
 30
0.0
 10
151.3972644030505
 20
205.8511210032232
 30
0.0
  0
SPLINE
  5
22F
330
1F
100
AcDbEntity
  8
0
  6
Continuous
 62
     7
370
    25
100
AcDbSpline
210
0.0
220
0.0
230
1.0
 70
     8
 71
     3
 72
    19
 73
    15
 74
     0
 42
0.00000001
 43
0.00000001
 40
0.0
 40
0.0
 40
0.0
 40
0.0
 40
0.305734617847582
 40
0.5020581146560376
 40
0.7745380345683146
 40
0.8930060660155074
 40
0.9479520738934574
 40
0.9745161477737385
 40
0.9936176329445062
 40
0.9983977216310425
 40
0.9995957643931777
 40
0.9998969061304491
 40
0.9999730877037446
 40
1.0
 40
1.0
 40
1.0
 40
1.0
 10
155.1810877134153
 20
210.1817884115387
 30
0.0
 10
155.1525287380212
 20
210.1325980118829
 30
0.0
 10
155.1056309891049
 20
210.051820638734
 30
0.0
 10
155.0502495455393
 20
209.9549064866611
 30
0.0
 10
155.0234768738948
 20
209.9091169616725
 30
0.0
 10
155.0183145267928
 20
209.8996739601429
 30
0.0
 10
155.0175797535892
 20
209.898495014292
 30
0.0
 10
155.0174399455344
 20
209.8983174651171
 30
0.0
 10
155.0174158764146
 20
209.8982970432959
 30
0.0
 10
155.0174388818959
 20
209.8982498915352
 30
0.0
 10
155.0174438761267
 20
209.8982406471243
 30
0.0
 10
155.0174516577644
 20
209.8982270944272
 30
0.0
 10
155.0174525635989
 20
209.8982255107489
 30
0.0
 10
155.0174550885951
 20
209.8982211342093
 30
0.0
 10
155.0174557477366
 20
209.8982199917288
 30
0.0
  0
SPLINE
  5
230
330
1F
100
AcDbEntity
  8
0
  6
Continuous
 62
     7
370
    25
100
AcDbSpline
210
0.0
220
0.0
230
1.0
 70
     8
 71
     3
 72
    11
 73
     7
 74
     0
 42
0.00000001
 43
0.00000001
 40
0.0
 40
0.0
 40
0.0
 40
0.0
 40
0.2256175012924757
 40
0.498031176605111
 40
0.6941334434903592
 40
1.0
 40
1.0
 40
1.0
 40
1.0
 10
150.3986104243958
 20
209.898294763009
 30
0.0
 10
150.3982754429708
 20
209.8989061817328
 30
0.0
 10
150.3975360003642
 20
209.9002558358361
 30
0.0
 10
150.3656947694136
 20
209.955045347646
 30
0.0
 10
150.3104109979192
 20
210.0517701653529
 30
0.0
 10
150.263512269681
 20
210.1325602714578
 30
0.0
 10
150.2349352907087
 20
210.1817884115387
 30
0.0
  0
SPLINE
  5
231
330
1F
100
AcDbEntity
  8
0
  6
Continuous
 62
     7
370
    25
100
AcDbSpline
210
0.0
220
0.0
230
1.0
 70
     8
 71
     3
 72
    19
 73
    15
 74
     0
 42
0.00000001
 43
0.00000001
 40
0.0
 40
0.0
 40
0.0
 40
0.0
 40
0.305735968660748
 40
0.5020571786944118
 40
0.7745366675474002
 40
0.893004477118003
 40
0.9479503587064106
 40
0.9745143684626821
 40
0.9936172609936503
 40
0.9983976693773572
 40
0.9995957746644547
 40
0.9998969224440115
 40
0.9999730998975733
 40
1.0
 40
1.0
 40
1.0
 40
1.0
 10
147.7618590793554
 20
205.8982947624848
 30
0.0
 10
147.8187391343322
 20
205.8981571101147
 30
0.0
 10
147.9121433878479
 20
205.8979310674909
 30
0.0
 10
148.0237639497966
 20
205.8984265664811
 30
0.0
 10
148.0768055076071
 20
205.898135200644
 30
0.0
 10
148.0875641666327
 20
205.8983861415326
 30
0.0
 10
148.0889524124474
 20
205.8983393871845
 30
0.0
 10
148.0891760163318
 20
205.8983070824943
 30
0.0
 10
148.0892057495815
 20
205.8982965064701
 30
0.0
 10
148.0892349828829
 20
205.8983398464393
 30
0.0
 10
148.0892404671386
 20
205.8983487538322
 30
0.0
 10
148.0892482761526
 20
205.8983622055361
 30
0.0
 10
148.0892491886337
 20
205.8983637714299
 30
0.0
 10
148.0892517034943
 20
205.8983681242135
 30
0.0
 10
148.0892523597963
 20
205.8983692601574
 30
0.0
  0
SPLINE
  5
232
330
1F
100
AcDbEntity
  8
0
  6
Continuous
 62
     7
370
    25
100
AcDbSpline
210
0.0
220
0.0
230
1.0
 70
     8
 71
     3
 72
    19
 73
    15
 74
     0
 42
0.00000001
 43
0.00000001
 40
0.0
 40
0.0
 40
0.0
 40
0.0
 40
0.3057358733432871
 40
0.502057109799269
 40
0.7745366138409907
 40
0.893004451064352
 40
0.9479503447689228
 40
0.9745143604530669
 40
0.9936172590808313
 40
0.9983976689481739
 40
0.9995957745852021
 40
0.9998969224407289
 40
0.9999730999065325
 40
1.0
 40
1.0
 40
1.0
 40
1.0
 10
155.1810877134153
 20
201.6148011134309
 30
0.0
 10
155.1527669040262
 20
201.6641294963419
 30
0.0
 10
155.106260540368
 20
201.7451329621261
 30
0.0
 10
155.0500211460305
 20
201.8415514615578
 30
0.0
 10
155.023752687493
 20
201.887632495587
 30
0.0
 10
155.0181560336936
 20
201.8968243027319
 30
0.0
 10
155.0175024007867
 20
201.8980499367846
 30
0.0
 10
155.0174185755154
 20
201.8982597359148
 30
0.0
 10
155.0174128679172
 20
201.8982907736958
 30
0.0
 10
155.0173607179647
 20
201.8982944204953
 30
0.0
 10
155.0173502618621
 20
201.8982947163037
 30
0.0
 10
155.0173347079249
 20
201.8982947532563
 30
0.0
 10
155.0173328955948
 20
201.8982947605412
 30
0.0
 10
155.0173278685738
 20
201.8982947620826
 30
0.0
 10
155.0173265566749
 20
201.8982947624848
 30
0.0
  0
SPLINE
  5
233
330
1F
100
AcDbEntity
  8
0
  6
Continuous
 62
     7
370
    25
100
AcDbSpline
210
0.0
220
0.0
230
1.0
 70
     8
 71
     3
 72
    19
 73
    15
 74
     0
 42
0.00000001
 43
0.00000001
 40
0.0
 40
0.0
 40
0.0
 40
0.0
 40
0.3057360504268158
 40
0.5020571787530791
 40
0.7745366675738729
 40
0.8930044771280493
 40
0.9479503587109336
 40
0.974514368464875
 40
0.9936172609942087
 40
0.9983976693774896
 40
0.9995957746644898
 40
0.9998969224440227
 40
0.9999730998975868
 40
1.0
 40
1.0
 40
1.0
 40
1.0
 10
157.6541639247686
 20
205.8982947624848
 30
0.0
 10
157.597283854753
 20
205.8984324166406
 30
0.0
 10
157.5038796015107
 20
205.8986584621364
 30
0.0
 10
157.3922590468783
 20
205.8981629569995
 30
0.0
 10
157.3392174965022
 20
205.8984543245198
 30
0.0
 10
157.3284588374895
 20
205.8982033834226
 30
0.0
 10
157.3270705916764
 20
205.8982501377864
 30
0.0
 10
157.3268469877921
 20
205.8982824424752
 30
0.0
 10
157.3268172545424
 20
205.8982930184995
 30
0.0
 10
157.3267880212411
 20
205.8982496785303
 30
0.0
 10
157.3267825369854
 20
205.8982407711375
 30
0.0
 10
157.3267747279714
 20
205.8982273194336
 30
0.0
 10
157.3267738154903
 20
205.8982257535397
 30
0.0
 10
157.3267713006297
 20
205.8982214007561
 30
0.0
 10
157.3267706443276
 20
205.8982202648122
 30
0.0
  0
SPLINE
  5
234
330
1F
100
AcDbEntity
  8
0
  6
Continuous
 62
     7
370
    25
100
AcDbSpline
210
0.0
220
0.0
230
1.0
 70
     8
 71
     3
 72
    19
 73
    15
 74
     0
 42
0.00000001
 43
0.00000001
 40
0.0
 40
0.0
 40
0.0
 40
0.0
 40
0.3057346352433624
 40
0.5020581146322088
 40
0.7745380345574963
 40
0.8930060660102506
 40
0.9479520738908762
 40
0.9745161477724572
 40
0.9936176329441117
 40
0.998397721630903
 40
0.9995957643931304
 40
0.9998969061304235
 40
0.9999730877037264
 40
1.0
 40
1.0
 40
1.0
 40
1.0
 10
150.2349352907087
 20
201.6148011134309
 30
0.0
 10
150.2634942680315
 20
201.6639915156677
 30
0.0
 10
150.3103920174445
 20
201.7447688884548
 30
0.0
 10
150.3657734590993
 20
201.8416830398334
 30
0.0
 10
150.3925461302653
 20
201.887472563277
 30
0.0
 10
150.3977084773286
 20
201.8969155648284
 30
0.0
 10
150.398443250535
 20
201.8980945106775
 30
0.0
 10
150.3985830585895
 20
201.8982720598527
 30
0.0
 10
150.3986071277095
 20
201.8982924816736
 30
0.0
 10
150.3985841222281
 20
201.8983396334343
 30
0.0
 10
150.3985791279973
 20
201.8983488778453
 30
0.0
 10
150.3985713463596
 20
201.8983624305424
 30
0.0
 10
150.3985704405251
 20
201.8983640142207
 30
0.0
 10
150.3985679155289
 20
201.8983683907604
 30
0.0
 10
150.3985672563874
 20
201.8983695332408
 30
0.0
  0
SPLINE
  5
235
330
1F
100
AcDbEntity
  8
0
  6
Continuous
 62
     7
370
    25
100
AcDbSpline
210
0.0
220
0.0
230
1.0
 70
     8
 71
     3
 72
    23
 73
    19
 74
     0
 42
0.00000001
 43
0.00000001
 40
0.0
 40
0.0
 40
0.0
 40
0.0
 40
0.0582580162109017
 40
0.1200056648645963
 40
0.1843204068813871
 40
0.2499999999999992
 40
0.3156795931186112
 40
0.3799943351354022
 40
0.4417419837890968
 40
0.5
 40
0.5582580162109005
 40
0.6200056648645955
 40
0.6843204068813868
 40
0.7499999999999992
 40
0.8156795931186116
 40
0.8799943351354028
 40
0.9417419837890979
 40
1.0
 40
1.0
 40
1.0
 40
1.0
 10
156.083011502062
 20
200.0526232869398
 30
0.0
 10
156.4285991425806
 20
200.2774348551712
 30
0.0
 10
157.1404749884606
 20
200.7405241168652
 30
0.0
 10
158.0421880004844
 20
201.6947725325203
 30
0.0
 10
158.7784707409534
 20
202.8389285214885
 30
0.0
 10
159.2743425836067
 20
204.1390226267742
 30
0.0
 10
159.4941494905351
 20
205.5120693655635
 30
0.0
 10
159.4319769846692
 20
206.8731241201492
 30
0.0
 10
159.1161879675232
 20
208.1434298482801
 30
0.0
 10
158.5863870552781
 20
209.2921764705318
 30
0.0
 10
157.856443754019
 20
210.3253708306101
 30
0.0
 10
156.9142212314578
 20
211.2340050057601
 30
0.0
 10
155.766599490978
 20
211.9683753525498
 30
0.0
 10
154.4676026811389
 20
212.4645403566171
 30
0.0
 10
153.0937522373244
 20
212.6851497965009
 30
0.0
 10
151.7347427147514
 20
212.6195882333708
 30
0.0
 10
150.457482839261
 20
212.3158060658628
 30
0.0
 10
149.7004978514743
 20
211.9308481298372
 30
0.0
 10
149.333011502062
 20
211.7439662380298
 30
0.0
  0
SPLINE
  5
236
330
1F
100
AcDbEntity
  8
0
  6
Continuous
 62
     7
370
    25
100
AcDbSpline
210
0.0
220
0.0
230
1.0
 70
     8
 71
     3
 72
    23
 73
    19
 74
     0
 42
0.00000001
 43
0.00000001
 40
0.0
 40
0.0
 40
0.0
 40
0.0
 40
0.058258016210902
 40
0.1200056648645968
 40
0.1843204068813881
 40
0.2500000000000002
 40
0.3156795931186124
 40
0.3799943351354034
 40
0.4417419837890981
 40
0.5
 40
0.558258016210902
 40
0.6200056648645967
 40
0.6843204068813877
 40
0.7500000000000001
 40
0.8156795931186123
 40
0.8799943351354031
 40
0.9417419837890979
 40
1.0
 40
1.0
 40
1.0
 40
1.0
 10
149.333011502062
 20
211.7439662380298
 30
0.0
 10
148.9874238615434
 20
211.5191546697984
 30
0.0
 10
148.2755480156634
 20
211.0560654081044
 30
0.0
 10
147.3738350036396
 20
210.1018169924493
 30
0.0
 10
146.6375522631706
 20
208.9576610034812
 30
0.0
 10
146.1416804205173
 20
207.6575668981954
 30
0.0
 10
145.9218735135889
 20
206.2845201594062
 30
0.0
 10
145.9840460194548
 20
204.9234654048205
 30
0.0
 10
146.2998350366008
 20
203.6531596766896
 30
0.0
 10
146.8296359488459
 20
202.5044130544378
 30
0.0
 10
147.559579250105
 20
201.4712186943595
 30
0.0
 10
148.5018017726662
 20
200.5625845192095
 30
0.0
 10
149.649423513146
 20
199.8282141724198
 30
0.0
 10
150.9484203229852
 20
199.3320491683525
 30
0.0
 10
152.3222707667996
 20
199.1114397284687
 30
0.0
 10
153.6812802893726
 20
199.1770012915989
 30
0.0
 10
154.958540164863
 20
199.4807834591068
 30
0.0
 10
155.7155251526497
 20
199.8657413951325
 30
0.0
 10
156.083011502062
 20
200.0526232869398
 30
0.0
  0
SPLINE
  5
237
330
1F
100
AcDbEntity
  8
0
  6
Continuous
 62
     7
370
    25
100
AcDbSpline
210
0.0
220
0.0
230
1.0
 70
     8
 71
     3
 72
    11
 73
     7
 74
     0
 42
0.00000001
 43
0.00000001
 40
0.0
 40
0.0
 40
0.0
 40
0.0
 40
0.2495476897152794
 40
0.5042081491783665
 40
0.751800497191816
 40
1.0
 40
1.0
 40
1.0
 40
1.0
 10
54.26466030801228
 20
210.604177115426
 30
0.0
 10
54.20669832558677
 20
210.7129247783378
 30
0.0
 10
54.08958682712
 20
210.9326481422638
 30
0.0
 10
53.95038615688389
 20
211.1862025812526
 30
0.0
 10
53.85121772616012
 20
211.3639912246933
 30
0.0
 10
53.83835444388153
 20
211.3868509184363
 30
0.0
 10
53.83191492644949
 20
211.3982947624848
 30
0.0
  0
SPLINE
  5
238
330
1F
100
AcDbEntity
  8
0
  6
Continuous
 62
     7
370
    25
100
AcDbSpline
210
0.0
220
0.0
230
1.0
 70
     8
 71
     3
 72
    15
 73
    11
 74
     0
 42
0.00000001
 43
0.00000001
 40
0.0
 40
0.0
 40
0.0
 40
0.0
 40
0.1190739163544783
 40
0.2429400141535931
 40
0.3703245869770074
 40
0.4999997435275025
 40
0.6296678660301249
 40
0.7570496369573397
 40
0.8809181219165463
 40
1.0
 40
1.0
 40
1.0
 40
1.0
 10
54.26466030801228
 20
201.1924124095436
 30
0.0
 10
54.42355062969956
 20
201.5233679879358
 30
0.0
 10
54.74772588303266
 20
202.1985985956154
 30
0.0
 10
55.08539875200577
 20
203.3481012723196
 30
0.0
 10
55.30466820210837
 20
204.593301387866
 30
0.0
 10
55.37861550496285
 20
205.8982706677055
 30
0.0
 10
55.30466338832716
 20
207.2032326351571
 30
0.0
 10
55.08540959825581
 20
208.4484119741085
 30
0.0
 10
54.74774568919332
 20
209.597940199572
 30
0.0
 10
54.42355973168449
 20
210.2731994617119
 30
0.0
 10
54.26466030801227
 20
210.604177115426
 30
0.0
  0
SPLINE
  5
239
330
1F
100
AcDbEntity
  8
0
  6
Continuous
 62
     7
370
    25
100
AcDbSpline
210
0.0
220
0.0
230
1.0
 70
     8
 71
     3
 72
    11
 73
     7
 74
     0
 42
0.00000001
 43
0.00000001
 40
0.0
 40
0.0
 40
0.0
 40
0.0
 40
0.2511681577535603
 40
0.4957505156922024
 40
0.7414255250192132
 40
1.0
 40
1.0
 40
1.0
 40
1.0
 10
53.83191492644949
 20
200.3982947624848
 30
0.0
 10
53.83866943852355
 20
200.41021668683
 30
0.0
 10
53.85200135477406
 20
200.4337479345606
 30
0.0
 10
53.94967646683633
 20
200.6092013495667
 30
0.0
 10
54.08700470285118
 20
200.8596538143656
 30
0.0
 10
54.20444037879719
 20
201.0796172121776
 30
0.0
 10
54.26466030801228
 20
201.1924124095436
 30
0.0
  0
SPLINE
  5
23A
330
1F
100
AcDbEntity
  8
0
  6
Continuous
 62
     7
370
    25
100
AcDbSpline
210
0.0
220
0.0
230
1.0
 70
     8
 71
     3
 72
    12
 73
     8
 74
     0
 42
0.00000001
 43
0.00000001
 40
0.0
 40
0.0
 40
0.0
 40
0.0
 40
0.1953079019820321
 40
0.389745681498958
 40
0.5803286157885684
 40
0.7963349348810661
 40
1.0
 40
1.0
 40
1.0
 40
1.0
 10
53.83191492644949
 20
200.3982947624848
 30
0.0
 10
53.48305426616737
 20
199.9916927353742
 30
0.0
 10
52.78688716586061
 20
199.1803001468159
 30
0.0
 10
51.49964688311194
 20
198.2278008623806
 30
0.0
 10
50.02999481328951
 20
197.4805959192454
 30
0.0
 10
48.41570240822979
 20
196.990703090898
 30
0.0
 10
47.26597178174929
 20
196.9284876835694
 30
0.0
 10
46.708011502062
 20
196.8982947624848
 30
0.0
  0
SPLINE
  5
23B
330
1F
100
AcDbEntity
  8
0
  6
Continuous
 62
     7
370
    25
100
AcDbSpline
210
0.0
220
0.0
230
1.0
 70
     8
 71
     3
 72
    12
 73
     8
 74
     0
 42
0.00000001
 43
0.00000001
 40
0.0
 40
0.0
 40
0.0
 40
0.0
 40
0.1720243806436076
 40
0.353257764448101
 40
0.5418093386599167
 40
0.769924885037854
 40
1.0
 40
1.0
 40
1.0
 40
1.0
 10
46.708011502062
 20
214.8982947624848
 30
0.0
 10
47.17908784158914
 20
214.8767692268876
 30
0.0
 10
48.14645871055054
 20
214.8325658264443
 30
0.0
 10
49.59398205469378
 20
214.466054212357
 30
0.0
 10
51.09865994303952
 20
213.8141402108456
 30
0.0
 10
52.58827408777334
 20
212.821192150169
 30
0.0
 10
53.41618771934168
 20
211.8739442736513
 30
0.0
 10
53.83191492644949
 20
211.3982947624848
 30
0.0
  0
SPLINE
  5
23C
330
1F
100
AcDbEntity
  8
0
  6
Continuous
 62
     7
370
    25
100
AcDbSpline
210
0.0
220
0.0
230
1.0
 70
    24
 71
     3
 72
     9
 73
     5
 74
     0
 42
0.00000001
 43
0.00000001
 40
0.0
 40
0.0
 40
0.0
 40
0.0
 40
0.5600000000000249
 40
1.0
 40
1.0
 40
1.0
 40
1.0
 10
55.70801150206199
 20
209.7444129961188
 30
0.0
 10
55.70801150206199
 20
209.9075230414504
 30
0.0
 10
55.70801150206194
 20
210.1987909795427
 30
0.0
 10
55.70801150206196
 20
210.4803091294616
 30
0.0
 10
55.70801150206197
 20
210.604177115426
 30
0.0
  0
SPLINE
  5
23D
330
1F
100
AcDbEntity
  8
0
  6
Continuous
 62
     7
370
    25
100
AcDbSpline
210
0.0
220
0.0
230
1.0
 70
    24
 71
     3
 72
    11
 73
     7
 74
     0
 42
0.00000001
 43
0.00000001
 40
0.0
 40
0.0
 40
0.0
 40
0.0
 40
0.2475488322023325
 40
0.4999999999999998
 40
0.7524511677976672
 40
1.0
 40
1.0
 40
1.0
 40
1.0
 10
55.70801150206199
 20
202.0521765288509
 30
0.0
 10
55.70801150206197
 20
202.6679028541713
 30
0.0
 10
55.70801150206197
 20
203.9115490468085
 30
0.0
 10
55.70801150206197
 20
205.8982947624848
 30
0.0
 10
55.70801150206199
 20
207.8850404781611
 30
0.0
 10
55.70801150206196
 20
209.1286866707983
 30
0.0
 10
55.70801150206199
 20
209.7444129961188
 30
0.0
  0
SPLINE
  5
23E
330
1F
100
AcDbEntity
  8
0
  6
Continuous
 62
     7
370
    25
100
AcDbSpline
210
0.0
220
0.0
230
1.0
 70
    24
 71
     3
 72
     9
 73
     5
 74
     0
 42
0.00000001
 43
0.00000001
 40
0.0
 40
0.0
 40
0.0
 40
0.0
 40
0.5600000000000163
 40
0.9999999999999999
 40
0.9999999999999999
 40
0.9999999999999999
 40
0.9999999999999999
 10
55.70801150206199
 20
201.1924124095436
 30
0.0
 10
55.708011502062
 20
201.3503123782478
 30
0.0
 10
55.70801150206206
 20
201.6322766080767
 30
0.0
 10
55.70801150206201
 20
201.923873775281
 30
0.0
 10
55.70801150206199
 20
202.0521765288508
 30
0.0
  0
SPLINE
  5
23F
330
1F
100
AcDbEntity
  8
0
  6
Continuous
 62
     7
370
    25
100
AcDbSpline
210
0.0
220
0.0
230
1.0
 70
    24
 71
     3
 72
    20
 73
    16
 74
     0
 42
0.00000001
 43
0.00000001
 40
0.0
 40
0.0
 40
0.0
 40
0.0
 40
0.0161707381141227
 40
0.0687726591577558
 40
0.1536057440939585
 40
0.2537026089377685
 40
0.3718463793863722
 40
0.5000203239935425
 40
0.6281389419729773
 40
0.7461782868657678
 40
0.8462772224310512
 40
0.9063584483674563
 40
0.9524846640355005
 40
0.9838443240711813
 40
1.0
 40
1.0
 40
1.0
 40
1.0
 10
120.208011502062
 20
210.8128941028965
 30
0.0
 10
120.208011502062
 20
210.7645831634767
 30
0.0
 10
120.208011502062
 20
210.5591211897026
 30
0.0
 10
120.208011502062
 20
210.0830449660705
 30
0.0
 10
120.208011502062
 20
209.3230542950326
 30
0.0
 10
120.208011502062
 20
208.3242918454185
 30
0.0
 10
120.208011502062
 20
207.1636723980363
 30
0.0
 10
120.208011502062
 20
205.8981305675388
 30
0.0
 10
120.208011502062
 20
204.6328687786256
 30
0.0
 10
120.208011502062
 20
203.4728205767694
 30
0.0
 10
120.208011502062
 20
202.5562264300608
 30
0.0
 10
120.208011502062
 20
201.8931694130008
 30
0.0
 10
120.208011502062
 20
201.4612981848132
 30
0.0
 10
120.208011502062
 20
201.17378625555
 30
0.0
 10
120.208011502062
 20
201.0319284532654
 30
0.0
 10
120.208011502062
 20
200.9836954220731
 30
0.0
  0
LINE
  5
240
330
1F
100
AcDbEntity
  8
0
  6
Continuous
 62
     7
370
    25
100
AcDbLine
 10
120.2080115021
 20
211.8027837865
 30
0.0
 11
120.2080115021
 21
210.8128941029
 31
0.0
  0
LINE
  5
241
330
1F
100
AcDbEntity
  8
0
  6
Continuous
 62
     7
370
    25
100
AcDbLine
 10
120.2080115021
 20
200.9836954221
 30
0.0
 11
120.2080115021
 21
199.9938057385
 31
0.0
  0
SPLINE
  5
242
330
1F
100
AcDbEntity
  8
0
  6
Continuous
 62
     7
370
    25
100
AcDbSpline
210
0.0
220
0.0
230
1.0
 70
    24
 71
     3
 72
    11
 73
     7
 74
     0
 42
0.00000001
 43
0.00000001
 40
0.0
 40
0.0
 40
0.0
 40
0.0
 40
0.2439893296272889
 40
0.4970916494928567
 40
0.7517161401875568
 40
1.0
 40
1.0
 40
1.0
 40
1.0
 10
55.70801150206199
 20
210.604177115426
 30
0.0
 10
55.70801150206199
 20
210.7068434954444
 30
0.0
 10
55.70801150206199
 20
210.9160108400523
 30
0.0
 10
55.70801150206191
 20
211.1578487643362
 30
0.0
 10
55.70801150206204
 20
211.3321583278425
 30
0.0
 10
55.70801150206199
 20
211.3723160796308
 30
0.0
 10
55.70801150206199
 20
211.3921418025589
 30
0.0
  0
SPLINE
  5
243
330
1F
100
AcDbEntity
  8
0
  6
Continuous
 62
     7
370
    25
100
AcDbSpline
210
0.0
220
0.0
230
1.0
 70
    24
 71
     3
 72
    11
 73
     7
 74
     0
 42
0.00000001
 43
0.00000001
 40
0.0
 40
0.0
 40
0.0
 40
0.0
 40
0.2482838598124391
 40
0.5029083505071438
 40
0.7560106703727052
 40
1.0
 40
1.0
 40
1.0
 40
1.0
 10
55.70801150206199
 20
200.4044477224107
 30
0.0
 10
55.70801150206197
 20
200.4242734453388
 30
0.0
 10
55.70801150206193
 20
200.4644311971271
 30
0.0
 10
55.70801150206199
 20
200.6387407606335
 30
0.0
 10
55.70801150206196
 20
200.8805786849173
 30
0.0
 10
55.70801150206197
 20
201.0897460295252
 30
0.0
 10
55.70801150206199
 20
201.1924124095436
 30
0.0
  0
SPLINE
  5
244
330
1F
100
AcDbEntity
  8
0
  6
Continuous
 62
     7
370
    25
100
AcDbSpline
210
0.0
220
0.0
230
1.0
 70
    24
 71
     3
 72
    10
 73
     6
 74
     0
 42
0.00000001
 43
0.00000001
 40
0.0
 40
0.0
 40
0.0
 40
0.0
 40
0.4058341963373358
 40
0.6965048340556129
 40
1.0
 40
1.0
 40
1.0
 40
1.0
 10
120.208011502062
 20
199.99380573845
 30
0.0
 10
120.208011502062
 20
199.8697867426805
 30
0.0
 10
120.208011502062
 20
199.6569416181252
 30
0.0
 10
120.208011502062
 20
199.4513069683882
 30
0.0
 10
120.208011502062
 20
199.4163954295249
 30
0.0
 10
120.208011502062
 20
199.3985628931935
 30
0.0
  0
SPLINE
  5
245
330
1F
100
AcDbEntity
  8
0
  6
Continuous
 62
     7
370
    25
100
AcDbSpline
210
0.0
220
0.0
230
1.0
 70
    24
 71
     3
 72
    10
 73
     6
 74
     0
 42
0.00000001
 43
0.00000001
 40
0.0
 40
0.0
 40
0.0
 40
0.0
 40
0.3033447683631391
 40
0.5940896395930976
 40
0.9999999999999999
 40
0.9999999999999999
 40
0.9999999999999999
 40
0.9999999999999999
 10
120.208011502062
 20
212.3982482253324
 30
0.0
 10
120.208011502062
 20
212.380321814128
 30
0.0
 10
120.208011502062
 20
212.3452135931124
 30
0.0
 10
120.208011502062
 20
212.1401295878075
 30
0.0
 10
120.208011502062
 20
211.9269778995689
 30
0.0
 10
120.208011502062
 20
211.8027837865196
 30
0.0
  0
SPLINE
  5
246
330
1F
100
AcDbEntity
  8
0
  6
Continuous
 62
     7
370
    25
100
AcDbSpline
210
0.0
220
0.0
230
1.0
 70
    24
 71
     3
 72
    23
 73
    19
 74
     0
 42
0.00000001
 43
0.00000001
 40
0.0
 40
0.0
 40
0.0
 40
0.0
 40
0.0062917332032959
 40
0.0246849308731639
 40
0.0528613464459137
 40
0.1038023298564337
 40
0.1676018490706095
 40
0.2682386188051166
 40
0.3810655793106548
 40
0.4999946200888958
 40
0.6189415883075694
 40
0.7317904595068778
 40
0.832418708361928
 40
0.8962036311638043
 40
0.9471372985326307
 40
0.9825847159978714
 40
0.9937078086569529
 40
1.0
 40
1.0
 40
1.0
 40
1.0
 10
140.208011502062
 20
199.2316280958182
 30
0.0
 10
140.208011502062
 20
199.2575333182915
 30
0.0
 10
140.208011502062
 20
199.3591696409624
 30
0.0
 10
140.208011502062
 20
199.5784905913513
 30
0.0
 10
140.208011502062
 20
199.9879170946404
 30
0.0
 10
140.208011502062
 20
200.5974274728263
 30
0.0
 10
140.208011502062
 20
201.5339609936536
 30
0.0
 10
140.208011502062
 20
202.7698004730547
 30
0.0
 10
140.208011502062
 20
204.2825689268332
 30
0.0
 10
140.208011502062
 20
205.898289524764
 30
0.0
 10
140.208011502062
 20
207.5139663250876
 30
0.0
 10
140.208011502062
 20
209.027032220742
 30
0.0
 10
140.208011502062
 20
210.2630766611619
 30
0.0
 10
140.208011502062
 20
211.1993029437895
 30
0.0
 10
140.208011502062
 20
211.8395388427103
 30
0.0
 10
140.208011502062
 20
212.2484277347689
 30
0.0
 10
140.208011502062
 20
212.4673251897354
 30
0.0
 10
140.208011502062
 20
212.5390478347482
 30
0.0
 10
140.208011502062
 20
212.5649614291515
 30
0.0
  0
SPLINE
  5
247
330
1F
100
AcDbEntity
  8
0
  6
Continuous
 62
     7
370
    25
100
AcDbSpline
210
0.0
220
0.0
230
1.0
 70
    24
 71
     3
 72
    11
 73
     7
 74
     0
 42
0.00000001
 43
0.00000001
 40
0.0
 40
0.0
 40
0.0
 40
0.0
 40
0.2500442827497105
 40
0.4999999999999979
 40
0.7499557172502843
 40
1.0
 40
1.0
 40
1.0
 40
1.0
 10
140.208011502062
 20
212.5649614291515
 30
0.0
 10
140.208011502062
 20
212.6842792984649
 30
0.0
 10
140.208011502062
 20
212.9228727747909
 30
0.0
 10
140.208011502062
 20
213.1877274297207
 30
0.0
 10
140.208011502062
 20
213.364210081819
 30
0.0
 10
140.208011502062
 20
213.3869318606857
 30
0.0
 10
140.208011502062
 20
213.3982947624848
 30
0.0
  0
SPLINE
  5
248
330
1F
100
AcDbEntity
  8
0
  6
Continuous
 62
     7
370
    25
100
AcDbSpline
210
0.0
220
0.0
230
1.0
 70
    24
 71
     3
 72
    11
 73
     7
 74
     0
 42
0.00000001
 43
0.00000001
 40
0.0
 40
0.0
 40
0.0
 40
0.0
 40
0.2500442827497157
 40
0.5000000000000022
 40
0.7499557172502894
 40
1.0
 40
1.0
 40
1.0
 40
1.0
 10
140.208011502062
 20
198.3982947624848
 30
0.0
 10
140.208011502062
 20
198.4096576642839
 30
0.0
 10
140.208011502062
 20
198.4323794431507
 30
0.0
 10
140.208011502062
 20
198.608862095249
 30
0.0
 10
140.208011502062
 20
198.8737167501788
 30
0.0
 10
140.208011502062
 20
199.1123102265048
 30
0.0
 10
140.208011502062
 20
199.2316280958182
 30
0.0
  0
LWPOLYLINE
  5
249
330
1F
100
AcDbEntity
  8
0
  6
Continuous
 62
     7
370
    25
100
AcDbPolyline
 90
        2
 70
   128
 43
0.0
 10
140.2080115021
 20
198.3982947625
 10
140.2080115021
 20
198.3982947625
  0
LWPOLYLINE
  5
24A
330
1F
100
AcDbEntity
  8
0
  6
Continuous
 62
     7
370
    25
100
AcDbPolyline
 90
        2
 70
   128
 43
0.0
 10
140.2080115021
 20
213.3982947625
 10
140.2080115021
 20
213.3982947625
  0
LINE
  5
24B
330
1F
100
AcDbEntity
  8
0
  6
Continuous
 62
     7
370
    25
100
AcDbLine
 10
146.8256585609
 20
216.3576410076
 30
0.0
 11
146.8256585609
 21
215.1450465299
 31
0.0
  0
SPLINE
  5
24C
330
1F
100
AcDbEntity
  8
0
  6
Continuous
 62
     7
370
    25
100
AcDbSpline
210
0.0
220
0.0
230
1.0
 70
     8
 71
     3
 72
    31
 73
    27
 74
     0
 42
0.00000001
 43
0.00000001
 40
0.0
 40
0.0
 40
0.0
 40
0.0
 40
0.0394589169330126
 40
0.0807512133391363
 40
0.1233630508960022
 40
0.1666666666666668
 40
0.2099702824373314
 40
0.2525821199941973
 40
0.2938744164003209
 40
0.3333333333333331
 40
0.372792250266346
 40
0.4140845466724696
 40
0.4566963842293355
 40
0.4999999999999999
 40
0.5433036157706644
 40
0.5859154533275303
 40
0.6272077497336539
 40
0.6666666666666667
 40
0.7061255835996789
 40
0.7474178800058026
 40
0.7900297175626686
 40
0.8333333333333333
 40
0.8766369491039978
 40
0.9192487866608637
 40
0.9605410830669874
 40
1.0
 40
1.0
 40
1.0
 40
1.0
 10
146.8256585608855
 20
195.4389485173587
 30
0.0
 10
147.4140974537119
 20
195.1440011073715
 30
0.0
 10
148.6183158728929
 20
194.5404021472646
 30
0.0
 10
150.6209337552835
 20
194.0231050673636
 30
0.0
 10
152.7385541512376
 20
193.833050997381
 30
0.0
 10
154.8926094604028
 20
194.0326809505318
 30
0.0
 10
156.9751767221781
 20
194.613852448148
 30
0.0
 10
158.8905642087891
 20
195.5421448136002
 30
0.0
 10
160.56263207682
 20
196.7511877676447
 30
0.0
 10
161.971105161012
 20
198.1848251365445
 30
0.0
 10
163.1260370972676
 20
199.8295775655016
 30
0.0
 10
164.0123895316463
 20
201.6929292614073
 30
0.0
 10
164.5784746118437
 20
203.7446628276019
 30
0.0
 10
164.7733014528785
 20
205.8982947624848
 30
0.0
 10
164.5784746118437
 20
208.0519266973678
 30
0.0
 10
164.0123895316463
 20
210.1036602635623
 30
0.0
 10
163.1260370972676
 20
211.9670119594681
 30
0.0
 10
161.971105161012
 20
213.6117643884251
 30
0.0
 10
160.56263207682
 20
215.045401757325
 30
0.0
 10
158.8905642087891
 20
216.2544447113695
 30
0.0
 10
156.9751767221781
 20
217.1827370768217
 30
0.0
 10
154.8926094604028
 20
217.7639085744378
 30
0.0
 10
152.7385541512376
 20
217.9635385275887
 30
0.0
 10
150.6209337552835
 20
217.773484457606
 30
0.0
 10
148.6183158728929
 20
217.256187377705
 30
0.0
 10
147.4140974537119
 20
216.6525884175982
 30
0.0
 10
146.8256585608855
 20
216.3576410076109
 30
0.0
  0
LINE
  5
24D
330
1F
100
AcDbEntity
  8
0
  6
Continuous
 62
     7
370
    25
100
AcDbLine
 10
146.8256585609
 20
196.6140836345
 30
0.0
 11
146.8256585609
 21
195.4389485174
 31
0.0
  0
LINE
  5
24E
330
1F
100
AcDbEntity
  8
0
  6
Continuous
 62
     7
370
    25
100
AcDbLine
 10
146.8256585609
 20
216.3576410076
 30
0.0
 11
140.2080115021
 21
213.3982947625
 31
0.0
  0
LINE
  5
24F
330
1F
100
AcDbEntity
  8
0
  6
Continuous
 62
     7
370
    25
100
AcDbLine
 10
146.8256585609
 20
195.4389485174
 30
0.0
 11
140.2080115021
 21
198.3982947625
 31
0.0
  0
LINE
  5
250
330
1F
100
AcDbEntity
  8
0
  6
Continuous
 62
     7
370
    25
100
AcDbLine
 10
116.7080115021
 20
212.6482947625
 30
0.0
 11
116.721319855
 21
212.3442058533
 31
0.0
  0
SPLINE
  5
251
330
1F
100
AcDbEntity
  8
0
  6
Continuous
 62
     7
370
    25
100
AcDbSpline
210
0.0
220
0.0
230
1.0
 70
     8
 71
     3
 72
     9
 73
     5
 74
     0
 42
0.00000001
 43
0.00000001
 40
0.0
 40
0.0
 40
0.0
 40
0.0
 40
0.4989631660071379
 40
1.0
 40
1.0
 40
1.0
 40
1.0
 10
117.2676119404816
 20
219.3982947624849
 30
0.0
 10
117.1089443481531
 20
218.2797101387063
 30
0.0
 10
116.7909497482745
 20
216.0378921048627
 30
0.0
 10
116.73569577693
 20
213.7797214420141
 30
0.0
 10
116.708011502062
 20
212.6482947624848
 30
0.0
  0
LINE
  5
252
330
1F
100
AcDbEntity
  8
0
  6
Continuous
 62
     7
370
    25
100
AcDbLine
 10
120.7689121352
 20
219.3982947625
 30
0.0
 11
117.2676119405
 21
219.3982947625
 31
0.0
  0
LINE
  5
253
330
1F
100
AcDbEntity
  8
0
  6
Continuous
 62
     7
370
    25
100
AcDbLine
 10
121.4760189164
 20
218.0707890443
 30
0.0
 11
120.7689121352
 21
219.3982947625
 31
0.0
  0
LINE
  5
254
330
1F
100
AcDbEntity
  8
0
  6
Continuous
 62
     7
370
    25
100
AcDbLine
 10
122.1831256976
 20
219.3982947625
 30
0.0
 11
121.4760189164
 21
218.0707890443
 31
0.0
  0
LINE
  5
255
330
1F
100
AcDbEntity
  8
0
  6
Continuous
 62
     7
370
    25
100
AcDbLine
 10
124.1838635852
 20
219.3982947625
 30
0.0
 11
122.1831256976
 21
219.3982947625
 31
0.0
  0
LINE
  5
256
330
1F
100
AcDbEntity
  8
0
  6
Continuous
 62
     7
370
    25
100
AcDbLine
 10
124.1838635852
 20
219.3982947625
 30
0.0
 11
124.8909703664
 21
218.0707890443
 31
0.0
  0
LINE
  5
257
330
1F
100
AcDbEntity
  8
0
  6
Continuous
 62
     7
370
    25
100
AcDbLine
 10
124.8909703664
 20
218.0707890443
 30
0.0
 11
125.5980771476
 21
219.3982947625
 31
0.0
  0
LINE
  5
258
330
1F
100
AcDbEntity
  8
0
  6
Continuous
 62
     7
370
    25
100
AcDbLine
 10
130.4080115021
 20
219.3982947625
 30
0.0
 11
125.5980771476
 21
219.3982947625
 31
0.0
  0
LINE
  5
259
330
1F
100
AcDbEntity
  8
0
  6
Continuous
 62
     7
370
    25
100
AcDbLine
 10
130.4080115021
 20
219.3982947625
 30
0.0
 11
130.4080115021
 21
212.9086464488
 31
0.0
  0
LINE
  5
25A
330
1F
100
AcDbEntity
  8
0
  6
Continuous
 62
     7
370
    25
100
AcDbLine
 10
116.721377305
 20
199.4523830938
 30
0.0
 11
116.7080115021
 21
199.1482947625
 31
0.0
  0
LINE
  5
25B
330
1F
100
AcDbEntity
  8
0
  6
Continuous
 62
     7
370
    25
100
AcDbLine
 10
116.7080115021
 20
199.1482947625
 30
0.0
 11
116.7080115021
 21
199.4405215261
 31
0.0
  0
LINE
  5
25C
330
1F
100
AcDbEntity
  8
0
  6
Continuous
 62
     7
370
    25
100
AcDbLine
 10
116.7080115021
 20
212.3497477011
 30
0.0
 11
116.7080115021
 21
212.6482947625
 31
0.0
  0
LINE
  5
25D
330
1F
100
AcDbEntity
  8
0
  6
Continuous
 62
     7
370
    25
100
AcDbLine
 10
124.1838635852
 20
192.3982947625
 30
0.0
 11
122.1831256976
 21
192.3982947625
 31
0.0
  0
LINE
  5
25E
330
1F
100
AcDbEntity
  8
0
  6
Continuous
 62
     7
370
    25
100
AcDbLine
 10
121.4760189164
 20
193.7258004807
 30
0.0
 11
122.1831256976
 21
192.3982947625
 31
0.0
  0
LINE
  5
25F
330
1F
100
AcDbEntity
  8
0
  6
Continuous
 62
     7
370
    25
100
AcDbLine
 10
120.7689121352
 20
192.3982947625
 30
0.0
 11
121.4760189164
 21
193.7258004807
 31
0.0
  0
LINE
  5
260
330
1F
100
AcDbEntity
  8
0
  6
Continuous
 62
     7
370
    25
100
AcDbLine
 10
120.7689121352
 20
192.3982947625
 30
0.0
 11
117.2676119405
 21
192.3982947625
 31
0.0
  0
SPLINE
  5
261
330
1F
100
AcDbEntity
  8
0
  6
Continuous
 62
     7
370
    25
100
AcDbSpline
210
0.0
220
0.0
230
1.0
 70
     8
 71
     3
 72
     9
 73
     5
 74
     0
 42
0.00000001
 43
0.00000001
 40
0.0
 40
0.0
 40
0.0
 40
0.0
 40
0.4987908233251052
 40
1.0
 40
1.0
 40
1.0
 40
1.0
 10
116.708011502062
 20
199.1482947624848
 30
0.0
 10
116.7354494835851
 20
198.0219410023395
 30
0.0
 10
116.7904584778167
 20
195.7637724325236
 30
0.0
 10
117.1083045648769
 20
193.5219278432884
 30
0.0
 10
117.2676119404816
 20
192.3982947624848
 30
0.0
  0
LINE
  5
262
330
1F
100
AcDbEntity
  8
0
  6
Continuous
 62
     7
370
    25
100
AcDbLine
 10
130.4080115021
 20
198.8879430765
 30
0.0
 11
130.4080115021
 21
192.3982947625
 31
0.0
  0
LINE
  5
263
330
1F
100
AcDbEntity
  8
0
  6
Continuous
 62
     7
370
    25
100
AcDbLine
 10
130.4080115021
 20
192.3982947625
 30
0.0
 11
125.5980771476
 21
192.3982947625
 31
0.0
  0
LINE
  5
264
330
1F
100
AcDbEntity
  8
0
  6
Continuous
 62
     7
370
    25
100
AcDbLine
 10
125.5980771476
 20
192.3982947625
 30
0.0
 11
124.8909703664
 21
193.7258004807
 31
0.0
  0
LINE
  5
265
330
1F
100
AcDbEntity
  8
0
  6
Continuous
 62
     7
370
    25
100
AcDbLine
 10
124.8909703664
 20
193.7258004807
 30
0.0
 11
124.1838635852
 21
192.3982947625
 31
0.0
  0
SPLINE
  5
266
330
1F
100
AcDbEntity
  8
0
  6
Continuous
 62
     7
370
    25
100
AcDbSpline
210
0.0
220
0.0
230
1.0
 70
    24
 71
     3
 72
     9
 73
     5
 74
     0
 42
0.00000001
 43
0.00000001
 40
0.0
 40
0.0
 40
0.0
 40
0.0
 40
0.5133293787208693
 40
1.0
 40
1.0
 40
1.0
 40
1.0
 10
116.708011502062
 20
219.3982947624848
 30
0.0
 10
116.737062543312
 20
219.3982947624848
 30
0.0
 10
116.7936559167956
 20
219.3982947624848
 30
0.0
 10
117.1124595689981
 20
219.3982947624849
 30
0.0
 10
117.2676119404816
 20
219.3982947624849
 30
0.0
  0
LINE
  5
267
330
1F
100
AcDbEntity
  8
0
  6
Continuous
 62
     7
370
    25
100
AcDbLine
 10
116.7080115021
 20
212.6482947625
 30
0.0
 11
116.7080115021
 21
219.3982947625
 31
0.0
  0
SPLINE
  5
268
330
1F
100
AcDbEntity
  8
0
  6
Continuous
 62
     7
370
    25
100
AcDbSpline
210
0.0
220
0.0
230
1.0
 70
    24
 71
     3
 72
     9
 73
     5
 74
     0
 42
0.00000001
 43
0.00000001
 40
0.0
 40
0.0
 40
0.0
 40
0.0
 40
0.4989631660071379
 40
1.0
 40
1.0
 40
1.0
 40
1.0
 10
117.2676119404816
 20
192.3982947624848
 30
0.0
 10
117.1089443481531
 20
192.3982947624848
 30
0.0
 10
116.7909497482745
 20
192.3982947624848
 30
0.0
 10
116.73569577693
 20
192.3982947624848
 30
0.0
 10
116.708011502062
 20
192.3982947624848
 30
0.0
  0
LINE
  5
269
330
1F
100
AcDbEntity
  8
0
  6
Continuous
 62
     7
370
    25
100
AcDbLine
 10
116.7080115021
 20
192.3982947625
 30
0.0
 11
116.7080115021
 21
199.1482947625
 31
0.0
  0
LINE
  5
26A
330
1F
100
AcDbEntity
  8
0
  6
Continuous
 62
     7
370
    25
100
AcDbLine
 10
121.4760189164
 20
219.3982947625
 30
0.0
 11
122.1831256976
 21
219.3982947625
 31
0.0
  0
LINE
  5
26B
330
1F
100
AcDbEntity
  8
0
  6
Continuous
 62
     7
370
    25
100
AcDbLine
 10
121.4760189164
 20
218.0707890443
 30
0.0
 11
121.4760189164
 21
219.3982947625
 31
0.0
  0
SPLINE
  5
26C
330
1F
100
AcDbEntity
  8
0
  6
Continuous
 62
     7
370
    25
100
AcDbSpline
210
0.0
220
0.0
230
1.0
 70
    24
 71
     3
 72
     9
 73
     5
 74
     0
 42
0.00000001
 43
0.00000001
 40
0.0
 40
0.0
 40
0.0
 40
0.0
 40
0.507354430493994
 40
0.9999999999999999
 40
0.9999999999999999
 40
0.9999999999999999
 40
0.9999999999999999
 10
120.7689121352352
 20
219.3982947624849
 30
0.0
 10
120.8948203900724
 20
219.3982947624849
 30
0.0
 10
121.1429866566302
 20
219.3982947624848
 30
0.0
 10
121.3661020877782
 20
219.3982947624848
 30
0.0
 10
121.4760189164217
 20
219.3982947624848
 30
0.0
  0
LINE
  5
26D
330
1F
100
AcDbEntity
  8
0
  6
Continuous
 62
     7
370
    25
100
AcDbLine
 10
124.8909703664
 20
219.3982947625
 30
0.0
 11
124.8909703664
 21
218.0707890443
 31
0.0
  0
LINE
  5
26E
330
1F
100
AcDbEntity
  8
0
  6
Continuous
 62
     7
370
    25
100
AcDbLine
 10
124.8909703664
 20
219.3982947625
 30
0.0
 11
124.1838635852
 21
219.3982947625
 31
0.0
  0
SPLINE
  5
26F
330
1F
100
AcDbEntity
  8
0
  6
Continuous
 62
     7
370
    25
100
AcDbSpline
210
0.0
220
0.0
230
1.0
 70
    24
 71
     3
 72
     9
 73
     5
 74
     0
 42
0.00000001
 43
0.00000001
 40
0.0
 40
0.0
 40
0.0
 40
0.0
 40
0.5073544304939991
 40
1.0
 40
1.0
 40
1.0
 40
1.0
 10
125.5980771475867
 20
219.3982947624849
 30
0.0
 10
125.4721688927495
 20
219.3982947624848
 30
0.0
 10
125.2240026261917
 20
219.3982947624848
 30
0.0
 10
125.0008871950436
 20
219.3982947624848
 30
0.0
 10
124.8909703664002
 20
219.3982947624848
 30
0.0
  0
LINE
  5
270
330
1F
100
AcDbEntity
  8
0
  6
Continuous
 62
     7
370
    25
100
AcDbLine
 10
124.8909703664
 20
192.3982947625
 30
0.0
 11
125.5980771476
 21
192.3982947625
 31
0.0
  0
LINE
  5
271
330
1F
100
AcDbEntity
  8
0
  6
Continuous
 62
     7
370
    25
100
AcDbLine
 10
124.8909703664
 20
193.7258004807
 30
0.0
 11
124.8909703664
 21
192.3982947625
 31
0.0
  0
SPLINE
  5
272
330
1F
100
AcDbEntity
  8
0
  6
Continuous
 62
     7
370
    25
100
AcDbSpline
210
0.0
220
0.0
230
1.0
 70
    24
 71
     3
 72
     9
 73
     5
 74
     0
 42
0.00000001
 43
0.00000001
 40
0.0
 40
0.0
 40
0.0
 40
0.0
 40
0.5073544304940271
 40
1.0
 40
1.0
 40
1.0
 40
1.0
 10
124.1838635852136
 20
192.3982947624848
 30
0.0
 10
124.3097718400509
 20
192.3982947624848
 30
0.0
 10
124.5579381066086
 20
192.3982947624848
 30
0.0
 10
124.7810535377567
 20
192.3982947624848
 30
0.0
 10
124.8909703664002
 20
192.3982947624848
 30
0.0
  0
SPLINE
  5
273
330
1F
100
AcDbEntity
  8
0
  6
Continuous
 62
     7
370
    25
100
AcDbSpline
210
0.0
220
0.0
230
1.0
 70
    24
 71
     3
 72
     9
 73
     5
 74
     0
 42
0.00000001
 43
0.00000001
 40
0.0
 40
0.0
 40
0.0
 40
0.0
 40
0.507354430494125
 40
1.0
 40
1.0
 40
1.0
 40
1.0
 10
122.1831256976083
 20
192.3982947624848
 30
0.0
 10
122.057217442771
 20
192.3982947624848
 30
0.0
 10
121.8090511762134
 20
192.3982947624848
 30
0.0
 10
121.5859357450652
 20
192.3982947624848
 30
0.0
 10
121.4760189164217
 20
192.3982947624848
 30
0.0
  0
LINE
  5
274
330
1F
100
AcDbEntity
  8
0
  6
Continuous
 62
     7
370
    25
100
AcDbLine
 10
121.4760189164
 20
192.3982947625
 30
0.0
 11
121.4760189164
 21
193.7258004807
 31
0.0
  0
LINE
  5
275
330
1F
100
AcDbEntity
  8
0
  6
Continuous
 62
     7
370
    25
100
AcDbLine
 10
121.4760189164
 20
192.3982947625
 30
0.0
 11
120.7689121352
 21
192.3982947625
 31
0.0
  0
LINE
  5
276
330
1F
100
AcDbEntity
  8
0
  6
Continuous
 62
     7
370
    25
100
AcDbLine
 10
181.2321594189
 20
219.3982947625
 30
0.0
 11
183.2328973065
 21
219.3982947625
 31
0.0
  0
LINE
  5
277
330
1F
100
AcDbEntity
  8
0
  6
Continuous
 62
     7
370
    25
100
AcDbLine
 10
183.9400040877
 20
218.0707890443
 30
0.0
 11
183.2328973065
 21
219.3982947625
 31
0.0
  0
LINE
  5
278
330
1F
100
AcDbEntity
  8
0
  6
Continuous
 62
     7
370
    25
100
AcDbLine
 10
184.6471108689
 20
219.3982947625
 30
0.0
 11
183.9400040877
 21
218.0707890443
 31
0.0
  0
LINE
  5
279
330
1F
100
AcDbEntity
  8
0
  6
Continuous
 62
     7
370
    25
100
AcDbLine
 10
184.6471108689
 20
219.3982947625
 30
0.0
 11
188.1484110636
 21
219.3982947625
 31
0.0
  0
SPLINE
  5
27A
330
1F
100
AcDbEntity
  8
0
  6
Continuous
 62
     7
370
    25
100
AcDbSpline
210
0.0
220
0.0
230
1.0
 70
     8
 71
     3
 72
     9
 73
     5
 74
     0
 42
0.00000001
 43
0.00000001
 40
0.0
 40
0.0
 40
0.0
 40
0.0
 40
0.4987908233251052
 40
1.0
 40
1.0
 40
1.0
 40
1.0
 10
188.708011502062
 20
212.6482947624848
 30
0.0
 10
188.6805735205389
 20
213.7746485226302
 30
0.0
 10
188.6255645263073
 20
216.0328170924461
 30
0.0
 10
188.3077184392471
 20
218.2746616816812
 30
0.0
 10
188.1484110636424
 20
219.3982947624848
 30
0.0
  0
SPLINE
  5
27B
330
1F
100
AcDbEntity
  8
0
  6
Continuous
 62
     7
370
    25
100
AcDbSpline
210
0.0
220
0.0
230
1.0
 70
     8
 71
     3
 72
     9
 73
     5
 74
     0
 42
0.00000001
 43
0.00000001
 40
0.0
 40
0.0
 40
0.0
 40
0.0
 40
0.4989631660071376
 40
1.0
 40
1.0
 40
1.0
 40
1.0
 10
188.1484110636424
 20
205.8982947624848
 30
0.0
 10
188.3070786559709
 20
207.0168793862634
 30
0.0
 10
188.6250732558495
 20
209.258697420107
 30
0.0
 10
188.680327227194
 20
211.5168680829556
 30
0.0
 10
188.708011502062
 20
212.6482947624848
 30
0.0
  0
LINE
  5
27C
330
1F
100
AcDbEntity
  8
0
  6
Continuous
 62
     7
370
    25
100
AcDbLine
 10
184.6471108689
 20
205.8982947625
 30
0.0
 11
188.1484110636
 21
205.8982947625
 31
0.0
  0
LINE
  5
27D
330
1F
100
AcDbEntity
  8
0
  6
Continuous
 62
     7
370
    25
100
AcDbLine
 10
183.9400040877
 20
207.2258004807
 30
0.0
 11
184.6471108689
 21
205.8982947625
 31
0.0
  0
LINE
  5
27E
330
1F
100
AcDbEntity
  8
0
  6
Continuous
 62
     7
370
    25
100
AcDbLine
 10
183.2328973065
 20
205.8982947625
 30
0.0
 11
183.9400040877
 21
207.2258004807
 31
0.0
  0
LINE
  5
27F
330
1F
100
AcDbEntity
  8
0
  6
Continuous
 62
     7
370
    25
100
AcDbLine
 10
181.2321594189
 20
205.8982947625
 30
0.0
 11
183.2328973065
 21
205.8982947625
 31
0.0
  0
LINE
  5
280
330
1F
100
AcDbEntity
  8
0
  6
Continuous
 62
     7
370
    25
100
AcDbLine
 10
181.2321594189
 20
205.8982947625
 30
0.0
 11
180.5250526377
 21
207.2258004807
 31
0.0
  0
LINE
  5
281
330
1F
100
AcDbEntity
  8
0
  6
Continuous
 62
     7
370
    25
100
AcDbLine
 10
180.5250526377
 20
207.2258004807
 30
0.0
 11
179.8179458565
 21
205.8982947625
 31
0.0
  0
LINE
  5
282
330
1F
100
AcDbEntity
  8
0
  6
Continuous
 62
     7
370
    25
100
AcDbLine
 10
175.0080115021
 20
205.8982947625
 30
0.0
 11
179.8179458565
 21
205.8982947625
 31
0.0
  0
LINE
  5
283
330
1F
100
AcDbEntity
  8
0
  6
Continuous
 62
     7
370
    25
100
AcDbLine
 10
175.0080115021
 20
205.8982947625
 30
0.0
 11
175.0080115021
 21
212.6482947625
 31
0.0
  0
LINE
  5
284
330
1F
100
AcDbEntity
  8
0
  6
Continuous
 62
     7
370
    25
100
AcDbLine
 10
175.0080115021
 20
212.6482947625
 30
0.0
 11
175.0080115021
 21
219.3982947625
 31
0.0
  0
LINE
  5
285
330
1F
100
AcDbEntity
  8
0
  6
Continuous
 62
     7
370
    25
100
AcDbLine
 10
175.0080115021
 20
219.3982947625
 30
0.0
 11
179.8179458565
 21
219.3982947625
 31
0.0
  0
LINE
  5
286
330
1F
100
AcDbEntity
  8
0
  6
Continuous
 62
     7
370
    25
100
AcDbLine
 10
179.8179458565
 20
219.3982947625
 30
0.0
 11
180.5250526377
 21
218.0707890443
 31
0.0
  0
LINE
  5
287
330
1F
100
AcDbEntity
  8
0
  6
Continuous
 62
     7
370
    25
100
AcDbLine
 10
180.5250526377
 20
218.0707890443
 30
0.0
 11
181.2321594189
 21
219.3982947625
 31
0.0
  0
SPLINE
  5
288
330
1F
100
AcDbEntity
  8
0
  6
Continuous
 62
     7
370
    25
100
AcDbSpline
210
0.0
220
0.0
230
1.0
 70
     8
 71
     3
 72
     9
 73
     5
 74
     0
 42
0.00000001
 43
0.00000001
 40
0.0
 40
0.0
 40
0.0
 40
0.0
 40
0.4987908233251052
 40
1.0
 40
1.0
 40
1.0
 40
1.0
 10
188.708011502062
 20
199.1482947624848
 30
0.0
 10
188.6805735205389
 20
200.2746485226302
 30
0.0
 10
188.6255645263073
 20
202.5328170924461
 30
0.0
 10
188.3077184392471
 20
204.7746616816812
 30
0.0
 10
188.1484110636424
 20
205.8982947624848
 30
0.0
  0
LINE
  5
289
330
1F
100
AcDbEntity
  8
0
  6
Continuous
 62
     7
370
    25
100
AcDbLine
 10
188.7080115021
 20
212.6482947625
 30
0.0
 11
188.7080115021
 21
199.1482947625
 31
0.0
  0
LINE
  5
28A
330
1F
100
AcDbEntity
  8
0
  6
Continuous
 62
     7
370
    25
100
AcDbLine
 10
180.5250526377
 20
204.5707890443
 30
0.0
 11
180.5250526377
 21
207.2258004807
 31
0.0
  0
LINE
  5
28B
330
1F
100
AcDbEntity
  8
0
  6
Continuous
 62
     7
370
    25
100
AcDbLine
 10
180.5250526377
 20
204.5707890443
 30
0.0
 11
181.2321594189
 21
205.8982947625
 31
0.0
  0
LINE
  5
28C
330
1F
100
AcDbEntity
  8
0
  6
Continuous
 62
     7
370
    25
100
AcDbLine
 10
184.6471108689
 20
205.8982947625
 30
0.0
 11
183.9400040877
 21
204.5707890443
 31
0.0
  0
LINE
  5
28D
330
1F
100
AcDbEntity
  8
0
  6
Continuous
 62
     7
370
    25
100
AcDbLine
 10
183.9400040877
 20
207.2258004807
 30
0.0
 11
183.9400040877
 21
204.5707890443
 31
0.0
  0
LINE
  5
28E
330
1F
100
AcDbEntity
  8
0
  6
Continuous
 62
     7
370
    25
100
AcDbLine
 10
183.9400040877
 20
204.5707890443
 30
0.0
 11
183.2328973065
 21
205.8982947625
 31
0.0
  0
LINE
  5
28F
330
1F
100
AcDbEntity
  8
0
  6
Continuous
 62
     7
370
    25
100
AcDbLine
 10
179.8179458565
 20
205.8982947625
 30
0.0
 11
180.5250526377
 21
204.5707890443
 31
0.0
  0
SPLINE
  5
290
330
1F
100
AcDbEntity
  8
0
  6
Continuous
 62
     7
370
    25
100
AcDbSpline
210
0.0
220
0.0
230
1.0
 70
     8
 71
     3
 72
     9
 73
     5
 74
     0
 42
0.00000001
 43
0.00000001
 40
0.0
 40
0.0
 40
0.0
 40
0.0
 40
0.4989631660071374
 40
1.0
 40
1.0
 40
1.0
 40
1.0
 10
188.1484110636424
 20
192.3982947624848
 30
0.0
 10
188.307078655971
 20
193.5168793862633
 30
0.0
 10
188.6250732558495
 20
195.758697420107
 30
0.0
 10
188.680327227194
 20
198.0168680829556
 30
0.0
 10
188.708011502062
 20
199.1482947624848
 30
0.0
  0
LINE
  5
291
330
1F
100
AcDbEntity
  8
0
  6
Continuous
 62
     7
370
    25
100
AcDbLine
 10
184.6471108689
 20
192.3982947625
 30
0.0
 11
188.1484110636
 21
192.3982947625
 31
0.0
  0
LINE
  5
292
330
1F
100
AcDbEntity
  8
0
  6
Continuous
 62
     7
370
    25
100
AcDbLine
 10
183.9400040877
 20
193.7258004807
 30
0.0
 11
184.6471108689
 21
192.3982947625
 31
0.0
  0
LINE
  5
293
330
1F
100
AcDbEntity
  8
0
  6
Continuous
 62
     7
370
    25
100
AcDbLine
 10
183.2328973065
 20
192.3982947625
 30
0.0
 11
183.9400040877
 21
193.7258004807
 31
0.0
  0
LINE
  5
294
330
1F
100
AcDbEntity
  8
0
  6
Continuous
 62
     7
370
    25
100
AcDbLine
 10
181.2321594189
 20
192.3982947625
 30
0.0
 11
183.2328973065
 21
192.3982947625
 31
0.0
  0
LINE
  5
295
330
1F
100
AcDbEntity
  8
0
  6
Continuous
 62
     7
370
    25
100
AcDbLine
 10
181.2321594189
 20
192.3982947625
 30
0.0
 11
180.5250526377
 21
193.7258004807
 31
0.0
  0
LINE
  5
296
330
1F
100
AcDbEntity
  8
0
  6
Continuous
 62
     7
370
    25
100
AcDbLine
 10
180.5250526377
 20
193.7258004807
 30
0.0
 11
179.8179458565
 21
192.3982947625
 31
0.0
  0
LINE
  5
297
330
1F
100
AcDbEntity
  8
0
  6
Continuous
 62
     7
370
    25
100
AcDbLine
 10
175.0080115021
 20
192.3982947625
 30
0.0
 11
179.8179458565
 21
192.3982947625
 31
0.0
  0
LINE
  5
298
330
1F
100
AcDbEntity
  8
0
  6
Continuous
 62
     7
370
    25
100
AcDbLine
 10
175.0080115021
 20
192.3982947625
 30
0.0
 11
175.0080115021
 21
199.1482947625
 31
0.0
  0
LINE
  5
299
330
1F
100
AcDbEntity
  8
0
  6
Continuous
 62
     7
370
    25
100
AcDbLine
 10
175.0080115021
 20
199.1482947625
 30
0.0
 11
175.0080115021
 21
205.8982947625
 31
0.0
  0
SPLINE
  5
29A
330
1F
100
AcDbEntity
  8
0
  6
Continuous
 62
     7
370
    25
100
AcDbSpline
210
0.0
220
0.0
230
1.0
 70
    24
 71
     3
 72
     9
 73
     5
 74
     0
 42
0.00000001
 43
0.00000001
 40
0.0
 40
0.0
 40
0.0
 40
0.0
 40
0.4989631660071377
 40
1.0
 40
1.0
 40
1.0
 40
1.0
 10
188.1484110636424
 20
219.3982947624848
 30
0.0
 10
188.307078655971
 20
219.3982947624848
 30
0.0
 10
188.6250732558495
 20
219.3982947624848
 30
0.0
 10
188.680327227194
 20
219.3982947624848
 30
0.0
 10
188.708011502062
 20
219.3982947624848
 30
0.0
  0
LINE
  5
29B
330
1F
100
AcDbEntity
  8
0
  6
Continuous
 62
     7
370
    25
100
AcDbLine
 10
188.7080115021
 20
219.3982947625
 30
0.0
 11
188.7080115021
 21
212.6482947625
 31
0.0
  0
SPLINE
  5
29C
330
1F
100
AcDbEntity
  8
0
  6
Continuous
 62
     7
370
    25
100
AcDbSpline
210
0.0
220
0.0
230
1.0
 70
    24
 71
     3
 72
     9
 73
     5
 74
     0
 42
0.00000001
 43
0.00000001
 40
0.0
 40
0.0
 40
0.0
 40
0.0
 40
0.5133293787208691
 40
1.0
 40
1.0
 40
1.0
 40
1.0
 10
188.708011502062
 20
192.3982947624848
 30
0.0
 10
188.678960460812
 20
192.3982947624848
 30
0.0
 10
188.6223670873284
 20
192.3982947624848
 30
0.0
 10
188.3035634351259
 20
192.3982947624848
 30
0.0
 10
188.1484110636424
 20
192.3982947624848
 30
0.0
  0
LINE
  5
29D
330
1F
100
AcDbEntity
  8
0
  6
Continuous
 62
     7
370
    25
100
AcDbLine
 10
188.7080115021
 20
199.1482947625
 30
0.0
 11
188.7080115021
 21
192.3982947625
 31
0.0
  0
LINE
  5
29E
330
1F
100
AcDbEntity
  8
0
  6
Continuous
 62
     7
370
    25
100
AcDbLine
 10
180.5250526377
 20
219.3982947625
 30
0.0
 11
179.8179458565
 21
219.3982947625
 31
0.0
  0
LINE
  5
29F
330
1F
100
AcDbEntity
  8
0
  6
Continuous
 62
     7
370
    25
100
AcDbLine
 10
180.5250526377
 20
218.0707890443
 30
0.0
 11
180.5250526377
 21
219.3982947625
 31
0.0
  0
SPLINE
  5
2A0
330
1F
100
AcDbEntity
  8
0
  6
Continuous
 62
     7
370
    25
100
AcDbSpline
210
0.0
220
0.0
230
1.0
 70
    24
 71
     3
 72
     9
 73
     5
 74
     0
 42
0.00000001
 43
0.00000001
 40
0.0
 40
0.0
 40
0.0
 40
0.0
 40
0.5073544304940097
 40
0.9999999999999999
 40
0.9999999999999999
 40
0.9999999999999999
 40
0.9999999999999999
 10
181.2321594189104
 20
219.3982947624848
 30
0.0
 10
181.1062511640731
 20
219.3982947624848
 30
0.0
 10
180.8580848975153
 20
219.3982947624848
 30
0.0
 10
180.6349694663673
 20
219.3982947624848
 30
0.0
 10
180.5250526377238
 20
219.3982947624848
 30
0.0
  0
SPLINE
  5
2A1
330
1F
100
AcDbEntity
  8
0
  6
Continuous
 62
     7
370
    25
100
AcDbSpline
210
0.0
220
0.0
230
1.0
 70
    24
 71
     3
 72
     9
 73
     5
 74
     0
 42
0.00000001
 43
0.00000001
 40
0.0
 40
0.0
 40
0.0
 40
0.0
 40
0.5073544304941217
 40
1.0
 40
1.0
 40
1.0
 40
1.0
 10
183.2328973065157
 20
219.3982947624848
 30
0.0
 10
183.3588055613529
 20
219.3982947624848
 30
0.0
 10
183.6069718279106
 20
219.3982947624848
 30
0.0
 10
183.8300872590588
 20
219.3982947624848
 30
0.0
 10
183.9400040877023
 20
219.3982947624848
 30
0.0
  0
LINE
  5
2A2
330
1F
100
AcDbEntity
  8
0
  6
Continuous
 62
     7
370
    25
100
AcDbLine
 10
183.9400040877
 20
219.3982947625
 30
0.0
 11
183.9400040877
 21
218.0707890443
 31
0.0
  0
LINE
  5
2A3
330
1F
100
AcDbEntity
  8
0
  6
Continuous
 62
     7
370
    25
100
AcDbLine
 10
183.9400040877
 20
219.3982947625
 30
0.0
 11
184.6471108689
 21
219.3982947625
 31
0.0
  0
LINE
  5
2A4
330
1F
100
AcDbEntity
  8
0
  6
Continuous
 62
     7
370
    25
100
AcDbLine
 10
183.9400040877
 20
192.3982947625
 30
0.0
 11
183.2328973065
 21
192.3982947625
 31
0.0
  0
LINE
  5
2A5
330
1F
100
AcDbEntity
  8
0
  6
Continuous
 62
     7
370
    25
100
AcDbLine
 10
183.9400040877
 20
193.7258004807
 30
0.0
 11
183.9400040877
 21
192.3982947625
 31
0.0
  0
SPLINE
  5
2A6
330
1F
100
AcDbEntity
  8
0
  6
Continuous
 62
     7
370
    25
100
AcDbSpline
210
0.0
220
0.0
230
1.0
 70
    24
 71
     3
 72
     9
 73
     5
 74
     0
 42
0.00000001
 43
0.00000001
 40
0.0
 40
0.0
 40
0.0
 40
0.0
 40
0.5073544304939892
 40
1.0
 40
1.0
 40
1.0
 40
1.0
 10
184.6471108688888
 20
192.3982947624848
 30
0.0
 10
184.5212026140515
 20
192.3982947624848
 30
0.0
 10
184.2730363474938
 20
192.3982947624848
 30
0.0
 10
184.0499209163457
 20
192.3982947624848
 30
0.0
 10
183.9400040877022
 20
192.3982947624848
 30
0.0
  0
LINE
  5
2A7
330
1F
100
AcDbEntity
  8
0
  6
Continuous
 62
     7
370
    25
100
AcDbLine
 10
180.5250526377
 20
192.3982947625
 30
0.0
 11
180.5250526377
 21
193.7258004807
 31
0.0
  0
LINE
  5
2A8
330
1F
100
AcDbEntity
  8
0
  6
Continuous
 62
     7
370
    25
100
AcDbLine
 10
180.5250526377
 20
192.3982947625
 30
0.0
 11
181.2321594189
 21
192.3982947625
 31
0.0
  0
SPLINE
  5
2A9
330
1F
100
AcDbEntity
  8
0
  6
Continuous
 62
     7
370
    25
100
AcDbSpline
210
0.0
220
0.0
230
1.0
 70
    24
 71
     3
 72
     9
 73
     5
 74
     0
 42
0.00000001
 43
0.00000001
 40
0.0
 40
0.0
 40
0.0
 40
0.0
 40
0.5073544304939982
 40
1.0
 40
1.0
 40
1.0
 40
1.0
 10
179.8179458565373
 20
192.3982947624848
 30
0.0
 10
179.9438541113745
 20
192.3982947624848
 30
0.0
 10
180.1920203779323
 20
192.3982947624848
 30
0.0
 10
180.4151358090803
 20
192.3982947624848
 30
0.0
 10
180.5250526377238
 20
192.3982947624848
 30
0.0
  0
LINE
  5
2AA
330
1F
100
AcDbEntity
  8
0
  6
Continuous
 62
     7
370
    25
100
AcDbLine
 10
157.2221910472
 20
206.0795064358
 30
0.0
 11
157.4080115021
 21
205.8982947625
 31
0.0
  0
LINE
  5
2AB
330
1F
100
AcDbEntity
  8
0
  6
Continuous
 62
     7
370
    25
100
AcDbLine
 10
148.0080115021
 20
205.8982947625
 30
0.0
 11
148.1921859227
 21
206.0766554209
 31
0.0
  0
LINE
  5
2AC
330
1F
100
AcDbEntity
  8
0
  6
Continuous
 62
     7
370
    25
100
AcDbLine
 10
148.1938319569
 20
205.7170830892
 30
0.0
 11
148.0080115021
 21
205.8982947625
 31
0.0
  0
LINE
  5
2AD
330
1F
100
AcDbEntity
  8
0
  6
Continuous
 62
     7
370
    25
100
AcDbLine
 10
157.4080115021
 20
205.8982947625
 30
0.0
 11
157.2238370814
 21
205.7199341041
 31
0.0
  0
ARC
  5
2AE
330
1F
100
AcDbEntity
  8
0
  6
Continuous
 62
     7
370
    25
100
AcDbCircle
 10
164.1862723716
 20
202.398362276
 30
0.0
 40
1.000000000000051
100
AcDbArc
 50
343.0425737058
 51
45.0893868224
  0
ARC
  5
2AF
330
1F
100
AcDbEntity
  8
0
  6
Continuous
 62
     7
370
    25
100
AcDbCircle
 10
152.7080115021
 20
205.8982947625
 30
0.0
 40
13.00000000000003
100
AcDbArc
 50
286.9574262942
 51
343.0425737058
  0
ARC
  5
2B0
330
1F
100
AcDbEntity
  8
0
  6
Continuous
 62
     7
370
    25
100
AcDbCircle
 10
156.2079439886
 20
194.4200338929
 30
0.0
 40
1.000000000000059
100
AcDbArc
 50
224.9106131776
 51
286.9574262942
  0
ARC
  5
2B1
330
1F
100
AcDbEntity
  8
0
  6
Continuous
 62
     7
370
    25
100
AcDbCircle
 10
152.7080115021
 20
205.8982947625
 30
0.0
 40
13.00000000000004
100
AcDbArc
 50
16.9574262942
 51
133.197587207
  0
ARC
  5
2B2
330
1F
100
AcDbEntity
  8
0
  6
Continuous
 62
     7
370
    25
100
AcDbCircle
 10
164.1862723716
 20
209.398227249
 30
0.0
 40
1.000000000000059
100
AcDbArc
 50
314.9106131776
 51
16.9574262942
  0
ARC
  5
2B3
330
1F
100
AcDbEntity
  8
0
  6
Continuous
 62
     7
370
    25
100
AcDbCircle
 10
152.7080115021
 20
194.1347927062
 30
0.0
 40
2.090000000000017
100
AcDbArc
 50
195.9375024167
 51
344.0624975833
  0
ARC
  5
2B4
330
1F
100
AcDbEntity
  8
0
  6
Continuous
 62
     7
370
    25
100
AcDbCircle
 10
152.7080115021
 20
194.1347927062
 30
0.0
 40
2.50000000000002
100
AcDbArc
 50
191.3943424578
 51
348.6056575422
  0
LINE
  5
2B5
330
1F
100
AcDbEntity
  8
0
  6
Continuous
 62
     7
370
    25
100
AcDbLine
 10
174.2580115021
 20
190.8982947625
 30
0.0
 11
174.2580115021
 21
220.8982947625
 31
0.0
  0
LINE
  5
2B6
330
1F
100
AcDbEntity
  8
0
  6
Continuous
 62
     7
370
    25
100
AcDbLine
 10
131.1580115021
 20
220.8982947625
 30
0.0
 11
131.1580115021
 21
212.9461184375
 31
0.0
  0
LINE
  5
2B7
330
1F
100
AcDbEntity
  8
0
  6
Continuous
 62
     7
370
    25
100
AcDbLine
 10
131.1580115021
 20
198.8504710878
 30
0.0
 11
131.1580115021
 21
190.8982947625
 31
0.0
  0
LINE
  5
2B8
330
1F
100
AcDbEntity
  8
0
  6
Continuous
 62
     7
370
    25
100
AcDbLine
 10
174.2580115021
 20
221.8982947625
 30
0.0
 11
131.1580115021
 21
221.8982947625
 31
0.0
  0
LINE
  5
2B9
330
1F
100
AcDbEntity
  8
0
  6
Continuous
 62
     7
370
    25
100
AcDbLine
 10
174.2580115021
 20
220.8982947625
 30
0.0
 11
174.2580115021
 21
221.8982947625
 31
0.0
  0
LINE
  5
2BA
330
1F
100
AcDbEntity
  8
0
  6
Continuous
 62
     7
370
    25
100
AcDbLine
 10
131.1580115021
 20
221.8982947625
 30
0.0
 11
131.1580115021
 21
220.8982947625
 31
0.0
  0
LINE
  5
2BB
330
1F
100
AcDbEntity
  8
0
  6
Continuous
 62
     7
370
    25
100
AcDbLine
 10
131.1580115021
 20
189.8982947625
 30
0.0
 11
174.2580115021
 21
189.8982947625
 31
0.0
  0
LINE
  5
2BC
330
1F
100
AcDbEntity
  8
0
  6
Continuous
 62
     7
370
    25
100
AcDbLine
 10
174.2580115021
 20
189.8982947625
 30
0.0
 11
174.2580115021
 21
190.8982947625
 31
0.0
  0
LINE
  5
2BD
330
1F
100
AcDbEntity
  8
0
  6
Continuous
 62
     7
370
    25
100
AcDbLine
 10
131.1580115021
 20
190.8982947625
 30
0.0
 11
131.1580115021
 21
189.8982947625
 31
0.0
  0
SPLINE
  5
2BE
330
1F
100
AcDbEntity
  8
0
  6
PHANTOM
 62
     8
370
    18
100
AcDbSpline
210
0.0
220
0.0
230
1.0
 70
     8
 71
     3
 72
    19
 73
    15
 74
     0
 42
0.00000001
 43
0.00000001
 40
0.0
 40
0.0
 40
0.0
 40
0.0
 40
0.0785035252242152
 40
0.1626765933322123
 40
0.2500000000000002
 40
0.3373234066677879
 40
0.4214964747757848
 40
0.4999999999999998
 40
0.5785035252242152
 40
0.6626765933322123
 40
0.75
 40
0.8373234066677878
 40
0.9214964747757847
 40
1.0
 40
1.0
 40
1.0
 40
1.0
 10
151.258011502062
 20
208.4097684334597
 30
0.0
 10
151.0601999601265
 20
208.2757859518451
 30
0.0
 10
150.6502908806048
 20
207.9981447425746
 30
0.0
 10
150.1810273558831
 20
207.3875502906165
 30
0.0
 10
149.8711105095069
 20
206.6589290781638
 30
0.0
 10
149.7729132047079
 20
205.8706791531849
 30
0.0
 10
149.8834206995901
 20
205.1129330701693
 30
0.0
 10
150.1709811938508
 20
204.4335396310969
 30
0.0
 10
150.6155729241216
 20
203.8448082184061
 30
0.0
 10
151.2165465341902
 20
203.3702328790216
 30
0.0
 10
151.9482896461527
 20
203.0611492770714
 30
0.0
 10
152.734252549061
 20
202.9652345328676
 30
0.0
 10
153.4976746182274
 20
203.066331440367
 30
0.0
 10
153.9430734983539
 20
203.2825025118393
 30
0.0
 10
154.158011502062
 20
203.38682109151
 30
0.0
  0
SPLINE
  5
2BF
330
1F
100
AcDbEntity
  8
0
  6
PHANTOM
 62
     8
370
    18
100
AcDbSpline
210
0.0
220
0.0
230
1.0
 70
     8
 71
     3
 72
    19
 73
    15
 74
     0
 42
0.00000001
 43
0.00000001
 40
0.0
 40
0.0
 40
0.0
 40
0.0
 40
0.0785035252242149
 40
0.1626765933322117
 40
0.2499999999999992
 40
0.3373234066677867
 40
0.4214964747757835
 40
0.5
 40
0.578503525224214
 40
0.6626765933322113
 40
0.7499999999999992
 40
0.8373234066677873
 40
0.9214964747757846
 40
1.0
 40
1.0
 40
1.0
 40
1.0
 10
154.158011502062
 20
203.38682109151
 30
0.0
 10
154.3558230439975
 20
203.5208035731245
 30
0.0
 10
154.7657321235191
 20
203.7984447823951
 30
0.0
 10
155.2349956482408
 20
204.4090392343531
 30
0.0
 10
155.5449124946171
 20
205.1376604468059
 30
0.0
 10
155.6431097994161
 20
205.9259103717847
 30
0.0
 10
155.5326023045339
 20
206.6836564548004
 30
0.0
 10
155.2450418102732
 20
207.3630498938728
 30
0.0
 10
154.8004500800023
 20
207.9517813065636
 30
0.0
 10
154.1994764699338
 20
208.426356645948
 30
0.0
 10
153.4677333579714
 20
208.7354402478983
 30
0.0
 10
152.6817704550629
 20
208.8313549921021
 30
0.0
 10
151.9183483858966
 20
208.7302580846027
 30
0.0
 10
151.4729495057701
 20
208.5140870131303
 30
0.0
 10
151.258011502062
 20
208.4097684334597
 30
0.0
  0
SPLINE
  5
2C0
330
1F
100
AcDbEntity
  8
0
  6
PHANTOM
 62
     8
370
    18
100
AcDbSpline
210
0.0
220
0.0
230
1.0
 70
    24
 71
     3
 72
    11
 73
     7
 74
     0
 42
0.00000001
 43
0.00000001
 40
0.0
 40
0.0
 40
0.0
 40
0.0
 40
0.2702613318128834
 40
0.562429389642087
 40
0.7897364218595306
 40
0.9999999999999999
 40
0.9999999999999999
 40
0.9999999999999999
 40
0.9999999999999999
 10
151.008011502062
 20
208.8427811353519
 30
0.0
 10
151.0124188276451
 20
208.8351474235164
 30
0.0
 10
151.0215907259002
 20
208.8192612297368
 30
0.0
 10
151.0892153721499
 20
208.7021319065885
 30
0.0
 10
151.173316357958
 20
208.5564647262021
 30
0.0
 10
151.230522517432
 20
208.4573807514873
 30
0.0
 10
151.258011502062
 20
208.4097684334597
 30
0.0
  0
SPLINE
  5
2C1
330
1F
100
AcDbEntity
  8
0
  6
PHANTOM
 62
     8
370
    18
100
AcDbSpline
210
0.0
220
0.0
230
1.0
 70
     8
 71
     3
 72
    11
 73
     7
 74
     0
 42
0.00000001
 43
0.00000001
 40
0.0
 40
0.0
 40
0.0
 40
0.0
 40
0.2519805309852637
 40
0.5000202912600138
 40
0.7481632336563522
 40
1.0
 40
1.0
 40
1.0
 40
1.0
 10
155.1810877134153
 20
210.1817884115387
 30
0.0
 10
154.7732558774144
 20
210.1730197326051
 30
0.0
 10
153.9639703638674
 20
210.1556195097498
 30
0.0
 10
152.7078387888591
 20
210.1445588880183
 30
0.0
 10
151.4530447434852
 20
210.1567522038189
 30
0.0
 10
150.6429667130126
 20
210.1734020063419
 30
0.0
 10
150.2349352907087
 20
210.1817884115387
 30
0.0
  0
SPLINE
  5
2C2
330
1F
100
AcDbEntity
  8
0
  6
PHANTOM
 62
     8
370
    18
100
AcDbSpline
210
0.0
220
0.0
230
1.0
 70
     8
 71
     3
 72
    11
 73
     7
 74
     0
 42
0.00000001
 43
0.00000001
 40
0.0
 40
0.0
 40
0.0
 40
0.0
 40
0.2519805309852639
 40
0.5000202912600138
 40
0.7481632336563524
 40
1.0
 40
1.0
 40
1.0
 40
1.0
 10
150.2349352907087
 20
210.1817884115387
 30
0.0
 10
150.0386132714224
 20
209.8242113416231
 30
0.0
 10
149.6490395496731
 20
209.114649416549
 30
0.0
 10
149.03055254157
 20
208.0212772512303
 30
0.0
 10
148.3925957976434
 20
206.9406903893193
 30
0.0
 10
147.9731376304542
 20
206.2474671371439
 30
0.0
 10
147.7618590793554
 20
205.8982947624848
 30
0.0
  0
SPLINE
  5
2C3
330
1F
100
AcDbEntity
  8
0
  6
PHANTOM
 62
     8
370
    18
100
AcDbSpline
210
0.0
220
0.0
230
1.0
 70
     8
 71
     3
 72
    11
 73
     7
 74
     0
 42
0.00000001
 43
0.00000001
 40
0.0
 40
0.0
 40
0.0
 40
0.0
 40
0.2519805309852626
 40
0.5000202912600121
 40
0.7481632336563504
 40
1.0
 40
1.0
 40
1.0
 40
1.0
 10
155.1810877134153
 20
201.6148011134309
 30
0.0
 10
155.3774097327016
 20
201.9723781833465
 30
0.0
 10
155.7669834544509
 20
202.6819401084207
 30
0.0
 10
156.385470462554
 20
203.7753122737394
 30
0.0
 10
157.0234272064806
 20
204.8558991356503
 30
0.0
 10
157.4428853736698
 20
205.5491223878257
 30
0.0
 10
157.6541639247686
 20
205.8982947624848
 30
0.0
  0
SPLINE
  5
2C4
330
1F
100
AcDbEntity
  8
0
  6
PHANTOM
 62
     8
370
    18
100
AcDbSpline
210
0.0
220
0.0
230
1.0
 70
     8
 71
     3
 72
    11
 73
     7
 74
     0
 42
0.00000001
 43
0.00000001
 40
0.0
 40
0.0
 40
0.0
 40
0.0
 40
0.2519805309852629
 40
0.5000202912600126
 40
0.748163233656351
 40
1.0
 40
1.0
 40
1.0
 40
1.0
 10
150.2349352907087
 20
201.6148011134309
 30
0.0
 10
150.6427671267095
 20
201.6235697923645
 30
0.0
 10
151.4520526402566
 20
201.6409700152199
 30
0.0
 10
152.7081842152649
 20
201.6520306369513
 30
0.0
 10
153.9629782606388
 20
201.6398373211507
 30
0.0
 10
154.7730562911114
 20
201.6231875186277
 30
0.0
 10
155.1810877134153
 20
201.6148011134309
 30
0.0
  0
SPLINE
  5
2C5
330
1F
100
AcDbEntity
  8
0
  6
PHANTOM
 62
     8
370
    18
100
AcDbSpline
210
0.0
220
0.0
230
1.0
 70
     8
 71
     3
 72
    11
 73
     7
 74
     0
 42
0.00000001
 43
0.00000001
 40
0.0
 40
0.0
 40
0.0
 40
0.0
 40
0.2519803780325563
 40
0.5000207188848929
 40
0.7481636611739626
 40
1.0
 40
1.0
 40
1.0
 40
1.0
 10
157.6541639247686
 20
205.8982947624848
 30
0.0
 10
157.4426542098985
 20
206.2471041847145
 30
0.0
 10
157.0229420064871
 20
206.939268945395
 30
0.0
 10
156.3853008929638
 20
208.0215797201381
 30
0.0
 10
155.7684615410467
 20
209.114357129114
 30
0.0
 10
155.3778408405776
 20
209.8242300169216
 30
0.0
 10
155.1810877134153
 20
210.1817884115387
 30
0.0
  0
SPLINE
  5
2C6
330
1F
100
AcDbEntity
  8
0
  6
PHANTOM
 62
     8
370
    18
100
AcDbSpline
210
0.0
220
0.0
230
1.0
 70
     8
 71
     3
 72
    11
 73
     7
 74
     0
 42
0.00000001
 43
0.00000001
 40
0.0
 40
0.0
 40
0.0
 40
0.0
 40
0.2519803780325576
 40
0.5000207188848936
 40
0.7481636611739629
 40
1.0
 40
1.0
 40
1.0
 40
1.0
 10
147.7618590793554
 20
205.8982947624848
 30
0.0
 10
147.9733687942255
 20
205.5494853402552
 30
0.0
 10
148.3930809976369
 20
204.8573205795746
 30
0.0
 10
149.0307221111602
 20
203.7750098048315
 30
0.0
 10
149.6475614630774
 20
202.6822323958556
 30
0.0
 10
150.0381821635463
 20
201.972359508048
 30
0.0
 10
150.2349352907087
 20
201.6148011134309
 30
0.0
  0
SPLINE
  5
2C7
330
1F
100
AcDbEntity
  8
0
  6
PHANTOM
 62
     8
370
    18
100
AcDbSpline
210
0.0
220
0.0
230
1.0
 70
     8
 71
     3
 72
    23
 73
    19
 74
     0
 42
0.00000001
 43
0.00000001
 40
0.0
 40
0.0
 40
0.0
 40
0.0
 40
0.0582580162109017
 40
0.1200056648645963
 40
0.1843204068813872
 40
0.2499999999999993
 40
0.3156795931186113
 40
0.3799943351354023
 40
0.441741983789097
 40
0.5000000000000001
 40
0.5582580162109007
 40
0.6200056648645956
 40
0.6843204068813868
 40
0.7499999999999993
 40
0.8156795931186117
 40
0.8799943351354029
 40
0.9417419837890979
 40
1.0
 40
1.0
 40
1.0
 40
1.0
 10
156.033011502062
 20
200.1392258273183
 30
0.0
 10
156.3734793256841
 20
200.3607068537981
 30
0.0
 10
157.0748088627362
 20
200.8169355338373
 30
0.0
 10
157.9631631634708
 20
201.7570469359272
 30
0.0
 10
158.6885380114884
 20
202.8842524657995
 30
0.0
 10
159.1770636046208
 20
204.1650859176736
 30
0.0
 10
159.3936141129281
 20
205.5177912232956
 30
0.0
 10
159.3323626812232
 20
206.8586822037393
 30
0.0
 10
159.0212520198867
 20
208.1101685877497
 30
0.0
 10
158.4993000100453
 20
209.2418967415237
 30
0.0
 10
157.7801706836196
 20
210.2597845184897
 30
0.0
 10
156.8519070132446
 20
211.1549574466005
 30
0.0
 10
155.7212870763273
 20
211.878448232697
 30
0.0
 10
154.4415346636711
 20
212.3672626441115
 30
0.0
 10
153.0880375597649
 20
212.5846037959969
 30
0.0
 10
151.7491615116004
 20
212.5200135152836
 30
0.0
 10
150.4908240046359
 20
212.2207318243313
 30
0.0
 10
149.7450536092608
 20
211.8414769688393
 30
0.0
 10
149.383011502062
 20
211.6573636976513
 30
0.0
  0
SPLINE
  5
2C8
330
1F
100
AcDbEntity
  8
0
  6
PHANTOM
 62
     8
370
    18
100
AcDbSpline
210
0.0
220
0.0
230
1.0
 70
     8
 71
     3
 72
    23
 73
    19
 74
     0
 42
0.00000001
 43
0.00000001
 40
0.0
 40
0.0
 40
0.0
 40
0.0
 40
0.0582580162109019
 40
0.1200056648645968
 40
0.184320406881388
 40
0.2500000000000002
 40
0.3156795931186123
 40
0.3799943351354034
 40
0.4417419837890981
 40
0.4999999999999999
 40
0.558258016210902
 40
0.6200056648645967
 40
0.6843204068813877
 40
0.7500000000000001
 40
0.8156795931186123
 40
0.8799943351354033
 40
0.9417419837890979
 40
1.0
 40
1.0
 40
1.0
 40
1.0
 10
149.383011502062
 20
211.6573636976513
 30
0.0
 10
149.04254367844
 20
211.4358826711715
 30
0.0
 10
148.3412141413878
 20
210.9796539911323
 30
0.0
 10
147.4528598406533
 20
210.0395425890424
 30
0.0
 10
146.7274849926357
 20
208.9123370591701
 30
0.0
 10
146.2389593995032
 20
207.631503607296
 30
0.0
 10
146.0224088911959
 20
206.278798301674
 30
0.0
 10
146.0836603229008
 20
204.9379073212303
 30
0.0
 10
146.3947709842373
 20
203.6864209372199
 30
0.0
 10
146.9167229940788
 20
202.5546927834459
 30
0.0
 10
147.6358523205043
 20
201.5368050064799
 30
0.0
 10
148.5641159908795
 20
200.6416320783691
 30
0.0
 10
149.6947359277966
 20
199.9181412922727
 30
0.0
 10
150.974488340453
 20
199.4293268808582
 30
0.0
 10
152.3279854443591
 20
199.2119857289727
 30
0.0
 10
153.6668614925236
 20
199.2765760096861
 30
0.0
 10
154.9251989994881
 20
199.5758577006384
 30
0.0
 10
155.6709693948632
 20
199.9551125561303
 30
0.0
 10
156.033011502062
 20
200.1392258273183
 30
0.0
  0
LINE
  5
2C9
330
1F
100
AcDbEntity
  8
0
  6
PHANTOM
 62
     8
370
    18
100
AcDbLine
 10
150.2349352907
 20
210.1817884115
 30
0.0
 11
149.3830115021
 21
211.6573636977
 31
0.0
  0
SPLINE
  5
2CA
330
1F
100
AcDbEntity
  8
0
  6
PHANTOM
 62
     8
370
    18
100
AcDbSpline
210
0.0
220
0.0
230
1.0
 70
    24
 71
     3
 72
    10
 73
     6
 74
     0
 42
0.00000001
 43
0.00000001
 40
0.0
 40
0.0
 40
0.0
 40
0.0
 40
0.2765306019330318
 40
0.562668270406294
 40
1.0
 40
1.0
 40
1.0
 40
1.0
 10
149.383011502062
 20
211.6573636976513
 30
0.0
 10
149.3751180205752
 20
211.6710356086351
 30
0.0
 10
149.3590568268244
 20
211.6988544122416
 30
0.0
 10
149.3384630008858
 20
211.7345239650896
 30
0.0
 10
149.3350653537965
 20
211.7404088624744
 30
0.0
 10
149.333011502062
 20
211.7439662380298
 30
0.0
  0
LINE
  5
2CB
330
1F
100
AcDbEntity
  8
0
  6
PHANTOM
 62
     8
370
    18
100
AcDbLine
 10
55.7080115021
 20
210.6041771154
 30
0.0
 11
54.264660308
 21
210.6041771154
 31
0.0
  0
LINE
  5
2CC
330
1F
100
AcDbEntity
  8
0
  6
PHANTOM
 62
     8
370
    18
100
AcDbLine
 10
55.7080115021
 20
201.1924124095
 30
0.0
 11
54.264660308
 21
201.1924124095
 31
0.0
  0
LINE
  5
2CD
330
1F
100
AcDbEntity
  8
0
  6
PHANTOM
 62
     8
370
    18
100
AcDbLine
 10
120.2080115021
 20
200.9836954221
 30
0.0
 11
55.7080115021
 21
202.0521765289
 31
0.0
  0
LINE
  5
2CE
330
1F
100
AcDbEntity
  8
0
  6
PHANTOM
 62
     8
370
    18
100
AcDbLine
 10
120.2080115021
 20
210.8128941029
 30
0.0
 11
55.7080115021
 21
209.7444129961
 31
0.0
  0
LINE
  5
2CF
330
1F
100
AcDbEntity
  8
0
  6
PHANTOM
 62
     8
370
    18
100
AcDbLine
 10
120.2080115021
 20
211.8027837865
 30
0.0
 11
55.7080115021
 21
210.6041771154
 31
0.0
  0
LINE
  5
2D0
330
1F
100
AcDbEntity
  8
0
  6
PHANTOM
 62
     8
370
    18
100
AcDbLine
 10
120.2080115021
 20
199.9938057385
 30
0.0
 11
55.7080115021
 21
201.1924124095
 31
0.0
  0
LINE
  5
2D1
330
1F
100
AcDbEntity
  8
0
  6
PHANTOM
 62
     8
370
    18
100
AcDbLine
 10
140.2080115021
 20
199.2316280958
 30
0.0
 11
120.2080115021
 21
200.9836954221
 31
0.0
  0
LINE
  5
2D2
330
1F
100
AcDbEntity
  8
0
  6
PHANTOM
 62
     8
370
    18
100
AcDbLine
 10
140.2080115021
 20
212.5649614292
 30
0.0
 11
120.2080115021
 21
210.8128941029
 31
0.0
  0
LINE
  5
2D3
330
1F
100
AcDbEntity
  8
0
  6
PHANTOM
 62
     8
370
    18
100
AcDbLine
 10
140.2080115021
 20
213.3982947625
 30
0.0
 11
120.2080115021
 21
211.8027837865
 31
0.0
  0
LINE
  5
2D4
330
1F
100
AcDbEntity
  8
0
  6
PHANTOM
 62
     8
370
    18
100
AcDbLine
 10
140.2080115021
 20
198.3982947625
 30
0.0
 11
120.2080115021
 21
199.9938057385
 31
0.0
  0
LINE
  5
2D5
330
1F
100
AcDbEntity
  8
0
  6
PHANTOM
 62
     8
370
    18
100
AcDbLine
 10
145.1789325235
 20
197.9088027675
 30
0.0
 11
140.2080115021
 21
199.2316280958
 31
0.0
  0
LINE
  5
2D6
330
1F
100
AcDbEntity
  8
0
  6
PHANTOM
 62
     8
370
    18
100
AcDbLine
 10
145.224473435
 20
213.8999057734
 30
0.0
 11
140.2080115021
 21
212.5649614292
 31
0.0
  0
SPLINE
  5
2D7
330
1F
100
AcDbEntity
  8
0
  6
PHANTOM
 62
     8
370
    18
100
AcDbSpline
210
0.0
220
0.0
230
1.0
 70
    24
 71
     3
 72
     9
 73
     5
 74
     0
 42
0.00000001
 43
0.00000001
 40
0.0
 40
0.0
 40
0.0
 40
0.0
 40
0.5256915871068343
 40
1.0
 40
1.0
 40
1.0
 40
1.0
 10
146.8256585608855
 20
195.1467251419005
 30
0.0
 10
146.8256585608855
 20
195.0617059822177
 30
0.0
 10
146.8256585608855
 20
194.8999777716699
 30
0.0
 10
146.8256585608855
 20
194.8800060879955
 30
0.0
 10
146.8256585608855
 20
194.8705333504091
 30
0.0
  0
LINE
  5
2D8
330
1F
100
AcDbEntity
  8
0
  6
PHANTOM
 62
     8
370
    18
100
AcDbLine
 10
146.8256585609
 20
195.4389485174
 30
0.0
 11
146.8241299808
 21
195.1442106167
 31
0.0
  0
LINE
  5
2D9
330
1F
100
AcDbEntity
  8
0
  6
PHANTOM
 62
     8
370
    18
100
AcDbLine
 10
146.8256585609
 20
216.6529918771
 30
0.0
 11
146.8256585609
 21
216.3576410076
 31
0.0
  0
SPLINE
  5
2DA
330
1F
100
AcDbEntity
  8
0
  6
PHANTOM
 62
     8
370
    18
100
AcDbSpline
210
0.0
220
0.0
230
1.0
 70
    24
 71
     3
 72
     9
 73
     5
 74
     0
 42
0.00000001
 43
0.00000001
 40
0.0
 40
0.0
 40
0.0
 40
0.0
 40
0.4728306869979931
 40
1.0
 40
1.0
 40
1.0
 40
1.0
 10
146.8256585608855
 20
216.9276211621336
 30
0.0
 10
146.8256585608855
 20
216.9169791108433
 30
0.0
 10
146.8256585608855
 20
216.8944720029439
 30
0.0
 10
146.8256585608855
 20
216.7363512228171
 30
0.0
 10
146.8256585608855
 20
216.6529947997862
 30
0.0
  0
LINE
  5
2DB
330
1F
100
AcDbEntity
  8
0
  6
PHANTOM
 62
     8
370
    18
100
AcDbLine
 10
174.2580115021
 20
190.8982947625
 30
0.0
 11
131.1580115021
 21
190.8982947625
 31
0.0
  0
LINE
  5
2DC
330
1F
100
AcDbEntity
  8
0
  6
PHANTOM
 62
     8
370
    18
100
AcDbLine
 10
131.1580115021
 20
220.8982947625
 30
0.0
 11
174.2580115021
 21
220.8982947625
 31
0.0
  0
POINT
  5
2DD
330
1F
100
AcDbEntity
  8
0
  6
Continuous
 62
     7
370
     0
100
AcDbPoint
 10
37.7080115021
 20
123.2184805678
 30
0.0
  0
LINE
  5
2DE
330
1F
100
AcDbEntity
  8
0
  6
Continuous
 62
     7
370
    25
100
AcDbLine
 10
279.6185140073
 20
96.7184805808
 30
0.0
 11
279.6185140073
 21
94.2184805808
 31
0.0
  0
ARC
  5
2DF
330
1F
100
AcDbEntity
  8
0
  6
Continuous
 62
     7
370
    25
100
AcDbCircle
 10
284.0685140073
 20
97.7030105269
 30
0.0
 40
0.1999999999999859
100
AcDbArc
 50
120.0
 51
178.6951043494
  0
ARC
  5
2E0
330
1F
100
AcDbEntity
  8
0
  6
Continuous
 62
     7
370
    25
100
AcDbCircle
 10
297.1685140073
 20
97.7030105269
 30
0.0
 40
0.1999999999999886
100
AcDbArc
 50
0.0
 51
60.0
  0
LINE
  5
2E1
330
1F
100
AcDbEntity
  8
0
  6
Continuous
 62
     7
370
    25
100
AcDbLine
 10
283.8685140073
 20
97.7030105269
 30
0.0
 11
283.8685140073
 21
96.8184805808
 31
0.0
  0
LINE
  5
2E2
330
1F
100
AcDbEntity
  8
0
  6
Continuous
 62
     7
370
    25
100
AcDbLine
 10
297.3685140073
 20
96.8184805808
 30
0.0
 11
297.3685140073
 21
97.7030105269
 31
0.0
  0
LINE
  5
2E3
330
1F
100
AcDbEntity
  8
0
  6
Continuous
 62
     7
370
    25
100
AcDbLine
 10
297.2685573086
 20
97.8761906077
 30
0.0
 11
294.8688968066
 21
99.2616352444
 31
0.0
  0
LINE
  5
2E4
330
1F
100
AcDbEntity
  8
0
  6
Continuous
 62
     7
370
    25
100
AcDbLine
 10
286.368131208
 20
99.2616352444
 30
0.0
 11
283.968470706
 21
97.8761906077
 31
0.0
  0
LWPOLYLINE
  5
2E5
330
1F
100
AcDbEntity
  8
0
  6
Continuous
 62
     7
370
    25
100
AcDbPolyline
 90
        3
 70
   128
 43
0.0
 10
288.105477836
 20
96.8197672792
 10
288.1121628047
 20
96.7894779351
 10
288.1184302109
 20
96.7102933884
  0
LWPOLYLINE
  5
2E6
330
1F
100
AcDbEntity
  8
0
  6
Continuous
 62
     7
370
    25
100
AcDbPolyline
 90
        3
 70
   128
 43
0.0
 10
293.1185978037
 20
96.7266677731
 10
293.1276604292
 20
96.8035304511
 10
293.1317049909
 20
96.8203569021
  0
SPLINE
  5
2E7
330
1F
100
AcDbEntity
  8
0
  6
Continuous
 62
     7
370
    25
100
AcDbSpline
210
0.0
220
0.0
230
1.0
 70
     8
 71
     3
 72
    11
 73
     7
 74
     0
 42
0.00000001
 43
0.00000001
 40
0.0
 40
0.0
 40
0.0
 40
0.0
 40
0.2467930846929607
 40
0.4997776482931378
 40
0.7532316419085024
 40
1.0
 40
1.0
 40
1.0
 40
1.0
 10
294.8686120224492
 20
99.2612710132076
 30
0.0
 10
294.8307605469968
 20
99.28355382194287
 30
0.0
 10
294.7541079883989
 20
99.3286784645597
 30
0.0
 10
294.6660169186679
 20
99.43294669500229
 30
0.0
 10
294.6196404089764
 20
99.56134225958604
 30
0.0
 10
294.6188861140646
 20
99.65036670947138
 30
0.0
 10
294.6185140073079
 20
99.69428401395255
 30
0.0
  0
SPLINE
  5
2E8
330
1F
100
AcDbEntity
  8
0
  6
Continuous
 62
     7
370
    25
100
AcDbSpline
210
0.0
220
0.0
230
1.0
 70
     8
 71
     3
 72
    11
 73
     7
 74
     0
 42
0.00000001
 43
0.00000001
 40
0.0
 40
0.0
 40
0.0
 40
0.0
 40
0.2467683580915212
 40
0.5002223517068963
 40
0.7532069153070713
 40
1.0
 40
1.0
 40
1.0
 40
1.0
 10
286.618514007308
 20
99.69428401395255
 30
0.0
 10
286.6181419005513
 20
99.65036670947136
 30
0.0
 10
286.6173876056395
 20
99.56134225958604
 30
0.0
 10
286.5710110959479
 20
99.43294669500233
 30
0.0
 10
286.482920026217
 20
99.3286784645597
 30
0.0
 10
286.4062674676191
 20
99.28355382194286
 30
0.0
 10
286.3684159921668
 20
99.2612710132076
 30
0.0
  0
ARC
  5
2E9
330
1F
100
AcDbEntity
  8
0
  6
Continuous
 62
     7
370
    25
100
AcDbCircle
 10
282.6185140073
 20
89.7184805808
 30
0.0
 40
20.50000000000022
100
AcDbArc
 50
347.3171181807
 51
12.6813391242
  0
ARC
  5
2EA
330
1F
100
AcDbEntity
  8
0
  6
Continuous
 62
     7
370
    25
100
AcDbCircle
 10
298.6185140073
 20
89.7184805808
 30
0.0
 40
20.50000000000022
100
AcDbArc
 50
167.3171181807
 51
192.6813391242
  0
SPLINE
  5
2EB
330
1F
100
AcDbEntity
  8
0
  6
Continuous
 62
     7
370
    25
100
AcDbSpline
210
0.0
220
0.0
230
1.0
 70
     8
 71
     3
 72
    19
 73
    15
 74
     0
 42
0.00000001
 43
0.00000001
 40
0.0
 40
0.0
 40
0.0
 40
0.0
 40
0.110479709518197
 40
0.2012351552188433
 40
0.272269498258137
 40
0.3247298019545409
 40
0.3730959082063328
 40
0.4689292010386528
 40
0.5696483310569641
 40
0.6540874840784003
 40
0.7456577068672038
 40
0.8436081109529637
 40
0.9442454001567131
 40
1.0
 40
1.0
 40
1.0
 40
1.0
 10
284.1193365541453
 20
112.2816757013221
 30
0.0
 10
284.0933294926036
 20
111.6974137333402
 30
0.0
 10
284.0459584858465
 20
110.633199785566
 30
0.0
 10
283.9818636938336
 20
109.1934143717031
 30
0.0
 10
283.9314177373095
 20
108.0605013795381
 30
0.0
 10
283.8909408273341
 20
107.1517265944001
 30
0.0
 10
283.8446263666208
 20
106.1120970540493
 30
0.0
 10
283.7869242529295
 20
104.8174974429503
 30
0.0
 10
283.7207894352674
 20
103.3342739294909
 30
0.0
 10
283.6557667210934
 20
101.8780820700021
 30
0.0
 10
283.5917485702398
 20
100.440571400605
 30
0.0
 10
283.5226905416111
 20
98.91544189527366
 30
0.0
 10
283.4717636713003
 20
97.67682751473852
 30
0.0
 10
283.4520345896888
 20
96.9703454600474
 30
0.0
 10
283.4450010596431
 20
96.71848058076378
 30
0.0
  0
SPLINE
  5
2EC
330
1F
100
AcDbEntity
  8
0
  6
Continuous
 62
     7
370
    25
100
AcDbSpline
210
0.0
220
0.0
230
1.0
 70
     8
 71
     3
 72
    19
 73
    15
 74
     0
 42
0.00000001
 43
0.00000001
 40
0.0
 40
0.0
 40
0.0
 40
0.0
 40
0.0580340239017585
 40
0.1180805690765068
 40
0.1758805957037918
 40
0.231432646657254
 40
0.2847350154565582
 40
0.3523021252126188
 40
0.4222728948862157
 40
0.5072125225579394
 40
0.6074534831932676
 40
0.7229974003094517
 40
0.8538457768688067
 40
1.0
 40
1.0
 40
1.0
 40
1.0
 10
297.8128236771854
 20
96.71848058076378
 30
0.0
 10
297.799368243118
 20
97.01592029422726
 30
0.0
 10
297.771990763408
 20
97.62111442467695
 30
0.0
 10
297.7314417365207
 20
98.52463504645729
 30
0.0
 10
297.6914814608353
 20
99.41701870977377
 30
0.0
 10
297.6530582004003
 20
100.2765130164092
 30
0.0
 10
297.6123209641266
 20
101.1883553838824
 30
0.0
 10
297.5681476811226
 20
102.177518735895
 30
0.0
 10
297.516509596544
 20
103.3343293162163
 30
0.0
 10
297.4572985154194
 20
104.6619993491575
 30
0.0
 10
297.387501105647
 20
106.2281515097696
 30
0.0
 10
297.3070514731849
 20
108.0343891165869
 30
0.0
 10
297.2159412840447
 20
110.0807726369685
 30
0.0
 10
297.1516293228793
 20
111.5254504153013
 30
0.0
 10
297.1176965557043
 20
112.2877023169188
 30
0.0
  0
LWPOLYLINE
  5
2ED
330
1F
100
AcDbEntity
  8
0
  6
Continuous
 62
     7
370
    25
100
AcDbPolyline
 90
        3
 70
   128
 43
0.0
 10
285.1247858891
 20
123.3577947378
 10
284.6721579248
 20
118.3760700138
 10
284.1245335994
 20
112.3494681923
  0
LWPOLYLINE
  5
2EE
330
1F
100
AcDbEntity
  8
0
  6
Continuous
 62
     7
370
    25
100
AcDbPolyline
 90
        3
 70
   128
 43
0.0
 10
297.1124495018
 20
112.3481364791
 10
296.6598811386
 20
117.3277355691
 10
296.1121823339
 20
123.3548602378
  0
ARC
  5
2EF
330
1F
100
AcDbEntity
  8
0
  6
Continuous
 62
     7
370
    25
100
AcDbCircle
 10
290.6185140073
 20
123.2184805808
 30
0.0
 40
8.999999999999993
100
AcDbArc
 50
180.0001715484
 51
227.2185443961
  0
ARC
  5
2F0
330
1F
100
AcDbEntity
  8
0
  6
Continuous
 62
     7
370
    25
100
AcDbCircle
 10
290.6185140073
 20
123.2184805808
 30
0.0
 40
9.000000000000057
100
AcDbArc
 50
313.0300490284
 51
0.0
  0
ARC
  5
2F1
330
1F
100
AcDbEntity
  8
0
  6
Continuous
 62
     7
370
    25
100
AcDbCircle
 10
290.6185140073
 20
123.2184805808
 30
0.0
 40
9.000000000000057
100
AcDbArc
 50
0.0
 51
180.0001715484
  0
LINE
  5
2F2
330
1F
100
AcDbEntity
  8
0
  6
Continuous
 62
     7
370
    25
100
AcDbLine
 10
303.6185140073
 20
82.0184805808
 30
0.0
 11
303.6185140073
 21
85.0184805808
 31
0.0
  0
ARC
  5
2F3
330
1F
100
AcDbEntity
  8
0
  6
Continuous
 62
     7
370
    25
100
AcDbCircle
 10
297.2185140073
 20
81.6184805808
 30
0.0
 40
0.4000000000000057
100
AcDbArc
 50
14.4775121859
 51
90.0
  0
LINE
  5
2F4
330
1F
100
AcDbEntity
  8
0
  6
Continuous
 62
     7
370
    25
100
AcDbLine
 10
278.1402531377
 20
85.0184805808
 30
0.0
 11
278.1402531377
 21
82.0184805808
 31
0.0
  0
LINE
  5
2F5
330
1F
100
AcDbEntity
  8
0
  6
Continuous
 62
     7
370
    25
100
AcDbLine
 10
276.765011951
 20
84.4184805808
 30
0.0
 11
276.355011951
 21
82.4684805808
 31
0.0
  0
LINE
  5
2F6
330
1F
100
AcDbEntity
  8
0
  6
Continuous
 62
     7
370
    25
100
AcDbLine
 10
281.355011951
 20
81.7184805808
 30
0.0
 11
281.355011951
 21
82.0184805808
 31
0.0
  0
LINE
  5
2F7
330
1F
100
AcDbEntity
  8
0
  6
Continuous
 62
     7
370
    25
100
AcDbLine
 10
276.355011951
 20
82.4684805808
 30
0.0
 11
276.355011951
 21
81.7184805808
 31
0.0
  0
ARC
  5
2F8
330
1F
100
AcDbEntity
  8
0
  6
Continuous
 62
     7
370
    25
100
AcDbCircle
 10
278.855011951
 20
80.3003805808
 30
0.0
 40
4.618099999999996
100
AcDbArc
 50
98.9036516085
 51
116.9085043614
  0
LINE
  5
2F9
330
1F
100
AcDbEntity
  8
0
  6
Continuous
 62
     7
370
    25
100
AcDbLine
 10
296.3185140073
 20
85.0184805808
 30
0.0
 11
296.3185140073
 21
85.2184805808
 31
0.0
  0
LINE
  5
2FA
330
1F
100
AcDbEntity
  8
0
  6
Continuous
 62
     7
370
    25
100
AcDbLine
 10
284.9185140073
 20
85.2184805808
 30
0.0
 11
284.9185140073
 21
85.0184805808
 31
0.0
  0
SPLINE
  5
2FB
330
1F
100
AcDbEntity
  8
0
  6
Continuous
 62
     7
370
    25
100
AcDbSpline
210
0.0
220
0.0
230
1.0
 70
    24
 71
     3
 72
    15
 73
    11
 74
     0
 42
0.00000001
 43
0.00000001
 40
0.0
 40
0.0
 40
0.0
 40
0.0
 40
0.1166861874920779
 40
0.2402176277976582
 40
0.36877458467433
 40
0.4999999999999994
 40
0.6312254153256692
 40
0.759782372202341
 40
0.8833138125079216
 40
1.0
 40
1.0
 40
1.0
 40
1.0
 10
290.4453089265511
 20
96.71848058076377
 30
0.0
 10
289.7807826910261
 20
96.71848058076377
 30
0.0
 10
288.4127465991968
 20
96.71848058076377
 30
0.0
 10
286.3909019073863
 20
96.7184805807638
 30
0.0
 10
284.4515950432274
 20
96.71848058076377
 30
0.0
 10
282.7251042019391
 20
96.7184805807638
 30
0.0
 10
281.321830435409
 20
96.71848058076377
 30
0.0
 10
280.3265244299647
 20
96.71848058076378
 30
0.0
 10
279.7257913366799
 20
96.71848058076378
 30
0.0
 10
279.6535872736405
 20
96.71848058076378
 30
0.0
 10
279.618514007308
 20
96.71848058076378
 30
0.0
  0
SPLINE
  5
2FC
330
1F
100
AcDbEntity
  8
0
  6
Continuous
 62
     7
370
    25
100
AcDbSpline
210
0.0
220
0.0
230
1.0
 70
    24
 71
     3
 72
     9
 73
     5
 74
     0
 42
0.00000001
 43
0.00000001
 40
0.0
 40
0.0
 40
0.0
 40
0.0
 40
0.560012142875534
 40
1.0
 40
1.0
 40
1.0
 40
1.0
 10
290.618514007308
 20
96.41848058076377
 30
0.0
 10
290.5861813087243
 20
96.47448245745647
 30
0.0
 10
290.5284455988919
 20
96.57448364029716
 30
0.0
 10
290.4707113118079
 20
96.67448235886563
 30
0.0
 10
290.4453089265511
 20
96.71848058076378
 30
0.0
  0
SPLINE
  5
2FD
330
1F
100
AcDbEntity
  8
0
  6
Continuous
 62
     7
370
    25
100
AcDbSpline
210
0.0
220
0.0
230
1.0
 70
    24
 71
     3
 72
     9
 73
     5
 74
     0
 42
0.00000001
 43
0.00000001
 40
0.0
 40
0.0
 40
0.0
 40
0.0
 40
0.5599892317494959
 40
0.9999999999999999
 40
0.9999999999999999
 40
0.9999999999999999
 40
0.9999999999999999
 10
290.7917190880648
 20
96.71848058076377
 30
0.0
 10
290.7593884338266
 20
96.66248224498128
 30
0.0
 10
290.7016540125107
 20
96.56248329391656
 30
0.0
 10
290.6439183295312
 20
96.46248215758635
 30
0.0
 10
290.618514007308
 20
96.41848058076377
 30
0.0
  0
SPLINE
  5
2FE
330
1F
100
AcDbEntity
  8
0
  6
Continuous
 62
     7
370
    25
100
AcDbSpline
210
0.0
220
0.0
230
1.0
 70
    24
 71
     3
 72
    16
 73
    12
 74
     0
 42
0.00000001
 43
0.00000001
 40
0.0
 40
0.0
 40
0.0
 40
0.0
 40
0.10419971973968
 40
0.2140295189846907
 40
0.3282478159868175
 40
0.4452432110273845
 40
0.5631474462051599
 40
0.6779433660941541
 40
0.7899685176331017
 40
0.8977094860753314
 40
1.0
 40
1.0
 40
1.0
 40
1.0
 10
301.6185140073079
 20
96.71848058076378
 30
0.0
 10
301.5905648264525
 20
96.71848058076378
 30
0.0
 10
301.5331563252639
 20
96.7184805807638
 30
0.0
 10
301.055603144447
 20
96.71848058076378
 30
0.0
 10
300.2616514989384
 20
96.71848058076378
 30
0.0
 10
299.1291720284303
 20
96.71848058076377
 30
0.0
 10
297.7153310564767
 20
96.7184805807638
 30
0.0
 10
296.0928700287732
 20
96.7184805807638
 30
0.0
 10
294.3517560601697
 20
96.71848058076378
 30
0.0
 10
292.5706138766265
 20
96.71848058076377
 30
0.0
 10
291.3743359523923
 20
96.71848058076378
 30
0.0
 10
290.7917190880648
 20
96.71848058076378
 30
0.0
  0
LINE
  5
2FF
330
1F
100
AcDbEntity
  8
0
  6
Continuous
 62
     7
370
    25
100
AcDbLine
 10
301.6185140073
 20
96.7184805808
 30
0.0
 11
301.6185140073
 21
94.2184805808
 31
0.0
  0
SPLINE
  5
300
330
1F
100
AcDbEntity
  8
0
  6
Continuous
 62
     7
370
    25
100
AcDbSpline
210
0.0
220
0.0
230
1.0
 70
    24
 71
     3
 72
    21
 73
    17
 74
     0
 42
0.00000001
 43
0.00000001
 40
0.0
 40
0.0
 40
0.0
 40
0.0
 40
0.0354079235236674
 40
0.1122352021266088
 40
0.1922564938022173
 40
0.2739759520985377
 40
0.3556954103948582
 40
0.4357167020704668
 40
0.5125439806734082
 40
0.5850294103193504
 40
0.6575148399652893
 40
0.7343421185682311
 40
0.8143634102438401
 40
0.896082868540161
 40
0.9778023268364817
 40
1.0
 40
1.0
 40
1.0
 40
1.0
 10
285.2181065933432
 20
97.87621560768274
 30
0.0
 10
285.3282951066499
 20
97.87621560768274
 30
0.0
 10
285.6775680611831
 20
97.87621560768272
 30
0.0
 10
286.4814627079349
 20
97.87621560768272
 30
0.0
 10
287.6033009668049
 20
97.87621560768272
 30
0.0
 10
288.885621575012
 20
97.87621560768275
 30
0.0
 10
290.2379287122605
 20
97.87621560768272
 30
0.0
 10
291.5789179613218
 20
97.87621560768274
 30
0.0
 10
292.8303986604835
 20
97.87621560768272
 30
0.0
 10
293.962061166991
 20
97.87621560768272
 30
0.0
 10
294.9802187801415
 20
97.87621560768272
 30
0.0
 10
295.8743038214916
 20
97.87621560768274
 30
0.0
 10
296.6021005107771
 20
97.87621560768272
 30
0.0
 10
297.074386336658
 20
97.87621560768272
 30
0.0
 10
297.2870009863917
 20
97.87621560768272
 30
0.0
 10
297.2493738879961
 20
97.87621560768274
 30
0.0
 10
297.2413363871476
 20
97.87621560768274
 30
0.0
  0
SPLINE
  5
301
330
1F
100
AcDbEntity
  8
0
  6
Continuous
 62
     7
370
    25
100
AcDbSpline
210
0.0
220
0.0
230
1.0
 70
     8
 71
     3
 72
     9
 73
     5
 74
     0
 42
0.00000001
 43
0.00000001
 40
0.0
 40
0.0
 40
0.0
 40
0.0
 40
0.5598886773269508
 40
0.9999999999999999
 40
0.9999999999999999
 40
0.9999999999999999
 40
0.9999999999999999
 10
297.1519624031781
 20
97.11753821271667
 30
0.0
 10
297.2213988084586
 20
97.06232051920314
 30
0.0
 10
297.3454170429619
 20
96.96369788983128
 30
0.0
 10
297.3614553616546
 20
96.8628603318028
 30
0.0
 10
297.368514007308
 20
96.81848058076378
 30
0.0
  0
SPLINE
  5
302
330
1F
100
AcDbEntity
  8
0
  6
Continuous
 62
     7
370
    25
100
AcDbSpline
210
0.0
220
0.0
230
1.0
 70
     8
 71
     3
 72
     9
 73
     5
 74
     0
 42
0.00000001
 43
0.00000001
 40
0.0
 40
0.0
 40
0.0
 40
0.0
 40
0.5600038649198178
 40
1.0
 40
1.0
 40
1.0
 40
1.0
 10
297.1385133347592
 20
96.81848058076378
 30
0.0
 10
297.1410505863187
 20
96.8743050769417
 30
0.0
 10
297.1455813614053
 20
96.97399098926284
 30
0.0
 10
297.1500126523076
 20
97.07367682865977
 30
0.0
 10
297.1519624031781
 20
97.11753821271667
 30
0.0
  0
SPLINE
  5
303
330
1F
100
AcDbEntity
  8
0
  6
Continuous
 62
     7
370
    25
100
AcDbSpline
210
0.0
220
0.0
230
1.0
 70
     8
 71
     3
 72
     9
 73
     5
 74
     0
 42
0.00000001
 43
0.00000001
 40
0.0
 40
0.0
 40
0.0
 40
0.0
 40
0.5598886773269472
 40
1.0
 40
1.0
 40
1.0
 40
1.0
 10
296.4903730655921
 20
97.11753821271667
 30
0.0
 10
296.6384939870362
 20
97.06232051920314
 30
0.0
 10
296.9030482233376
 20
96.96369788983128
 30
0.0
 10
297.066553021692
 20
96.8628603318028
 30
0.0
 10
297.1385133347592
 20
96.81848058076378
 30
0.0
  0
SPLINE
  5
304
330
1F
100
AcDbEntity
  8
0
  6
Continuous
 62
     7
370
    25
100
AcDbSpline
210
0.0
220
0.0
230
1.0
 70
     8
 71
     3
 72
     9
 73
     5
 74
     0
 42
0.00000001
 43
0.00000001
 40
0.0
 40
0.0
 40
0.0
 40
0.0
 40
0.5600038649198417
 40
1.0
 40
1.0
 40
1.0
 40
1.0
 10
296.4641854828529
 20
96.81848058076378
 30
0.0
 10
296.4690978420331
 20
96.87430507694168
 30
0.0
 10
296.4778698514565
 20
96.97399098926283
 30
0.0
 10
296.4865526623551
 20
97.07367682865979
 30
0.0
 10
296.4903730655921
 20
97.11753821271668
 30
0.0
  0
SPLINE
  5
305
330
1F
100
AcDbEntity
  8
0
  6
Continuous
 62
     7
370
    25
100
AcDbSpline
210
0.0
220
0.0
230
1.0
 70
     8
 71
     3
 72
     9
 73
     5
 74
     0
 42
0.00000001
 43
0.00000001
 40
0.0
 40
0.0
 40
0.0
 40
0.0
 40
0.5598886773269507
 40
0.9999999999999999
 40
0.9999999999999999
 40
0.9999999999999999
 40
0.9999999999999999
 10
295.42862623689
 20
97.11753821271668
 30
0.0
 10
295.6453374784826
 20
97.06232051920314
 30
0.0
 10
296.0323987825747
 20
96.96369788983128
 30
0.0
 10
296.3322274787874
 20
96.8628603318028
 30
0.0
 10
296.4641854828529
 20
96.81848058076378
 30
0.0
  0
SPLINE
  5
306
330
1F
100
AcDbEntity
  8
0
  6
Continuous
 62
     7
370
    25
100
AcDbSpline
210
0.0
220
0.0
230
1.0
 70
     8
 71
     3
 72
     9
 73
     5
 74
     0
 42
0.00000001
 43
0.00000001
 40
0.0
 40
0.0
 40
0.0
 40
0.0
 40
0.5600038649198171
 40
1.0
 40
1.0
 40
1.0
 40
1.0
 10
295.3914847803172
 20
96.81848058076378
 30
0.0
 10
295.3984374779579
 20
96.87430507694168
 30
0.0
 10
295.4108529237724
 20
96.97399098926283
 30
0.0
 10
295.4231955354535
 20
97.07367682865977
 30
0.0
 10
295.42862623689
 20
97.11753821271667
 30
0.0
  0
SPLINE
  5
307
330
1F
100
AcDbEntity
  8
0
  6
Continuous
 62
     7
370
    25
100
AcDbSpline
210
0.0
220
0.0
230
1.0
 70
     8
 71
     3
 72
     9
 73
     5
 74
     0
 42
0.00000001
 43
0.00000001
 40
0.0
 40
0.0
 40
0.0
 40
0.0
 40
0.5598886773269495
 40
1.0
 40
1.0
 40
1.0
 40
1.0
 10
294.0390782088282
 20
97.11753821271667
 30
0.0
 10
294.3096112575871
 20
97.06232051920315
 30
0.0
 10
294.792802041245
 20
96.9636978898313
 30
0.0
 10
295.2085218051594
 20
96.8628603318028
 30
0.0
 10
295.3914847803172
 20
96.81848058076378
 30
0.0
  0
SPLINE
  5
308
330
1F
100
AcDbEntity
  8
0
  6
Continuous
 62
     7
370
    25
100
AcDbSpline
210
0.0
220
0.0
230
1.0
 70
     8
 71
     3
 72
     9
 73
     5
 74
     0
 42
0.00000001
 43
0.00000001
 40
0.0
 40
0.0
 40
0.0
 40
0.0
 40
0.5600038649198408
 40
1.0
 40
1.0
 40
1.0
 40
1.0
 10
293.993514007308
 20
96.81848058076378
 30
0.0
 10
294.002033228555
 20
96.87430507694168
 30
0.0
 10
294.0172460186458
 20
96.97399098926284
 30
0.0
 10
294.0324073025204
 20
97.07367682865977
 30
0.0
 10
294.0390782088282
 20
97.11753821271667
 30
0.0
  0
SPLINE
  5
309
330
1F
100
AcDbEntity
  8
0
  6
Continuous
 62
     7
370
    25
100
AcDbSpline
210
0.0
220
0.0
230
1.0
 70
     8
 71
     3
 72
     9
 73
     5
 74
     0
 42
0.00000001
 43
0.00000001
 40
0.0
 40
0.0
 40
0.0
 40
0.0
 40
0.5598886773269491
 40
1.0
 40
1.0
 40
1.0
 40
1.0
 10
292.4164243831823
 20
97.11753821271667
 30
0.0
 10
292.7223428589116
 20
97.06232051920313
 30
0.0
 10
293.2687344687397
 20
96.96369788983128
 30
0.0
 10
293.7720146854545
 20
96.8628603318028
 30
0.0
 10
293.993514007308
 20
96.81848058076378
 30
0.0
  0
SPLINE
  5
30A
330
1F
100
AcDbEntity
  8
0
  6
Continuous
 62
     7
370
    25
100
AcDbSpline
210
0.0
220
0.0
230
1.0
 70
     8
 71
     3
 72
     9
 73
     5
 74
     0
 42
0.00000001
 43
0.00000001
 40
0.0
 40
0.0
 40
0.0
 40
0.0
 40
0.5600038649198402
 40
1.0
 40
1.0
 40
1.0
 40
1.0
 10
292.36554256175
 20
96.81848058076378
 30
0.0
 10
292.375047735754
 20
96.8743050769417
 30
0.0
 10
292.3920211436168
 20
96.97399098926284
 30
0.0
 10
292.4089678832441
 20
97.07367682865979
 30
0.0
 10
292.4164243831823
 20
97.11753821271667
 30
0.0
  0
SPLINE
  5
30B
330
1F
100
AcDbEntity
  8
0
  6
Continuous
 62
     7
370
    25
100
AcDbSpline
210
0.0
220
0.0
230
1.0
 70
     8
 71
     3
 72
     9
 73
     5
 74
     0
 42
0.00000001
 43
0.00000001
 40
0.0
 40
0.0
 40
0.0
 40
0.0
 40
0.5598886773269492
 40
1.0
 40
1.0
 40
1.0
 40
1.0
 10
290.671245936608
 20
97.11753821271667
 30
0.0
 10
290.9917020007409
 20
97.06232051920314
 30
0.0
 10
291.5640587514841
 20
96.96369788983128
 30
0.0
 10
292.1206017059401
 20
96.8628603318028
 30
0.0
 10
292.36554256175
 20
96.81848058076378
 30
0.0
  0
SPLINE
  5
30C
330
1F
100
AcDbEntity
  8
0
  6
Continuous
 62
     7
370
    25
100
AcDbSpline
210
0.0
220
0.0
230
1.0
 70
    24
 71
     3
 72
     9
 73
     5
 74
     0
 42
0.00000001
 43
0.00000001
 40
0.0
 40
0.0
 40
0.0
 40
0.0
 40
0.5600038649198207
 40
1.0
 40
1.0
 40
1.0
 40
1.0
 10
290.618514007308
 20
96.81848058076378
 30
0.0
 10
290.6283573721686
 20
96.87430507694168
 30
0.0
 10
290.6459346881073
 20
96.97399098926283
 30
0.0
 10
290.6635119911876
 20
97.07367682865979
 30
0.0
 10
290.671245936608
 20
97.11753821271667
 30
0.0
  0
SPLINE
  5
30D
330
1F
100
AcDbEntity
  8
0
  6
Continuous
 62
     7
370
    25
100
AcDbSpline
210
0.0
220
0.0
230
1.0
 70
    24
 71
     3
 72
     9
 73
     5
 74
     0
 42
0.00000001
 43
0.00000001
 40
0.0
 40
0.0
 40
0.0
 40
0.0
 40
0.5598886773269508
 40
0.9999999999999999
 40
0.9999999999999999
 40
0.9999999999999999
 40
0.9999999999999999
 10
288.9224738961956
 20
97.11753821271667
 30
0.0
 10
289.23562899754
 20
97.06232051920314
 30
0.0
 10
289.7949457224996
 20
96.96369788983128
 30
0.0
 10
290.3668239320811
 20
96.8628603318028
 30
0.0
 10
290.618514007308
 20
96.81848058076378
 30
0.0
  0
SPLINE
  5
30E
330
1F
100
AcDbEntity
  8
0
  6
Continuous
 62
     7
370
    25
100
AcDbSpline
210
0.0
220
0.0
230
1.0
 70
     8
 71
     3
 72
     9
 73
     5
 74
     0
 42
0.00000001
 43
0.00000001
 40
0.0
 40
0.0
 40
0.0
 40
0.0
 40
0.5600038649198187
 40
1.0
 40
1.0
 40
1.0
 40
1.0
 10
288.871485452866
 20
96.81848058076378
 30
0.0
 10
288.8809961995349
 20
96.87430507694168
 30
0.0
 10
288.8979795585163
 20
96.97399098926283
 30
0.0
 10
288.9149895608924
 20
97.07367682865977
 30
0.0
 10
288.9224738961956
 20
97.11753821271667
 30
0.0
  0
SPLINE
  5
30F
330
1F
100
AcDbEntity
  8
0
  6
Continuous
 62
     7
370
    25
100
AcDbSpline
210
0.0
220
0.0
230
1.0
 70
     8
 71
     3
 72
     9
 73
     5
 74
     0
 42
0.00000001
 43
0.00000001
 40
0.0
 40
0.0
 40
0.0
 40
0.0
 40
0.5598886773269478
 40
1.0
 40
1.0
 40
1.0
 40
1.0
 10
287.2892841865166
 20
97.11753821271667
 30
0.0
 10
287.5737973224294
 20
97.06232051920314
 30
0.0
 10
288.0819575111138
 20
96.96369788983128
 30
0.0
 10
288.6301984209114
 20
96.8628603318028
 30
0.0
 10
288.871485452866
 20
96.81848058076378
 30
0.0
  0
SPLINE
  5
310
330
1F
100
AcDbEntity
  8
0
  6
Continuous
 62
     7
370
    25
100
AcDbSpline
210
0.0
220
0.0
230
1.0
 70
     8
 71
     3
 72
     9
 73
     5
 74
     0
 42
0.00000001
 43
0.00000001
 40
0.0
 40
0.0
 40
0.0
 40
0.0
 40
0.5600038649198428
 40
1.0
 40
1.0
 40
1.0
 40
1.0
 10
287.243514007308
 20
96.81848058076378
 30
0.0
 10
287.2520439941169
 20
96.87430507694167
 30
0.0
 10
287.2672760082928
 20
96.97399098926283
 30
0.0
 10
287.2825595064131
 20
97.07367682865979
 30
0.0
 10
287.2892841865166
 20
97.11753821271667
 30
0.0
  0
SPLINE
  5
311
330
1F
100
AcDbEntity
  8
0
  6
Continuous
 62
     7
370
    25
100
AcDbSpline
210
0.0
220
0.0
230
1.0
 70
     8
 71
     3
 72
     9
 73
     5
 74
     0
 42
0.00000001
 43
0.00000001
 40
0.0
 40
0.0
 40
0.0
 40
0.0
 40
0.5598886773269509
 40
1.0
 40
1.0
 40
1.0
 40
1.0
 10
285.8829759873122
 20
97.11753821271667
 30
0.0
 10
286.1194580577609
 20
97.06232051920313
 30
0.0
 10
286.5418314330858
 20
96.96369788983128
 30
0.0
 10
287.0290733311078
 20
96.8628603318028
 30
0.0
 10
287.243514007308
 20
96.81848058076378
 30
0.0
  0
SPLINE
  5
312
330
1F
100
AcDbEntity
  8
0
  6
Continuous
 62
     7
370
    25
100
AcDbSpline
210
0.0
220
0.0
230
1.0
 70
     8
 71
     3
 72
     9
 73
     5
 74
     0
 42
0.00000001
 43
0.00000001
 40
0.0
 40
0.0
 40
0.0
 40
0.0
 40
0.5600038649198396
 40
1.0
 40
1.0
 40
1.0
 40
1.0
 10
285.8455432342988
 20
96.81848058076378
 30
0.0
 10
285.8525111567432
 20
96.87430507694168
 30
0.0
 10
285.8649537895195
 20
96.97399098926284
 30
0.0
 10
285.8774692382444
 20
97.07367682865977
 30
0.0
 10
285.8829759873122
 20
97.11753821271667
 30
0.0
  0
SPLINE
  5
313
330
1F
100
AcDbEntity
  8
0
  6
Continuous
 62
     7
370
    25
100
AcDbSpline
210
0.0
220
0.0
230
1.0
 70
     8
 71
     3
 72
     9
 73
     5
 74
     0
 42
0.00000001
 43
0.00000001
 40
0.0
 40
0.0
 40
0.0
 40
0.0
 40
0.5598886773269516
 40
1.0
 40
1.0
 40
1.0
 40
1.0
 10
284.7993868783238
 20
97.11753821271667
 30
0.0
 10
284.9717220210127
 20
97.06232051920313
 30
0.0
 10
285.2795245354546
 20
96.96369788983128
 30
0.0
 10
285.672562691556
 20
96.8628603318028
 30
0.0
 10
285.8455432342988
 20
96.81848058076378
 30
0.0
  0
SPLINE
  5
314
330
1F
100
AcDbEntity
  8
0
  6
Continuous
 62
     7
370
    25
100
AcDbSpline
210
0.0
220
0.0
230
1.0
 70
     8
 71
     3
 72
     9
 73
     5
 74
     0
 42
0.00000001
 43
0.00000001
 40
0.0
 40
0.0
 40
0.0
 40
0.0
 40
0.5600038649197988
 40
1.0
 40
1.0
 40
1.0
 40
1.0
 10
284.772842531763
 20
96.81848058076378
 30
0.0
 10
284.7777735374434
 20
96.87430507694168
 30
0.0
 10
284.7865788439588
 20
96.97399098926284
 30
0.0
 10
284.7954733361404
 20
97.07367682865977
 30
0.0
 10
284.7993868783238
 20
97.11753821271667
 30
0.0
  0
SPLINE
  5
315
330
1F
100
AcDbEntity
  8
0
  6
Continuous
 62
     7
370
    25
100
AcDbSpline
210
0.0
220
0.0
230
1.0
 70
     8
 71
     3
 72
     9
 73
     5
 74
     0
 42
0.00000001
 43
0.00000001
 40
0.0
 40
0.0
 40
0.0
 40
0.0
 40
0.5598886773269478
 40
0.9999999999999999
 40
0.9999999999999999
 40
0.9999999999999999
 40
0.9999999999999999
 10
284.1123616666135
 20
97.11753821271667
 30
0.0
 10
284.2088055263654
 20
97.06232051920314
 30
0.0
 10
284.3810609472329
 20
96.96369788983128
 30
0.0
 10
284.6531104606017
 20
96.8628603318028
 30
0.0
 10
284.772842531763
 20
96.81848058076378
 30
0.0
  0
SPLINE
  5
316
330
1F
100
AcDbEntity
  8
0
  6
Continuous
 62
     7
370
    25
100
AcDbSpline
210
0.0
220
0.0
230
1.0
 70
     8
 71
     3
 72
     9
 73
     5
 74
     0
 42
0.00000001
 43
0.00000001
 40
0.0
 40
0.0
 40
0.0
 40
0.0
 40
0.5600038649198397
 40
1.0
 40
1.0
 40
1.0
 40
1.0
 10
284.0985146798567
 20
96.81848058076378
 30
0.0
 10
284.1010727288848
 20
96.8743050769417
 30
0.0
 10
284.1056406420518
 20
96.97399098926284
 30
0.0
 10
284.1103080327468
 20
97.07367682865979
 30
0.0
 10
284.1123616666135
 20
97.11753821271667
 30
0.0
  0
SPLINE
  5
317
330
1F
100
AcDbEntity
  8
0
  6
Continuous
 62
     7
370
    25
100
AcDbSpline
210
0.0
220
0.0
230
1.0
 70
     8
 71
     3
 72
     9
 73
     5
 74
     0
 42
0.00000001
 43
0.00000001
 40
0.0
 40
0.0
 40
0.0
 40
0.0
 40
0.5598886773269446
 40
1.0
 40
1.0
 40
1.0
 40
1.0
 10
283.8687199849964
 20
97.11753821271667
 30
0.0
 10
283.8827000721503
 20
97.06232051920314
 30
0.0
 10
283.9076694771767
 20
96.96369788983128
 30
0.0
 10
284.0401906230599
 20
96.8628603318028
 30
0.0
 10
284.0985146798567
 20
96.81848058076378
 30
0.0
  0
SPLINE
  5
318
330
1F
100
AcDbEntity
  8
0
  6
Continuous
 62
     7
370
    25
100
AcDbSpline
210
0.0
220
0.0
230
1.0
 70
     8
 71
     3
 72
     9
 73
     5
 74
     0
 42
0.00000001
 43
0.00000001
 40
0.0
 40
0.0
 40
0.0
 40
0.0
 40
0.5600038649197977
 40
0.9999999999999999
 40
0.9999999999999999
 40
0.9999999999999999
 40
0.9999999999999999
 10
283.868514007308
 20
96.81848058076378
 30
0.0
 10
283.8685247728698
 20
96.87430507694167
 30
0.0
 10
283.8685439969549
 20
96.97399098926282
 30
0.0
 10
283.8686662112007
 20
97.07367682865977
 30
0.0
 10
283.8687199849964
 20
97.11753821271667
 30
0.0
  0
LINE
  5
319
330
1F
100
AcDbEntity
  8
0
  6
Continuous
 62
     7
370
    25
100
AcDbLine
 10
291.4693294232
 20
96.8184805808
 30
0.0
 11
292.3655425618
 21
96.8184805808
 31
0.0
  0
LINE
  5
31A
330
1F
100
AcDbEntity
  8
0
  6
Continuous
 62
     7
370
    25
100
AcDbLine
 10
291.4693294232
 20
96.8184805808
 30
0.0
 11
290.6436538746
 21
96.9610558529
 31
0.0
  0
LINE
  5
31B
330
1F
100
AcDbEntity
  8
0
  6
Continuous
 62
     7
370
    25
100
AcDbLine
 10
289.8099294584
 20
96.9610558529
 30
0.0
 11
289.7676985914
 21
96.8184805808
 31
0.0
  0
LINE
  5
31C
330
1F
100
AcDbEntity
  8
0
  6
Continuous
 62
     7
370
    25
100
AcDbLine
 10
289.7676985914
 20
96.8184805808
 30
0.0
 11
288.8714854529
 21
96.8184805808
 31
0.0
  0
LINE
  5
31D
330
1F
100
AcDbEntity
  8
0
  6
Continuous
 62
     7
370
    25
100
AcDbLine
 10
292.3660425617
 20
96.8184805808
 30
0.0
 11
293.9935140073
 21
96.8184805808
 31
0.0
  0
LINE
  5
31E
330
1F
100
AcDbEntity
  8
0
  6
Continuous
 62
     7
370
    25
100
AcDbLine
 10
293.9940140073
 20
96.8184805808
 30
0.0
 11
295.3914847803
 21
96.8184805808
 31
0.0
  0
SPLINE
  5
31F
330
1F
100
AcDbEntity
  8
0
  6
Continuous
 62
     7
370
    25
100
AcDbSpline
210
0.0
220
0.0
230
1.0
 70
     8
 71
     3
 72
    19
 73
    15
 74
     0
 42
0.00000001
 43
0.00000001
 40
0.0
 40
0.0
 40
0.0
 40
0.0
 40
0.3057360504268158
 40
0.5020571787530791
 40
0.7745366675738729
 40
0.8930044771280493
 40
0.9479503587109336
 40
0.974514368464875
 40
0.9936172609942087
 40
0.9983976693774896
 40
0.9995957746644898
 40
0.9998969224440227
 40
0.9999730998975868
 40
1.0
 40
1.0
 40
1.0
 40
1.0
 10
290.618514007308
 20
98.85993246509118
 30
0.0
 10
290.6186516614637
 20
98.89380108508247
 30
0.0
 10
290.6188777069595
 20
98.94941763333497
 30
0.0
 10
290.6183822018226
 20
99.07539414096061
 30
0.0
 10
290.6186735693429
 20
99.19409578578775
 30
0.0
 10
290.6184226282457
 20
99.28973120254796
 30
0.0
 10
290.6184693826095
 20
99.33270684854459
 30
0.0
 10
290.6185016872983
 20
99.3543388678941
 30
0.0
 10
290.6185122633227
 20
99.36518843652398
 30
0.0
 10
290.6184689233534
 20
99.37057861976662
 30
0.0
 10
290.6184600159606
 20
99.37193033392971
 30
0.0
 10
290.6184465642567
 20
99.37226799146664
 30
0.0
 10
290.6184449983629
 20
99.37235536362279
 30
0.0
 10
290.6184406455793
 20
99.37237698049353
 30
0.0
 10
290.6184395096353
 20
99.37238262183834
 30
0.0
  0
SPLINE
  5
320
330
1F
100
AcDbEntity
  8
0
  6
Continuous
 62
     7
370
    25
100
AcDbSpline
210
0.0
220
0.0
230
1.0
 70
     8
 71
     3
 72
    19
 73
    15
 74
     0
 42
0.00000001
 43
0.00000001
 40
0.0
 40
0.0
 40
0.0
 40
0.0
 40
0.305734617847582
 40
0.5020581146560376
 40
0.7745380345683146
 40
0.8930060660155074
 40
0.9479520738934574
 40
0.9745161477737385
 40
0.9936176329445062
 40
0.9983977216310425
 40
0.9995957643931777
 40
0.9998969061304491
 40
0.9999730877037446
 40
1.0
 40
1.0
 40
1.0
 40
1.0
 10
294.9020076563618
 20
98.85993246509119
 30
0.0
 10
294.852817256706
 20
98.89380089755134
 30
0.0
 10
294.7720398835572
 20
98.94941750213148
 30
0.0
 10
294.6751257314843
 20
99.07539375595171
 30
0.0
 10
294.6293362064956
 20
99.19409590698099
 30
0.0
 10
294.619893204966
 20
99.2897311992775
 30
0.0
 10
294.6187142591151
 20
99.33270684749334
 30
0.0
 10
294.6185367099402
 20
99.3543385419787
 30
0.0
 10
294.6185162881191
 20
99.36518775420417
 30
0.0
 10
294.6184691363584
 20
99.37057751449453
 30
0.0
 10
294.6184598919474
 20
99.37192915647805
 30
0.0
 10
294.6184463392503
 20
99.37226678889743
 30
0.0
 10
294.6184447555721
 20
99.3723541674154
 30
0.0
 10
294.6184403790324
 20
99.37237578217712
 30
0.0
 10
294.618439236552
 20
99.3723814246355
 30
0.0
  0
SPLINE
  5
321
330
1F
100
AcDbEntity
  8
0
  6
Continuous
 62
     7
370
    25
100
AcDbSpline
210
0.0
220
0.0
230
1.0
 70
     8
 71
     3
 72
    19
 73
    15
 74
     0
 42
0.00000001
 43
0.00000001
 40
0.0
 40
0.0
 40
0.0
 40
0.0
 40
0.3057358733432871
 40
0.502057109799269
 40
0.7745366138409907
 40
0.893004451064352
 40
0.9479503447689228
 40
0.9745143604530669
 40
0.9936172590808313
 40
0.9983976689481739
 40
0.9995957745852021
 40
0.9998969224407289
 40
0.9999730999065325
 40
1.0
 40
1.0
 40
1.0
 40
1.0
 10
286.3350203582541
 20
98.85993246509118
 30
0.0
 10
286.3843487411651
 20
98.89380106340911
 30
0.0
 10
286.4653522069493
 20
98.94941760064606
 30
0.0
 10
286.561770706381
 20
99.07539408324733
 30
0.0
 10
286.6078517404102
 20
99.19409575385963
 30
0.0
 10
286.6170435475551
 20
99.28973118225079
 30
0.0
 10
286.6182691816077
 20
99.33270683807807
 30
0.0
 10
286.618478980738
 20
99.3543388626546
 30
0.0
 10
286.618510018519
 20
99.3651884341685
 30
0.0
 10
286.6185136653184
 20
99.37057861915224
 30
0.0
 10
286.6185139611268
 20
99.37193033371011
 30
0.0
 10
286.6185139980794
 20
99.37226799135404
 30
0.0
 10
286.6185140053643
 20
99.37235536352212
 30
0.0
 10
286.6185140069057
 20
99.3723769804003
 30
0.0
 10
286.618514007308
 20
99.372382621745
 30
0.0
  0
LINE
  5
322
330
1F
100
AcDbEntity
  8
0
  6
Continuous
 62
     7
370
    25
100
AcDbLine
 10
287.1826918973
 20
96.8184805808
 30
0.0
 11
285.8455432343
 21
96.8184805808
 31
0.0
  0
LINE
  5
323
330
1F
100
AcDbEntity
  8
0
  6
Continuous
 62
     7
370
    25
100
AcDbLine
 10
295.3919847803
 20
96.8184805808
 30
0.0
 11
296.4641854829
 21
96.8184805808
 31
0.0
  0
LINE
  5
324
330
1F
100
AcDbEntity
  8
0
  6
Continuous
 62
     7
370
    25
100
AcDbLine
 10
290.6185140073
 20
102.2526730435
 30
0.0
 11
290.6185140073
 21
99.3727092557
 31
0.0
  0
SPLINE
  5
325
330
1F
100
AcDbEntity
  8
0
  6
Continuous
 62
     7
370
    25
100
AcDbSpline
210
0.0
220
0.0
230
1.0
 70
     8
 71
     3
 72
     9
 73
     5
 74
     0
 42
0.00000001
 43
0.00000001
 40
0.0
 40
0.0
 40
0.0
 40
0.0
 40
0.5778119623600662
 40
1.0
 40
1.0
 40
1.0
 40
1.0
 10
290.618514007308
 20
102.2526730434543
 30
0.0
 10
291.0024791934516
 20
102.3062004579911
 30
0.0
 10
291.6669950068234
 20
102.398838579082
 30
0.0
 10
292.3360478854171
 20
102.4126496934789
 30
0.0
 10
292.618514007308
 20
102.4184805807638
 30
0.0
  0
SPLINE
  5
326
330
1F
100
AcDbEntity
  8
0
  6
Continuous
 62
     7
370
    25
100
AcDbSpline
210
0.0
220
0.0
230
1.0
 70
     8
 71
     3
 72
     9
 73
     5
 74
     0
 42
0.00000001
 43
0.00000001
 40
0.0
 40
0.0
 40
0.0
 40
0.0
 40
0.5398560076902721
 40
1.0
 40
1.0
 40
1.0
 40
1.0
 10
292.618514007308
 20
102.4184805807638
 30
0.0
 10
292.9797289578659
 20
102.4089670463738
 30
0.0
 10
293.6488239487754
 20
102.3913446910524
 30
0.0
 10
294.3129297243973
 20
102.2963734770293
 30
0.0
 10
294.6185140073079
 20
102.2526730434543
 30
0.0
  0
LINE
  5
327
330
1F
100
AcDbEntity
  8
0
  6
Continuous
 62
     7
370
    25
100
AcDbLine
 10
294.6185140073
 20
102.2526730435
 30
0.0
 11
294.6185140073
 21
99.3727092557
 31
0.0
  0
LINE
  5
328
330
1F
100
AcDbEntity
  8
0
  6
Continuous
 62
     7
370
    25
100
AcDbLine
 10
286.6185140073
 20
102.2526730435
 30
0.0
 11
286.6185140073
 21
99.3727092557
 31
0.0
  0
SPLINE
  5
329
330
1F
100
AcDbEntity
  8
0
  6
Continuous
 62
     7
370
    25
100
AcDbSpline
210
0.0
220
0.0
230
1.0
 70
     8
 71
     3
 72
     9
 73
     5
 74
     0
 42
0.00000001
 43
0.00000001
 40
0.0
 40
0.0
 40
0.0
 40
0.0
 40
0.5778119623600674
 40
1.0
 40
1.0
 40
1.0
 40
1.0
 10
286.618514007308
 20
102.2526730434543
 30
0.0
 10
287.0024791934516
 20
102.3062004579911
 30
0.0
 10
287.6669950068234
 20
102.3988385790819
 30
0.0
 10
288.3360478854171
 20
102.4126496934789
 30
0.0
 10
288.618514007308
 20
102.4184805807638
 30
0.0
  0
SPLINE
  5
32A
330
1F
100
AcDbEntity
  8
0
  6
Continuous
 62
     7
370
    25
100
AcDbSpline
210
0.0
220
0.0
230
1.0
 70
     8
 71
     3
 72
     9
 73
     5
 74
     0
 42
0.00000001
 43
0.00000001
 40
0.0
 40
0.0
 40
0.0
 40
0.0
 40
0.5398560076902711
 40
0.9999999999999999
 40
0.9999999999999999
 40
0.9999999999999999
 40
0.9999999999999999
 10
288.618514007308
 20
102.4184805807638
 30
0.0
 10
288.9797289578659
 20
102.4089670463738
 30
0.0
 10
289.6488239487754
 20
102.3913446910524
 30
0.0
 10
290.3129297243973
 20
102.2963734770293
 30
0.0
 10
290.618514007308
 20
102.2526730434543
 30
0.0
  0
SPLINE
  5
32B
330
1F
100
AcDbEntity
  8
0
  6
Continuous
 62
     7
370
    25
100
AcDbSpline
210
0.0
220
0.0
230
1.0
 70
    24
 71
     3
 72
    11
 73
     7
 74
     0
 42
0.00000001
 43
0.00000001
 40
0.0
 40
0.0
 40
0.0
 40
0.0
 40
0.2757314499394156
 40
0.5610422027418013
 40
0.7842685108023562
 40
1.0
 40
1.0
 40
1.0
 40
1.0
 10
288.618514007308
 20
102.4184805807638
 30
0.0
 10
288.968350238601
 20
102.4184805807638
 30
0.0
 10
289.6801765095856
 20
102.4184805807638
 30
0.0
 10
290.792363741947
 20
102.4184805807638
 30
0.0
 10
291.7971689825225
 20
102.4184805807638
 30
0.0
 10
292.3478665581932
 20
102.4184805807638
 30
0.0
 10
292.618514007308
 20
102.4184805807638
 30
0.0
  0
SPLINE
  5
32C
330
1F
100
AcDbEntity
  8
0
  6
Continuous
 62
     7
370
    25
100
AcDbSpline
210
0.0
220
0.0
230
1.0
 70
    24
 71
     3
 72
     9
 73
     5
 74
     0
 42
0.00000001
 43
0.00000001
 40
0.0
 40
0.0
 40
0.0
 40
0.0
 40
0.5778119623600679
 40
1.0
 40
1.0
 40
1.0
 40
1.0
 10
294.6185140073079
 20
102.2526730434543
 30
0.0
 10
294.6185140073079
 20
102.3062004579911
 30
0.0
 10
294.618514007308
 20
102.3988385790819
 30
0.0
 10
294.6185140073079
 20
102.4126496934789
 30
0.0
 10
294.6185140073079
 20
102.4184805807638
 30
0.0
  0
SPLINE
  5
32D
330
1F
100
AcDbEntity
  8
0
  6
Continuous
 62
     7
370
    25
100
AcDbSpline
210
0.0
220
0.0
230
1.0
 70
    24
 71
     3
 72
    11
 73
     7
 74
     0
 42
0.00000001
 43
0.00000001
 40
0.0
 40
0.0
 40
0.0
 40
0.0
 40
0.275731449939416
 40
0.561042202741802
 40
0.7842685108023569
 40
1.0
 40
1.0
 40
1.0
 40
1.0
 10
292.618514007308
 20
102.4184805807638
 30
0.0
 10
292.9361584802424
 20
102.4184805807638
 30
0.0
 10
293.5824828470242
 20
102.4184805807638
 30
0.0
 10
294.2027388619393
 20
102.4184805807638
 30
0.0
 10
294.5588258511357
 20
102.4184805807638
 30
0.0
 10
294.5988457233069
 20
102.4184805807638
 30
0.0
 10
294.6185140073079
 20
102.4184805807638
 30
0.0
  0
SPLINE
  5
32E
330
1F
100
AcDbEntity
  8
0
  6
Continuous
 62
     7
370
    25
100
AcDbSpline
210
0.0
220
0.0
230
1.0
 70
    24
 71
     3
 72
     9
 73
     5
 74
     0
 42
0.00000001
 43
0.00000001
 40
0.0
 40
0.0
 40
0.0
 40
0.0
 40
0.5398560076902728
 40
1.0
 40
1.0
 40
1.0
 40
1.0
 10
286.618514007308
 20
102.4184805807638
 30
0.0
 10
286.618514007308
 20
102.4089670463738
 30
0.0
 10
286.618514007308
 20
102.3913446910524
 30
0.0
 10
286.618514007308
 20
102.2963734770293
 30
0.0
 10
286.618514007308
 20
102.2526730434543
 30
0.0
  0
SPLINE
  5
32F
330
1F
100
AcDbEntity
  8
0
  6
Continuous
 62
     7
370
    25
100
AcDbSpline
210
0.0
220
0.0
230
1.0
 70
    24
 71
     3
 72
    11
 73
     7
 74
     0
 42
0.00000001
 43
0.00000001
 40
0.0
 40
0.0
 40
0.0
 40
0.0
 40
0.2757314499394164
 40
0.5610422027418018
 40
0.7842685108023568
 40
1.0
 40
1.0
 40
1.0
 40
1.0
 10
286.618514007308
 20
102.4184805807638
 30
0.0
 10
286.6507057656665
 20
102.4184805807638
 30
0.0
 10
286.7162076698693
 20
102.4184805807638
 30
0.0
 10
287.2081388873156
 20
102.4184805807638
 30
0.0
 10
287.8568571386947
 20
102.4184805807638
 30
0.0
 10
288.3675348421943
 20
102.4184805807638
 30
0.0
 10
288.618514007308
 20
102.4184805807638
 30
0.0
  0
LINE
  5
330
330
1F
100
AcDbEntity
  8
0
  6
Continuous
 62
     7
370
    25
100
AcDbLine
 10
284.7728425318
 20
96.8184805808
 30
0.0
 11
285.8177221028
 21
96.8184805808
 31
0.0
  0
LINE
  5
331
330
1F
100
AcDbEntity
  8
0
  6
Continuous
 62
     7
370
    25
100
AcDbLine
 10
284.7450214003
 20
96.8184805808
 30
0.0
 11
284.0985146799
 21
96.8184805808
 31
0.0
  0
LINE
  5
332
330
1F
100
AcDbEntity
  8
0
  6
Continuous
 62
     7
370
    25
100
AcDbLine
 10
297.1993354448
 20
96.8184805808
 30
0.0
 11
297.3685140073
 21
96.8184805808
 31
0.0
  0
LINE
  5
333
330
1F
100
AcDbEntity
  8
0
  6
Continuous
 62
     7
370
    25
100
AcDbLine
 10
284.0980146799
 20
96.8184805808
 30
0.0
 11
283.8685140073
 21
96.8184805808
 31
0.0
  0
SPLINE
  5
334
330
1F
100
AcDbEntity
  8
0
  6
Continuous
 62
     7
370
    25
100
AcDbSpline
210
0.0
220
0.0
230
1.0
 70
    24
 71
     3
 72
    27
 73
    23
 74
     0
 42
0.00000001
 43
0.00000001
 40
0.0
 40
0.0
 40
0.0
 40
0.0
 40
0.0005318099892186
 40
0.0579545644871075
 40
0.1153773189849963
 40
0.1718827410654647
 40
0.2266383857612864
 40
0.2789628778267252
 40
0.3312873698921648
 40
0.3860430145879865
 40
0.4425484366684548
 40
0.4999711911663435
 40
0.5573939456642322
 40
0.6138993677447006
 40
0.6686550124405223
 40
0.7209795045059619
 40
0.7733039965714007
 40
0.8280596412672225
 40
0.884565063347691
 40
0.9419878178455799
 40
0.9994105723434688
 40
1.0
 40
1.0
 40
1.0
 40
1.0
 10
278.620272720719
 20
85.21848058076378
 30
0.0
 10
278.619686791277
 20
85.21848058076378
 30
0.0
 10
278.5558345013264
 20
85.21848058076363
 30
0.0
 10
278.7817995950204
 20
85.21848058076385
 30
0.0
 10
279.3264568220533
 20
85.21848058076375
 30
0.0
 10
280.264323776082
 20
85.21848058076378
 30
0.0
 10
281.4709145392395
 20
85.21848058076377
 30
0.0
 10
282.9051735894872
 20
85.21848058076377
 30
0.0
 10
284.5497604442821
 20
85.21848058076378
 30
0.0
 10
286.41315873649
 20
85.21848058076377
 30
0.0
 10
288.4648794320054
 20
85.21848058076378
 30
0.0
 10
290.6185140087272
 20
85.21848058076377
 30
0.0
 10
292.772148576979
 20
85.21848058076378
 30
0.0
 10
294.8238692972427
 20
85.21848058076377
 30
0.0
 10
296.6872675030139
 20
85.21848058076378
 30
0.0
 10
298.3318546641563
 20
85.21848058076377
 30
0.0
 10
299.7661125643741
 20
85.21848058076377
 30
0.0
 10
300.9727078637075
 20
85.21848058076378
 30
0.0
 10
301.9105571062368
 20
85.21848058076372
 30
0.0
 10
302.4552818789852
 20
85.21848058076395
 30
0.0
 10
302.6811903850387
 20
85.21848058076343
 30
0.0
 10
302.6172164699018
 20
85.21848058076378
 30
0.0
 10
302.6165664685835
 20
85.21848058076378
 30
0.0
  0
SPLINE
  5
335
330
1F
100
AcDbEntity
  8
0
  6
Continuous
 62
     7
370
    25
100
AcDbSpline
210
0.0
220
0.0
230
1.0
 70
    24
 71
     3
 72
    27
 73
    23
 74
     0
 42
0.00000001
 43
0.00000001
 40
0.0
 40
0.0
 40
0.0
 40
0.0
 40
0.0005894276565296
 40
0.0580121821544184
 40
0.1154349366523073
 40
0.1719403587327757
 40
0.2266960034285974
 40
0.2790204954940362
 40
0.3313449875594759
 40
0.3861006322552975
 40
0.4426060543357658
 40
0.5000288088336545
 40
0.5574515633315432
 40
0.6139569854120115
 40
0.6687126301078332
 40
0.7210371221732729
 40
0.7733616142387116
 40
0.8281172589345335
 40
0.884622681015002
 40
0.9420454355128909
 40
0.9994681900107797
 40
1.0
 40
1.0
 40
1.0
 40
1.0
 10
278.6204615460323
 20
94.21848058076377
 30
0.0
 10
278.6198115447141
 20
94.21848058076377
 30
0.0
 10
278.5558376295772
 20
94.21848058076357
 30
0.0
 10
278.7817461356307
 20
94.21848058076385
 30
0.0
 10
279.3264709083791
 20
94.21848058076375
 30
0.0
 10
280.2643201509085
 20
94.21848058076377
 30
0.0
 10
281.4709154502418
 20
94.21848058076375
 30
0.0
 10
282.9051733504597
 20
94.2184805807638
 30
0.0
 10
284.549760511602
 20
94.21848058076377
 30
0.0
 10
286.4131587173733
 20
94.21848058076377
 30
0.0
 10
288.464879437637
 20
94.21848058076377
 30
0.0
 10
290.6185140058888
 20
94.21848058076377
 30
0.0
 10
292.7721485826105
 20
94.21848058076375
 30
0.0
 10
294.8238692781259
 20
94.21848058076377
 30
0.0
 10
296.6872675703338
 20
94.21848058076377
 30
0.0
 10
298.3318544251287
 20
94.2184805807638
 30
0.0
 10
299.7661134753765
 20
94.21848058076377
 30
0.0
 10
300.9727042385339
 20
94.21848058076377
 30
0.0
 10
301.9105711925627
 20
94.2184805807638
 30
0.0
 10
302.4552284195954
 20
94.21848058076368
 30
0.0
 10
302.6811935132898
 20
94.21848058076395
 30
0.0
 10
302.6173412233389
 20
94.21848058076377
 30
0.0
 10
302.616755293897
 20
94.21848058076377
 30
0.0
  0
LINE
  5
336
330
1F
100
AcDbEntity
  8
0
  6
Continuous
 62
     7
370
    25
100
AcDbLine
 10
296.5230030313
 20
113.4728984239
 30
0.0
 11
295.5331133477
 21
114.1818759004
 31
0.0
  0
SPLINE
  5
337
330
1F
100
AcDbEntity
  8
0
  6
Continuous
 62
     7
370
    25
100
AcDbSpline
210
0.0
220
0.0
230
1.0
 70
     8
 71
     3
 72
    20
 73
    16
 74
     0
 42
0.00000001
 43
0.00000001
 40
0.0
 40
0.0
 40
0.0
 40
0.0
 40
0.0161707381141227
 40
0.0687726591577558
 40
0.1536057440939585
 40
0.2537026089377685
 40
0.3718463793863722
 40
0.5000203239935425
 40
0.6281389419729773
 40
0.7461782868657678
 40
0.8462772224310512
 40
0.9063584483674563
 40
0.9524846640355005
 40
0.9838443240711813
 40
1.0
 40
1.0
 40
1.0
 40
1.0
 10
295.5331133477196
 20
114.1818759004278
 30
0.0
 10
295.4848024082999
 20
114.2073931126351
 30
0.0
 10
295.2793404345257
 20
114.3159154648865
 30
0.0
 10
294.8032642108936
 20
114.5242438074533
 30
0.0
 10
294.0432735398558
 20
114.7855451320425
 30
0.0
 10
293.0445110902417
 20
115.0183235895152
 30
0.0
 10
291.8838916428595
 20
115.1810395137851
 30
0.0
 10
290.6183498123619
 20
115.2371775446926
 30
0.0
 10
289.3530880234487
 20
115.1819544462953
 30
0.0
 10
288.1930398215925
 20
115.0186065752881
 30
0.0
 10
287.2764456748839
 20
114.8040076241862
 30
0.0
 10
286.6133886578239
 20
114.5873752554492
 30
0.0
 10
286.1815174296363
 20
114.4150665024091
 30
0.0
 10
285.8940055003731
 20
114.2825920184836
 30
0.0
 10
285.7521476980885
 20
114.2074312813733
 30
0.0
 10
285.7039146668963
 20
114.1818759004278
 30
0.0
  0
LINE
  5
338
330
1F
100
AcDbEntity
  8
0
  6
Continuous
 62
     7
370
    25
100
AcDbLine
 10
285.7039146669
 20
114.1818759004
 30
0.0
 11
284.7140249833
 21
113.4728984239
 31
0.0
  0
SPLINE
  5
339
330
1F
100
AcDbEntity
  8
0
  6
Continuous
 62
     7
370
    25
100
AcDbSpline
210
0.0
220
0.0
230
1.0
 70
     8
 71
     3
 72
    10
 73
     6
 74
     0
 42
0.00000001
 43
0.00000001
 40
0.0
 40
0.0
 40
0.0
 40
0.0
 40
0.4058341963373358
 40
0.6965048340556129
 40
1.0
 40
1.0
 40
1.0
 40
1.0
 10
284.7140249832732
 20
113.4728984238687
 30
0.0
 10
284.5900059875037
 20
113.3340640655628
 30
0.0
 10
284.3771608629484
 20
113.0957923709501
 30
0.0
 10
284.1715262132113
 20
112.6781247668978
 30
0.0
 10
284.136614674348
 20
112.4070722349361
 30
0.0
 10
284.1187821380166
 20
112.2686207578227
 30
0.0
  0
SPLINE
  5
33A
330
1F
100
AcDbEntity
  8
0
  6
Continuous
 62
     7
370
    25
100
AcDbSpline
210
0.0
220
0.0
230
1.0
 70
     8
 71
     3
 72
    10
 73
     6
 74
     0
 42
0.00000001
 43
0.00000001
 40
0.0
 40
0.0
 40
0.0
 40
0.0
 40
0.3033447683631391
 40
0.5940896395930976
 40
0.9999999999999999
 40
0.9999999999999999
 40
0.9999999999999999
 40
0.9999999999999999
 10
297.1184674701555
 20
112.2686189139893
 30
0.0
 10
297.1005410589511
 20
112.4069841265203
 30
0.0
 10
297.0654328379355
 20
112.6779673371038
 30
0.0
 10
296.8603488326307
 20
113.0959417935164
 30
0.0
 10
296.647197144392
 20
113.3341215540042
 30
0.0
 10
296.5230030313427
 20
113.4728984238687
 30
0.0
  0
SPLINE
  5
33B
330
1F
100
AcDbEntity
  8
0
  6
Continuous
 62
     7
370
    25
100
AcDbSpline
210
0.0
220
0.0
230
1.0
 70
     8
 71
     3
 72
    11
 73
     7
 74
     0
 42
0.00000001
 43
0.00000001
 40
0.0
 40
0.0
 40
0.0
 40
0.0
 40
0.2482838598124391
 40
0.5029083505071438
 40
0.7560106703727052
 40
1.0
 40
1.0
 40
1.0
 40
1.0
 10
285.1246669672338
 20
123.3542046422333
 30
0.0
 10
285.1444926901619
 20
123.4759035091156
 30
0.0
 10
285.1846504419503
 20
123.7224091677944
 30
0.0
 10
285.3589600054566
 20
124.0584082910746
 30
0.0
 10
285.6007979297404
 20
124.3466578770805
 30
0.0
 10
285.8099652743484
 20
124.4776933617792
 30
0.0
 10
285.9126316543667
 20
124.5420099925285
 30
0.0
  0
SPLINE
  5
33C
330
1F
100
AcDbEntity
  8
0
  6
Continuous
 62
     7
370
    25
100
AcDbSpline
210
0.0
220
0.0
230
1.0
 70
     8
 71
     3
 72
     9
 73
     5
 74
     0
 42
0.00000001
 43
0.00000001
 40
0.0
 40
0.0
 40
0.0
 40
0.0
 40
0.5600000000000249
 40
1.0
 40
1.0
 40
1.0
 40
1.0
 10
294.4646322409419
 20
124.9492646500024
 30
0.0
 10
294.6277422862736
 20
124.8787358943038
 30
0.0
 10
294.9190102243658
 20
124.7527916876992
 30
0.0
 10
295.2005283742848
 20
124.6064155104973
 30
0.0
 10
295.3243963602491
 20
124.5420099925285
 30
0.0
  0
SPLINE
  5
33D
330
1F
100
AcDbEntity
  8
0
  6
Continuous
 62
     7
370
    25
100
AcDbSpline
210
0.0
220
0.0
230
1.0
 70
     8
 71
     3
 72
    11
 73
     7
 74
     0
 42
0.00000001
 43
0.00000001
 40
0.0
 40
0.0
 40
0.0
 40
0.0
 40
0.2439893296272889
 40
0.4970916494928567
 40
0.7517161401875568
 40
1.0
 40
1.0
 40
1.0
 40
1.0
 10
295.3243963602491
 20
124.5420099925285
 30
0.0
 10
295.4270627402676
 20
124.4776933617792
 30
0.0
 10
295.6362300848755
 20
124.3466578770805
 30
0.0
 10
295.8780680091593
 20
124.0584082910746
 30
0.0
 10
296.0523775726656
 20
123.7224091677944
 30
0.0
 10
296.0925353244539
 20
123.4759035091156
 30
0.0
 10
296.1123610473821
 20
123.3542046422333
 30
0.0
  0
SPLINE
  5
33E
330
1F
100
AcDbEntity
  8
0
  6
Continuous
 62
     7
370
    25
100
AcDbSpline
210
0.0
220
0.0
230
1.0
 70
     8
 71
     3
 72
    11
 73
     7
 74
     0
 42
0.00000001
 43
0.00000001
 40
0.0
 40
0.0
 40
0.0
 40
0.0
 40
0.2475488322023325
 40
0.4999999999999998
 40
0.7524511677976672
 40
1.0
 40
1.0
 40
1.0
 40
1.0
 10
286.772395773674
 20
124.9492646500023
 30
0.0
 10
287.3881220989945
 20
125.1661016417828
 30
0.0
 10
288.6317682916317
 20
125.6040697587223
 30
0.0
 10
290.6185140073079
 20
125.7762468720299
 30
0.0
 10
292.6052597229842
 20
125.6040697587223
 30
0.0
 10
293.8489059156215
 20
125.1661016417828
 30
0.0
 10
294.4646322409419
 20
124.9492646500023
 30
0.0
  0
SPLINE
  5
33F
330
1F
100
AcDbEntity
  8
0
  6
Continuous
 62
     7
370
    25
100
AcDbSpline
210
0.0
220
0.0
230
1.0
 70
     8
 71
     3
 72
     9
 73
     5
 74
     0
 42
0.00000001
 43
0.00000001
 40
0.0
 40
0.0
 40
0.0
 40
0.0
 40
0.5600000000000163
 40
0.9999999999999999
 40
0.9999999999999999
 40
0.9999999999999999
 40
0.9999999999999999
 10
285.9126316543667
 20
124.5420099925285
 30
0.0
 10
286.070531623071
 20
124.6235378537276
 30
0.0
 10
286.3524958528998
 20
124.7691233201545
 30
0.0
 10
286.6440930201041
 20
124.8942214658822
 30
0.0
 10
286.772395773674
 20
124.9492646500024
 30
0.0
  0
SPLINE
  5
340
330
1F
100
AcDbEntity
  8
0
  6
Continuous
 62
     7
370
    25
100
AcDbSpline
210
0.0
220
0.0
230
1.0
 70
    24
 71
     3
 72
     9
 73
     5
 74
     0
 42
0.00000001
 43
0.00000001
 40
0.0
 40
0.0
 40
0.0
 40
0.0
 40
0.4987908233251052
 40
1.0
 40
1.0
 40
1.0
 40
1.0
 10
297.368514007308
 20
72.90982353185369
 30
0.0
 10
298.4948677674533
 20
72.25952288523102
 30
0.0
 10
300.7530363372692
 20
70.95576865357225
 30
0.0
 10
302.9948809265043
 20
69.66143907649605
 30
0.0
 10
304.118514007308
 20
69.01270921482373
 30
0.0
  0
SPLINE
  5
341
330
1F
100
AcDbEntity
  8
0
  6
Continuous
 62
     7
370
    25
100
AcDbSpline
210
0.0
220
0.0
230
1.0
 70
    24
 71
     3
 72
     9
 73
     5
 74
     0
 42
0.00000001
 43
0.00000001
 40
0.0
 40
0.0
 40
0.0
 40
0.0
 40
0.4989631660071377
 40
1.0
 40
1.0
 40
1.0
 40
1.0
 10
304.118514007308
 20
69.01270921482373
 30
0.0
 10
304.118514007308
 20
67.7210789475239
 30
0.0
 10
304.118514007308
 20
65.13245045689634
 30
0.0
 10
304.118514007308
 20
62.52493957675281
 30
0.0
 10
304.118514007308
 20
61.21848058076377
 30
0.0
  0
ARC
  5
342
330
1F
100
AcDbEntity
  8
0
  6
Continuous
 62
     7
370
    25
100
AcDbCircle
 10
290.6185140073
 20
61.2184805808
 30
0.0
 40
13.5
100
AcDbArc
 50
0.0
 51
60.0
  0
ARC
  5
343
330
1F
100
AcDbEntity
  8
0
  6
Continuous
 62
     7
370
    25
100
AcDbCircle
 10
290.6185140073
 20
61.2184805808
 30
0.0
 40
13.5
100
AcDbArc
 50
180.0
 51
240.0
  0
ARC
  5
344
330
1F
100
AcDbEntity
  8
0
  6
Continuous
 62
     7
370
    25
100
AcDbCircle
 10
290.6185140073
 20
61.2184805808
 30
0.0
 40
13.5
100
AcDbArc
 50
120.0
 51
180.0
  0
ARC
  5
345
330
1F
100
AcDbEntity
  8
0
  6
Continuous
 62
     7
370
    25
100
AcDbCircle
 10
290.6185140073
 20
61.2184805808
 30
0.0
 40
13.5
100
AcDbArc
 50
60.0
 51
120.0
  0
ARC
  5
346
330
1F
100
AcDbEntity
  8
0
  6
Continuous
 62
     7
370
    25
100
AcDbCircle
 10
290.6185140073
 20
61.2184805808
 30
0.0
 40
13.50000000000001
100
AcDbArc
 50
300.0
 51
0.0
  0
ARC
  5
347
330
1F
100
AcDbEntity
  8
0
  6
Continuous
 62
     7
370
    25
100
AcDbCircle
 10
290.6185140073
 20
61.2184805808
 30
0.0
 40
13.50000000000001
100
AcDbArc
 50
240.0
 51
300.0
  0
CIRCLE
  5
348
330
1F
100
AcDbEntity
  8
0
  6
Continuous
 62
     7
370
    25
100
AcDbCircle
 10
290.6185140073
 20
61.2184805808
 30
0.0
 40
8.903000000000013
  0
SPLINE
  5
349
330
1F
100
AcDbEntity
  8
0
  6
Continuous
 62
     7
370
    25
100
AcDbSpline
210
0.0
220
0.0
230
1.0
 70
    24
 71
     3
 72
     9
 73
     5
 74
     0
 42
0.00000001
 43
0.00000001
 40
0.0
 40
0.0
 40
0.0
 40
0.0
 40
0.498963166007138
 40
1.0
 40
1.0
 40
1.0
 40
1.0
 10
304.118514007308
 20
53.42425194670382
 30
0.0
 10
302.9999293835294
 20
52.77843681305391
 30
0.0
 10
300.7581113496857
 20
51.48412256774012
 30
0.0
 10
298.4999406868371
 20
50.18036712766837
 30
0.0
 10
297.368514007308
 20
49.52713762967384
 30
0.0
  0
SPLINE
  5
34A
330
1F
100
AcDbEntity
  8
0
  6
Continuous
 62
     7
370
    25
100
AcDbSpline
210
0.0
220
0.0
230
1.0
 70
    24
 71
     3
 72
     9
 73
     5
 74
     0
 42
0.00000001
 43
0.00000001
 40
0.0
 40
0.0
 40
0.0
 40
0.0
 40
0.5133293787208693
 40
1.0
 40
1.0
 40
1.0
 40
1.0
 10
304.118514007308
 20
61.21848058076377
 30
0.0
 10
304.118514007308
 20
59.8799626024282
 30
0.0
 10
304.118514007308
 20
57.27243995942083
 30
0.0
 10
304.118514007308
 20
54.68397957173521
 30
0.0
 10
304.118514007308
 20
53.42425194670382
 30
0.0
  0
CIRCLE
  5
34B
330
1F
100
AcDbEntity
  8
0
  6
Continuous
 62
     7
370
    25
100
AcDbCircle
 10
290.6185140073
 20
61.2184805808
 30
0.0
 40
7.870777501406316
  0
SPLINE
  5
34C
330
1F
100
AcDbEntity
  8
0
  6
Continuous
 62
     7
370
    25
100
AcDbSpline
210
0.0
220
0.0
230
1.0
 70
    24
 71
     3
 72
     9
 73
     5
 74
     0
 42
0.00000001
 43
0.00000001
 40
0.0
 40
0.0
 40
0.0
 40
0.0
 40
0.4989631660071376
 40
1.0
 40
1.0
 40
1.0
 40
1.0
 10
290.618514007308
 20
45.63002331264387
 30
0.0
 10
289.4999293835294
 20
46.27583844629378
 30
0.0
 10
287.2581113496858
 20
47.57015269160756
 30
0.0
 10
284.9999406868372
 20
48.87390813167932
 30
0.0
 10
283.868514007308
 20
49.52713762967385
 30
0.0
  0
SPLINE
  5
34D
330
1F
100
AcDbEntity
  8
0
  6
Continuous
 62
     7
370
    25
100
AcDbSpline
210
0.0
220
0.0
230
1.0
 70
    24
 71
     3
 72
     9
 73
     5
 74
     0
 42
0.00000001
 43
0.00000001
 40
0.0
 40
0.0
 40
0.0
 40
0.0
 40
0.4987908233251053
 40
1.0
 40
1.0
 40
1.0
 40
1.0
 10
297.368514007308
 20
49.52713762967384
 30
0.0
 10
296.2421602471626
 20
48.87683698305118
 30
0.0
 10
293.9839916773467
 20
47.57308275139241
 30
0.0
 10
291.7421470881116
 20
46.2787531743162
 30
0.0
 10
290.618514007308
 20
45.63002331264387
 30
0.0
  0
SPLINE
  5
34E
330
1F
100
AcDbEntity
  8
0
  6
Continuous
 62
     7
370
    25
100
AcDbSpline
210
0.0
220
0.0
230
1.0
 70
    24
 71
     3
 72
     9
 73
     5
 74
     0
 42
0.00000001
 43
0.00000001
 40
0.0
 40
0.0
 40
0.0
 40
0.0
 40
0.4987908233251052
 40
1.0
 40
1.0
 40
1.0
 40
1.0
 10
283.868514007308
 20
72.90982353185369
 30
0.0
 10
284.9948677674533
 20
73.56012417847636
 30
0.0
 10
287.2530363372692
 20
74.86387841013514
 30
0.0
 10
289.4948809265043
 20
76.15820798721134
 30
0.0
 10
290.618514007308
 20
76.80693784888368
 30
0.0
  0
SPLINE
  5
34F
330
1F
100
AcDbEntity
  8
0
  6
Continuous
 62
     7
370
    25
100
AcDbSpline
210
0.0
220
0.0
230
1.0
 70
    24
 71
     3
 72
     9
 73
     5
 74
     0
 42
0.00000001
 43
0.00000001
 40
0.0
 40
0.0
 40
0.0
 40
0.0
 40
0.4989631660071376
 40
1.0
 40
1.0
 40
1.0
 40
1.0
 10
290.618514007308
 20
76.80693784888368
 30
0.0
 10
291.7370986310865
 20
76.16112271523377
 30
0.0
 10
293.9789166649301
 20
74.86680846991999
 30
0.0
 10
296.2370873277787
 20
73.56305302984822
 30
0.0
 10
297.368514007308
 20
72.90982353185369
 30
0.0
  0
SPLINE
  5
350
330
1F
100
AcDbEntity
  8
0
  6
Continuous
 62
     7
370
    25
100
AcDbSpline
210
0.0
220
0.0
230
1.0
 70
    24
 71
     3
 72
     9
 73
     5
 74
     0
 42
0.00000001
 43
0.00000001
 40
0.0
 40
0.0
 40
0.0
 40
0.0
 40
0.5133293787208691
 40
1.0
 40
1.0
 40
1.0
 40
1.0
 10
277.118514007308
 20
61.21848058076377
 30
0.0
 10
277.118514007308
 20
62.55699855909934
 30
0.0
 10
277.118514007308
 20
65.16452120210671
 30
0.0
 10
277.118514007308
 20
67.75298158979234
 30
0.0
 10
277.118514007308
 20
69.01270921482372
 30
0.0
  0
SPLINE
  5
351
330
1F
100
AcDbEntity
  8
0
  6
Continuous
 62
     7
370
    25
100
AcDbSpline
210
0.0
220
0.0
230
1.0
 70
    24
 71
     3
 72
     9
 73
     5
 74
     0
 42
0.00000001
 43
0.00000001
 40
0.0
 40
0.0
 40
0.0
 40
0.0
 40
0.4989631660071374
 40
1.0
 40
1.0
 40
1.0
 40
1.0
 10
277.118514007308
 20
69.01270921482372
 30
0.0
 10
278.2370986310865
 20
69.65852434847363
 30
0.0
 10
280.4789166649301
 20
70.95283859378742
 30
0.0
 10
282.7370873277787
 20
72.25659403385917
 30
0.0
 10
283.868514007308
 20
72.90982353185369
 30
0.0
  0
SPLINE
  5
352
330
1F
100
AcDbEntity
  8
0
  6
Continuous
 62
     7
370
    25
100
AcDbSpline
210
0.0
220
0.0
230
1.0
 70
    24
 71
     3
 72
     9
 73
     5
 74
     0
 42
0.00000001
 43
0.00000001
 40
0.0
 40
0.0
 40
0.0
 40
0.0
 40
0.4989631660071379
 40
1.0
 40
1.0
 40
1.0
 40
1.0
 10
277.118514007308
 20
53.4242519467038
 30
0.0
 10
277.118514007308
 20
54.71588221400361
 30
0.0
 10
277.118514007308
 20
57.30451070463119
 30
0.0
 10
277.118514007308
 20
59.91202158477472
 30
0.0
 10
277.118514007308
 20
61.21848058076377
 30
0.0
  0
SPLINE
  5
353
330
1F
100
AcDbEntity
  8
0
  6
Continuous
 62
     7
370
    25
100
AcDbSpline
210
0.0
220
0.0
230
1.0
 70
    24
 71
     3
 72
     9
 73
     5
 74
     0
 42
0.00000001
 43
0.00000001
 40
0.0
 40
0.0
 40
0.0
 40
0.0
 40
0.4987908233251053
 40
1.0
 40
1.0
 40
1.0
 40
1.0
 10
283.868514007308
 20
49.52713762967385
 30
0.0
 10
282.7421602471626
 20
50.17743827629652
 30
0.0
 10
280.4839916773467
 20
51.48119250795529
 30
0.0
 10
278.2421470881116
 20
52.77552208503148
 30
0.0
 10
277.118514007308
 20
53.4242519467038
 30
0.0
  0
CIRCLE
  5
354
330
1F
100
AcDbEntity
  8
0
  6
Continuous
 62
     7
370
    25
100
AcDbCircle
 10
290.6185140073
 20
61.2184805808
 30
0.0
 40
7.547130519855443
  0
CIRCLE
  5
355
330
1F
100
AcDbEntity
  8
0
  6
Continuous
 62
     7
370
    25
100
AcDbCircle
 10
290.6185140073
 20
61.2184805808
 30
0.0
 40
7.199999999999996
  0
CIRCLE
  5
356
330
1F
100
AcDbEntity
  8
0
  6
Continuous
 62
     7
370
    25
100
AcDbCircle
 10
290.6185140073
 20
61.2184805808
 30
0.0
 40
4.999999999999993
  0
CIRCLE
  5
357
330
1F
100
AcDbEntity
  8
0
  6
Continuous
 62
     7
370
    25
100
AcDbCircle
 10
290.6185140073
 20
61.2184805808
 30
0.0
 40
7.149999999999999
  0
ARC
  5
358
330
1F
100
AcDbEntity
  8
0
  6
Continuous
 62
     7
370
    25
100
AcDbCircle
 10
290.6185140073
 20
61.2184805808
 30
0.0
 40
14.50000000000002
100
AcDbArc
 50
158.6705212608
 51
180.0
  0
ARC
  5
359
330
1F
100
AcDbEntity
  8
0
  6
Continuous
 62
     7
370
    25
100
AcDbCircle
 10
290.6185140073
 20
61.2184805808
 30
0.0
 40
14.49999999999999
100
AcDbArc
 50
99.1195985975
 51
140.9112313633
  0
ARC
  5
35A
330
1F
100
AcDbEntity
  8
0
  6
Continuous
 62
     7
370
    25
100
AcDbCircle
 10
290.6185140073
 20
61.2184805808
 30
0.0
 40
14.50000000000001
100
AcDbArc
 50
39.1988951416
 51
80.7837664667
  0
ARC
  5
35B
330
1F
100
AcDbEntity
  8
0
  6
Continuous
 62
     7
370
    25
100
AcDbCircle
 10
290.6185140073
 20
61.2184805808
 30
0.0
 40
14.5
100
AcDbArc
 50
0.0
 51
21.1084243441
  0
ARC
  5
35C
330
1F
100
AcDbEntity
  8
0
  6
Continuous
 62
     7
370
    25
100
AcDbCircle
 10
290.6185140073
 20
61.2184805808
 30
0.0
 40
14.5
100
AcDbArc
 50
338.6705212608
 51
0.0
  0
ARC
  5
35D
330
1F
100
AcDbEntity
  8
0
  6
Continuous
 62
     7
370
    25
100
AcDbCircle
 10
290.6185140073
 20
61.2184805808
 30
0.0
 40
14.50000000000001
100
AcDbArc
 50
279.1195985975
 51
320.9112313633
  0
ARC
  5
35E
330
1F
100
AcDbEntity
  8
0
  6
Continuous
 62
     7
370
    25
100
AcDbCircle
 10
290.6185140073
 20
61.2184805808
 30
0.0
 40
14.50000000000003
100
AcDbArc
 50
219.1988951416
 51
260.7837664667
  0
ARC
  5
35F
330
1F
100
AcDbEntity
  8
0
  6
Continuous
 62
     7
370
    25
100
AcDbCircle
 10
290.6185140073
 20
61.2184805808
 30
0.0
 40
14.5
100
AcDbArc
 50
180.0
 51
201.1084243441
  0
LINE
  5
360
330
1F
100
AcDbEntity
  8
0
  6
Continuous
 62
     7
370
    25
100
AcDbLine
 10
305.6185140073
 20
43.7184805808
 30
0.0
 11
275.6185140073
 21
43.7184805808
 31
0.0
  0
ARC
  5
361
330
1F
100
AcDbEntity
  8
0
  6
Continuous
 62
     7
370
    25
100
AcDbCircle
 10
275.6185140073
 20
44.7184805808
 30
0.0
 40
1.0
100
AcDbArc
 50
180.0
 51
270.0
  0
LINE
  5
362
330
1F
100
AcDbEntity
  8
0
  6
Continuous
 62
     7
370
    25
100
AcDbLine
 10
274.6185140073
 20
44.7184805808
 30
0.0
 11
274.6185140073
 21
80.7184805808
 31
0.0
  0
ARC
  5
363
330
1F
100
AcDbEntity
  8
0
  6
Continuous
 62
     7
370
    25
100
AcDbCircle
 10
275.6185140073
 20
80.7184805808
 30
0.0
 40
1.0
100
AcDbArc
 50
90.0
 51
180.0
  0
LINE
  5
364
330
1F
100
AcDbEntity
  8
0
  6
Continuous
 62
     7
370
    25
100
AcDbLine
 10
275.6185140073
 20
81.7184805808
 30
0.0
 11
305.6185140073
 21
81.7184805808
 31
0.0
  0
ARC
  5
365
330
1F
100
AcDbEntity
  8
0
  6
Continuous
 62
     7
370
    25
100
AcDbCircle
 10
305.6185140073
 20
44.7184805808
 30
0.0
 40
1.0
100
AcDbArc
 50
270.0
 51
0.0
  0
ARC
  5
366
330
1F
100
AcDbEntity
  8
0
  6
Continuous
 62
     7
370
    25
100
AcDbCircle
 10
305.6185140073
 20
80.7184805808
 30
0.0
 40
1.0
100
AcDbArc
 50
0.0
 51
90.0
  0
LINE
  5
367
330
1F
100
AcDbEntity
  8
0
  6
Continuous
 62
     7
370
    25
100
AcDbLine
 10
306.6185140073
 20
80.7184805808
 30
0.0
 11
306.6185140073
 21
44.7184805808
 31
0.0
  0
LINE
  5
368
330
1F
100
AcDbEntity
  8
0
  6
Continuous
 62
     7
370
    25
100
AcDbLine
 10
293.1184657834
 20
82.0184805808
 30
0.0
 11
294.4101075344
 21
82.0184805808
 31
0.0
  0
LINE
  5
369
330
1F
100
AcDbEntity
  8
0
  6
Continuous
 62
     7
370
    25
100
AcDbLine
 10
294.4101075344
 20
85.0184805808
 30
0.0
 11
293.1184657834
 21
85.0184805808
 31
0.0
  0
LINE
  5
36A
330
1F
100
AcDbEntity
  8
0
  6
Continuous
 62
     7
370
    25
100
AcDbLine
 10
286.8269204802
 20
82.0184805808
 30
0.0
 11
288.1185622312
 21
82.0184805808
 31
0.0
  0
LINE
  5
36B
330
1F
100
AcDbEntity
  8
0
  6
Continuous
 62
     7
370
    25
100
AcDbLine
 10
288.1185622312
 20
85.0184805808
 30
0.0
 11
286.8269204802
 21
85.0184805808
 31
0.0
  0
LINE
  5
36C
330
1F
100
AcDbEntity
  8
0
  6
Continuous
 62
     7
370
    25
100
AcDbLine
 10
303.6185140073
 20
82.0184805808
 30
0.0
 11
294.4101075344
 21
82.0184805808
 31
0.0
  0
LINE
  5
36D
330
1F
100
AcDbEntity
  8
0
  6
Continuous
 62
     7
370
    25
100
AcDbLine
 10
303.6185140073
 20
85.0184805808
 30
0.0
 11
294.4101075344
 21
85.0184805808
 31
0.0
  0
LINE
  5
36E
330
1F
100
AcDbEntity
  8
0
  6
Continuous
 62
     7
370
    25
100
AcDbLine
 10
286.8269204802
 20
82.0184805808
 30
0.0
 11
278.1837313986
 21
82.0184805808
 31
0.0
  0
LINE
  5
36F
330
1F
100
AcDbEntity
  8
0
  6
Continuous
 62
     7
370
    25
100
AcDbLine
 10
286.8269204802
 20
85.0184805808
 30
0.0
 11
278.1837313986
 21
85.0184805808
 31
0.0
  0
LINE
  5
370
330
1F
100
AcDbEntity
  8
0
  6
Continuous
 62
     7
370
    25
100
AcDbLine
 10
293.1184657834
 20
82.0184805808
 30
0.0
 11
288.1185622312
 21
82.0184805808
 31
0.0
  0
LINE
  5
371
330
1F
100
AcDbEntity
  8
0
  6
Continuous
 62
     7
370
    25
100
AcDbLine
 10
288.1185622312
 20
85.0184805808
 30
0.0
 11
293.1184657834
 21
85.0184805808
 31
0.0
  0
ARC
  5
372
330
1F
100
AcDbEntity
  8
0
  6
Continuous
 62
     7
370
    25
100
AcDbCircle
 10
284.0185140073
 20
81.6184805808
 30
0.0
 40
0.4000000000000057
100
AcDbArc
 50
90.0
 51
165.5224878141
  0
LINE
  5
373
330
1F
100
AcDbEntity
  8
0
  6
Continuous
 62
     7
370
    25
100
AcDbLine
 10
291.3266311473
 20
85.0184805808
 30
0.0
 11
291.3266311473
 21
85.2184805808
 31
0.0
  0
LINE
  5
374
330
1F
100
AcDbEntity
  8
0
  6
Continuous
 62
     7
370
    25
100
AcDbLine
 10
289.9103968673
 20
85.2184805808
 30
0.0
 11
289.9103968673
 21
85.0184805808
 31
0.0
  0
LINE
  5
375
330
1F
100
AcDbEntity
  8
0
  6
Continuous
 62
     7
370
    25
100
AcDbLine
 10
296.274357898
 20
85.2184805808
 30
0.0
 11
296.274357898
 21
85.0184805808
 31
0.0
  0
LINE
  5
376
330
1F
100
AcDbEntity
  8
0
  6
Continuous
 62
     7
370
    25
100
AcDbLine
 10
284.9626701166
 20
85.0184805808
 30
0.0
 11
284.9626701166
 21
85.2184805808
 31
0.0
  0
LINE
  5
377
330
1F
100
AcDbEntity
  8
0
  6
Continuous
 62
     7
370
    25
100
AcDbLine
 10
278.1402531377
 20
82.0184805808
 30
0.0
 11
278.1837313986
 21
82.0184805808
 31
0.0
  0
LINE
  5
378
330
1F
100
AcDbEntity
  8
0
  6
Continuous
 62
     7
370
    25
100
AcDbLine
 10
278.1837313986
 20
85.0184805808
 30
0.0
 11
278.1402531377
 21
85.0184805808
 31
0.0
  0
LINE
  5
379
330
1F
100
AcDbEntity
  8
0
  6
Continuous
 62
     7
370
    25
100
AcDbLine
 10
276.765011951
 20
84.4184805808
 30
0.0
 11
278.1402531377
 21
84.4184805808
 31
0.0
  0
LINE
  5
37A
330
1F
100
AcDbEntity
  8
0
  6
Continuous
 62
     7
370
    25
100
AcDbLine
 10
276.355011951
 20
82.4684805808
 30
0.0
 11
278.1402531377
 21
82.4684805808
 31
0.0
  0
SPLINE
  5
37B
330
1F
100
AcDbEntity
  8
0
  6
PHANTOM
 62
     8
370
    18
100
AcDbSpline
210
0.0
220
0.0
230
1.0
 70
    24
 71
     3
 72
    21
 73
    17
 74
     0
 42
0.00000001
 43
0.00000001
 40
0.0
 40
0.0
 40
0.0
 40
0.0
 40
0.0699119226787712
 40
0.1440115422512142
 40
0.2211917753491891
 40
0.3000098837286211
 40
0.3788279921080532
 40
0.4560082252060283
 40
0.5301078447784713
 40
0.6000197674572443
 40
0.6699316901360141
 40
0.7440313097084574
 40
0.821211542806433
 40
0.9000296511858654
 40
0.9788477595652979
 40
1.0
 40
1.0
 40
1.0
 40
1.0
 10
284.772842531763
 20
97.70301052692584
 30
0.0
 10
284.9976541017591
 20
97.70301052692584
 30
0.0
 10
285.4607433670881
 20
97.70301052692584
 30
0.0
 10
286.4149917538234
 20
97.70301052692587
 30
0.0
 10
287.5591478592615
 20
97.70301052692584
 30
0.0
 10
288.8592415169127
 20
97.70301052692584
 30
0.0
 10
290.2322899214343
 20
97.70301052692584
 30
0.0
 10
291.5933386658579
 20
97.70301052692584
 30
0.0
 10
292.8636654654269
 20
97.70301052692585
 30
0.0
 10
294.0123383667654
 20
97.70301052692584
 30
0.0
 10
295.0458099677838
 20
97.70301052692587
 30
0.0
 10
295.9533330822571
 20
97.70301052692582
 30
0.0
 10
296.6920991836323
 20
97.70301052692587
 30
0.0
 10
297.1713912174784
 20
97.70301052692585
 30
0.0
 10
297.3871643048005
 20
97.70301052692584
 30
0.0
 10
297.349173059299
 20
97.70301052692585
 30
0.0
 10
297.3411346762305
 20
97.70301052692584
 30
0.0
  0
SPLINE
  5
37C
330
1F
100
AcDbEntity
  8
0
  6
PHANTOM
 62
     8
370
    18
100
AcDbSpline
210
0.0
220
0.0
230
1.0
 70
    24
 71
     3
 72
    10
 73
     6
 74
     0
 42
0.00000001
 43
0.00000001
 40
0.0
 40
0.0
 40
0.0
 40
0.0
 40
0.2800845977132744
 40
0.6505094719968404
 40
1.0
 40
1.0
 40
1.0
 40
1.0
 10
283.8958933383855
 20
97.70301052692584
 30
0.0
 10
283.8994373587446
 20
97.70301052692585
 30
0.0
 10
283.9076685104444
 20
97.70301052692584
 30
0.0
 10
284.2058425950505
 20
97.70301052692587
 30
0.0
 10
284.5875423556122
 20
97.70301052692584
 30
0.0
 10
284.772842531763
 20
97.70301052692584
 30
0.0
  0
SPLINE
  5
37D
330
1F
100
AcDbEntity
  8
0
  6
PHANTOM
 62
     8
370
    18
100
AcDbSpline
210
0.0
220
0.0
230
1.0
 70
    24
 71
     3
 72
    10
 73
     6
 74
     0
 42
0.00000001
 43
0.00000001
 40
0.0
 40
0.0
 40
0.0
 40
0.0
 40
0.2791573038698243
 40
0.6500593074164854
 40
1.0
 40
1.0
 40
1.0
 40
1.0
 10
283.9956916274683
 20
97.87621560768274
 30
0.0
 10
283.999194844583
 20
97.87621560768274
 30
0.0
 10
284.0073526067468
 20
97.87621560768272
 30
0.0
 10
284.3008747715722
 20
97.87621560768274
 30
0.0
 10
284.6768997694238
 20
97.87621560768275
 30
0.0
 10
284.8594450721415
 20
97.87621560768274
 30
0.0
  0
LINE
  5
37E
330
1F
100
AcDbEntity
  8
0
  6
PHANTOM
 62
     8
370
    18
100
AcDbLine
 10
284.8594450721
 20
97.8762156077
 30
0.0
 11
285.2181065933
 21
97.8762156077
 31
0.0
  0
SPLINE
  5
37F
330
1F
100
AcDbEntity
  8
0
  6
PHANTOM
 62
     8
370
    18
100
AcDbSpline
210
0.0
220
0.0
230
1.0
 70
     8
 71
     3
 72
     9
 73
     5
 74
     0
 42
0.00000001
 43
0.00000001
 40
0.0
 40
0.0
 40
0.0
 40
0.0
 40
0.496277025259024
 40
1.0
 40
1.0
 40
1.0
 40
1.0
 10
286.3683928588482
 20
99.26118205187173
 30
0.0
 10
286.3659530714953
 20
99.2388756096002
 30
0.0
 10
286.3610368911591
 20
99.1939280477825
 30
0.0
 10
286.3437354777059
 20
98.97181560533022
 30
0.0
 10
286.3350203582541
 20
98.85993246509118
 30
0.0
  0
SPLINE
  5
380
330
1F
100
AcDbEntity
  8
0
  6
PHANTOM
 62
     8
370
    18
100
AcDbSpline
210
0.0
220
0.0
230
1.0
 70
     8
 71
     3
 72
    11
 73
     7
 74
     0
 42
0.00000001
 43
0.00000001
 40
0.0
 40
0.0
 40
0.0
 40
0.0
 40
0.2519805309852626
 40
0.5000202912600121
 40
0.7481632336563504
 40
1.0
 40
1.0
 40
1.0
 40
1.0
 10
286.3350203582541
 20
98.85993246509119
 30
0.0
 10
286.6925974281697
 20
98.97062790259776
 30
0.0
 10
287.4021593532438
 20
99.19028759093467
 30
0.0
 10
288.4955315185625
 20
99.29778133013922
 30
0.0
 10
289.5761183804734
 20
99.18462866228579
 30
0.0
 10
290.2693416326489
 20
98.96869629649893
 30
0.0
 10
290.618514007308
 20
98.85993246509118
 30
0.0
  0
SPLINE
  5
381
330
1F
100
AcDbEntity
  8
0
  6
PHANTOM
 62
     8
370
    18
100
AcDbSpline
210
0.0
220
0.0
230
1.0
 70
     8
 71
     3
 72
    11
 73
     7
 74
     0
 42
0.00000001
 43
0.00000001
 40
0.0
 40
0.0
 40
0.0
 40
0.0
 40
0.2519803780325563
 40
0.5000207188848929
 40
0.7481636611739626
 40
1.0
 40
1.0
 40
1.0
 40
1.0
 10
290.618514007308
 20
98.85993246509119
 30
0.0
 10
290.9673234295376
 20
98.97062045305853
 30
0.0
 10
291.6594881902182
 20
99.19026567999045
 30
0.0
 10
292.7417989649612
 20
99.29772728767591
 30
0.0
 10
293.8345763739372
 20
99.18461357352162
 30
0.0
 10
294.5444492617448
 20
98.96869118127681
 30
0.0
 10
294.9020076563618
 20
98.85993246509119
 30
0.0
  0
SPLINE
  5
382
330
1F
100
AcDbEntity
  8
0
  6
PHANTOM
 62
     8
370
    18
100
AcDbSpline
210
0.0
220
0.0
230
1.0
 70
     8
 71
     3
 72
    10
 73
     6
 74
     0
 42
0.00000001
 43
0.00000001
 40
0.0
 40
0.0
 40
0.0
 40
0.0
 40
0.5039116014025482
 40
0.9999424349071538
 40
1.0
 40
1.0
 40
1.0
 40
1.0
 10
294.9020076563618
 20
98.85993246509119
 30
0.0
 10
294.8937163733793
 20
98.96538292050683
 30
0.0
 10
294.8772634763415
 20
99.17463467191898
 30
0.0
 10
294.8651784471915
 20
99.2980344871007
 30
0.0
 10
294.8686347547048
 20
99.26118632765751
 30
0.0
 10
294.8686351557678
 20
99.26118205187173
 30
0.0
  0
SPLINE
  5
383
330
1F
100
AcDbEntity
  8
0
  6
PHANTOM
 62
     8
370
    18
100
AcDbSpline
210
0.0
220
0.0
230
1.0
 70
     8
 71
     3
 72
    11
 73
     7
 74
     0
 42
0.00000001
 43
0.00000001
 40
0.0
 40
0.0
 40
0.0
 40
0.0
 40
0.2804312944588832
 40
0.55974133555025
 40
0.7794498005208728
 40
0.9999999999999999
 40
0.9999999999999999
 40
0.9999999999999999
 40
0.9999999999999999
 10
294.6184397665989
 20
99.37238126466752
 30
0.0
 10
294.249012151109
 20
99.46916517042808
 30
0.0
 10
293.5116340090494
 20
99.66234600915983
 30
0.0
 10
292.4553998933244
 20
99.72142550919686
 30
0.0
 10
291.4863919651219
 20
99.6117593885269
 30
0.0
 10
290.9081734497822
 20
99.45250162790752
 30
0.0
 10
290.618511441517
 20
99.3727205044239
 30
0.0
  0
SPLINE
  5
384
330
1F
100
AcDbEntity
  8
0
  6
PHANTOM
 62
     8
370
    18
100
AcDbSpline
210
0.0
220
0.0
230
1.0
 70
     8
 71
     3
 72
    11
 73
     7
 74
     0
 42
0.00000001
 43
0.00000001
 40
0.0
 40
0.0
 40
0.0
 40
0.0
 40
0.2804325661057824
 40
0.55974273626987
 40
0.779450267430745
 40
1.0
 40
1.0
 40
1.0
 40
1.0
 10
290.6184400353831
 20
99.37238246316267
 30
0.0
 10
290.2490113228399
 20
99.46917424524065
 30
0.0
 10
289.5116324895357
 20
99.6623704125087
 30
0.0
 10
288.4553942881552
 20
99.72147798919694
 30
0.0
 10
287.4863867772505
 20
99.61178260766108
 30
0.0
 10
286.9081716589399
 20
99.45251059498968
 30
0.0
 10
286.6185110440748
 20
99.37272224691604
 30
0.0
  0
LINE
  5
385
330
1F
100
AcDbEntity
  8
0
  6
PHANTOM
 62
     8
370
    18
100
AcDbLine
 10
290.6083365846
 20
96.7184805808
 30
0.0
 11
290.670104868
 21
96.7184805808
 31
0.0
  0
LINE
  5
386
330
1F
100
AcDbEntity
  8
0
  6
PHANTOM
 62
     8
370
    18
100
AcDbLine
 10
296.9544930397
 20
96.7184805808
 30
0.0
 11
296.9463538453
 21
96.8184805808
 31
0.0
  0
LINE
  5
387
330
1F
100
AcDbEntity
  8
0
  6
PHANTOM
 62
     8
370
    18
100
AcDbLine
 10
296.8401323708
 20
98.1235418608
 30
0.0
 11
295.5331133477
 21
114.1818759004
 31
0.0
  0
LINE
  5
388
330
1F
100
AcDbEntity
  8
0
  6
PHANTOM
 62
     8
370
    18
100
AcDbLine
 10
297.7292581599
 20
96.7184805808
 30
0.0
 11
296.5230030313
 21
113.4728984239
 31
0.0
  0
LINE
  5
389
330
1F
100
AcDbEntity
  8
0
  6
PHANTOM
 62
     8
370
    18
100
AcDbLine
 10
284.2825349749
 20
96.7184805808
 30
0.0
 11
284.2906741693
 21
96.8184805808
 31
0.0
  0
LINE
  5
38A
330
1F
100
AcDbEntity
  8
0
  6
PHANTOM
 62
     8
370
    18
100
AcDbLine
 10
284.3968956438
 20
98.1235418608
 30
0.0
 11
285.7039146669
 21
114.1818759004
 31
0.0
  0
LINE
  5
38B
330
1F
100
AcDbEntity
  8
0
  6
PHANTOM
 62
     8
370
    18
100
AcDbLine
 10
283.5077698547
 20
96.7184805808
 30
0.0
 11
284.7140249833
 21
113.4728984239
 31
0.0
  0
LINE
  5
38C
330
1F
100
AcDbEntity
  8
0
  6
PHANTOM
 62
     8
370
    18
100
AcDbLine
 10
284.7140249833
 20
113.4728984239
 30
0.0
 11
285.9126316544
 21
124.5420099925
 31
0.0
  0
LINE
  5
38D
330
1F
100
AcDbEntity
  8
0
  6
PHANTOM
 62
     8
370
    18
100
AcDbLine
 10
295.5331133477
 20
114.1818759004
 30
0.0
 11
294.4646322409
 21
124.94926465
 31
0.0
  0
LINE
  5
38E
330
1F
100
AcDbEntity
  8
0
  6
PHANTOM
 62
     8
370
    18
100
AcDbLine
 10
296.5230030313
 20
113.4728984239
 30
0.0
 11
295.3243963602
 21
124.5420099925
 31
0.0
  0
LINE
  5
38F
330
1F
100
AcDbEntity
  8
0
  6
PHANTOM
 62
     8
370
    18
100
AcDbLine
 10
285.7039146669
 20
114.1818759004
 30
0.0
 11
286.7723957737
 21
124.94926465
 31
0.0
  0
SPLINE
  5
390
330
1F
100
AcDbEntity
  8
0
  6
PHANTOM
 62
     8
370
    18
100
AcDbSpline
210
0.0
220
0.0
230
1.0
 70
    24
 71
     3
 72
    12
 73
     8
 74
     0
 42
0.00000001
 43
0.00000001
 40
0.0
 40
0.0
 40
0.0
 40
0.0
 40
0.1953079019820321
 40
0.389745681498958
 40
0.5803286157885684
 40
0.7963349348810661
 40
1.0
 40
1.0
 40
1.0
 40
1.0
 10
285.118514007308
 20
123.2184805807638
 30
0.0
 10
284.7119119801973
 20
123.2184805807638
 30
0.0
 10
283.9005193916391
 20
123.2184805807638
 30
0.0
 10
282.9480201072037
 20
123.2184805807638
 30
0.0
 10
282.2008151640686
 20
123.2184805807638
 30
0.0
 10
281.7109223357211
 20
123.2184805807638
 30
0.0
 10
281.6487069283925
 20
123.2184805807638
 30
0.0
 10
281.618514007308
 20
123.2184805807638
 30
0.0
  0
SPLINE
  5
391
330
1F
100
AcDbEntity
  8
0
  6
PHANTOM
 62
     8
370
    18
100
AcDbSpline
210
0.0
220
0.0
230
1.0
 70
    24
 71
     3
 72
    12
 73
     8
 74
     0
 42
0.00000001
 43
0.00000001
 40
0.0
 40
0.0
 40
0.0
 40
0.0
 40
0.1720243806436076
 40
0.353257764448101
 40
0.5418093386599167
 40
0.769924885037854
 40
1.0
 40
1.0
 40
1.0
 40
1.0
 10
299.6185140073079
 20
123.2184805807638
 30
0.0
 10
299.5969884717108
 20
123.2184805807638
 30
0.0
 10
299.5527850712674
 20
123.2184805807638
 30
0.0
 10
299.1862734571801
 20
123.2184805807638
 30
0.0
 10
298.5343594556687
 20
123.2184805807638
 30
0.0
 10
297.5414113949922
 20
123.2184805807638
 30
0.0
 10
296.5941635184744
 20
123.2184805807638
 30
0.0
 10
296.1185140073079
 20
123.2184805807638
 30
0.0
  0
LINE
  5
392
330
1F
100
AcDbEntity
  8
0
  6
PHANTOM
 62
     8
370
    18
100
AcDbLine
 10
293.1184657834
 20
85.0184805808
 30
0.0
 11
293.1184657834
 21
82.0184805808
 31
0.0
  0
LINE
  5
393
330
1F
100
AcDbEntity
  8
0
  6
PHANTOM
 62
     8
370
    18
100
AcDbLine
 10
294.4101075344
 20
82.0184805808
 30
0.0
 11
294.4101075344
 21
85.0184805808
 31
0.0
  0
LINE
  5
394
330
1F
100
AcDbEntity
  8
0
  6
PHANTOM
 62
     8
370
    18
100
AcDbLine
 10
288.1185622312
 20
82.0184805808
 30
0.0
 11
288.1185622312
 21
85.0184805808
 31
0.0
  0
LINE
  5
395
330
1F
100
AcDbEntity
  8
0
  6
PHANTOM
 62
     8
370
    18
100
AcDbLine
 10
286.8269204802
 20
85.0184805808
 30
0.0
 11
286.8269204802
 21
82.0184805808
 31
0.0
  0
LINE
  5
396
330
1F
100
AcDbEntity
  8
0
  6
PHANTOM
 62
     8
370
    18
100
AcDbLine
 10
278.1837313986
 20
82.0184805808
 30
0.0
 11
278.1837313986
 21
85.0184805808
 31
0.0
  0
DIMENSION
  5
397
330
1F
100
AcDbEntity
  8
0
  6
Continuous
 62
     7
370
    18
100
AcDbDimension
  2
_D_2
 10
306.6185140073
 20
33.7184805808
 30
0.0
 11
290.4751012849
 21
33.7184805808
 31
0.0
 70
   160
  1
<>
 71
     2
 42
-1.0
  3
SLDDIMSTYLE1
100
AcDbAlignedDimension
 13
274.6185140073
 23
44.7184805808
 33
0.0
 14
306.6185140073
 24
44.7184805808
 34
0.0
100
AcDbRotatedDimension
  0
ENDSEC
  0
SECTION
  2
OBJECTS
  0
DICTIONARY
  5
C
330
0
100
AcDbDictionary
281
     1
  3
ACAD_GROUP
350
D
  3
ACAD_LAYOUT
350
1A
  3
ACAD_MLINESTYLE
350
17
  3
ACAD_PLOTSETTINGS
350
19
  3
ACAD_PLOTSTYLENAME
350
E
  3
ACAD_SCALELIST
350
47
  3
DWGPROPS
350
3A1
  0
DICTIONARY
  5
D
102
{ACAD_REACTORS
330
C
102
}
330
C
100
AcDbDictionary
281
     1
  0
DICTIONARY
  5
1A
102
{ACAD_REACTORS
330
C
102
}
330
C
100
AcDbDictionary
281
     1
  3
Layout1
350
1E
  3
Layout2
350
26
  3
Model
350
22
  0
DICTIONARY
  5
17
102
{ACAD_REACTORS
330
C
102
}
330
C
100
AcDbDictionary
281
     1
  3
Standard
350
18
  0
DICTIONARY
  5
19
102
{ACAD_REACTORS
330
C
102
}
330
C
100
AcDbDictionary
281
     1
  0
ACDBDICTIONARYWDFLT
  5
E
102
{ACAD_REACTORS
330
C
102
}
330
C
100
AcDbDictionary
281
     1
  3
Normal
350
F
100
AcDbDictionaryWithDefault
340
F
  0
DICTIONARY
  5
47
102
{ACAD_REACTORS
330
C
102
}
330
C
100
AcDbDictionary
281
     1
  3
A0
350
48
  3
A1
350
49
  3
A2
350
4A
  3
A3
350
4B
  3
A4
350
4C
  3
A5
350
4D
  3
A6
350
4E
  3
A7
350
4F
  3
A8
350
50
  3
A9
350
51
  3
B0
350
52
  3
B1
350
53
  3
B2
350
54
  3
B3
350
55
  3
B4
350
56
  3
B5
350
57
  3
B6
350
58
  3
B7
350
59
  3
B8
350
5A
  3
B9
350
5B
  3
C0
350
5C
  3
C1
350
5D
  3
C2
350
5E
  3
C3
350
5F
  3
C4
350
60
  3
C5
350
61
  3
C6
350
62
  3
C7
350
63
  3
C8
350
64
  3
C9
350
65
  3
D0
350
66
  3
D1
350
67
  3
D2
350
68
  0
XRECORD
  5
3A1
102
{ACAD_REACTORS
330
C
102
}
330
C
100
AcDbXrecord
280
     1
  1
DWGPROPS COOKIE
  2

  3

  4

  6

  7

  8
npc.flotec.eng
  9

300
=
301
=
302
=
303
=
304
=
305
=
306
=
307
=
308
=
309
=
 40
0.0
 41
2459564.297850023
 42
2459564.29785147
  1

 90
        0
  0
LAYOUT
  5
1E
102
{ACAD_REACTORS
330
1A
102
}
330
1A
100
AcDbPlotSettings
  1

  2
none_device
  4

  6

 40
0.0
 41
0.0
 42
0.0
 43
0.0
 44
0.0
 45
0.0
 46
0.0
 47
0.0
 48
0.0
 49
0.0
140
0.0
141
0.0
142
1.0
143
1.0
 70
   688
 72
     1
 73
     0
 74
     5
  7

 75
    16
147
1.0
148
0.0
149
0.0
100
AcDbLayout
  1
Layout1
 70
     1
 71
     1
 10
0.0
 20
0.0
 11
420.0
 21
297.0
 12
0.0
 22
0.0
 32
0.0
 14
1.0000000000E+20
 24
1.0000000000E+20
 34
1.0000000000E+20
 15
-1.0000000000E+20
 25
-1.0000000000E+20
 35
-1.0000000000E+20
146
0.0
 13
0.0
 23
0.0
 33
0.0
 16
1.0
 26
0.0
 36
0.0
 17
0.0
 27
1.0
 37
0.0
 76
     0
330
1B
  0
LAYOUT
  5
26
102
{ACAD_REACTORS
330
1A
102
}
330
1A
100
AcDbPlotSettings
  1

  2
none_device
  4

  6

 40
0.0
 41
0.0
 42
0.0
 43
0.0
 44
0.0
 45
0.0
 46
0.0
 47
0.0
 48
0.0
 49
0.0
140
0.0
141
0.0
142
1.0
143
1.0
 70
   688
 72
     1
 73
     0
 74
     5
  7

 75
    16
147
1.0
148
0.0
149
0.0
100
AcDbLayout
  1
Layout2
 70
     1
 71
     2
 10
0.0
 20
0.0
 11
0.0
 21
0.0
 12
0.0
 22
0.0
 32
0.0
 14
0.0
 24
0.0
 34
0.0
 15
0.0
 25
0.0
 35
0.0
146
0.0
 13
0.0
 23
0.0
 33
0.0
 16
1.0
 26
0.0
 36
0.0
 17
0.0
 27
1.0
 37
0.0
 76
     0
330
23
  0
LAYOUT
  5
22
102
{ACAD_REACTORS
330
1A
102
}
330
1A
100
AcDbPlotSettings
  1

  2
none_device
  4
Letter_(8.50_x_11.00_Inches)
  6

 40
6.35
 41
6.35
 42
6.35000508
 43
6.35000508
 44
215.9
 45
279.4
 46
0.0
 47
0.0
 48
0.0
 49
0.0
140
0.0
141
0.0
142
1.0
143
1.0
 70
  1712
 72
     1
 73
     0
 74
     0
  7

 75
     0
147
1.0
148
0.0
149
0.0
100
AcDbLayout
  1
Model
 70
     1
 71
     0
 10
0.0
 20
0.0
 11
420.0
 21
297.0
 12
0.0
 22
0.0
 32
0.0
 14
0.0
 24
0.0
 34
0.0
 15
420.0
 25
297.0
 35
0.0
146
0.0
 13
0.0
 23
0.0
 33
0.0
 16
1.0
 26
0.0
 36
0.0
 17
0.0
 27
1.0
 37
0.0
 76
     0
330
1F
331
29
  0
MLINESTYLE
  5
18
102
{ACAD_REACTORS
330
17
102
}
330
17
100
AcDbMlineStyle
  2
Standard
 70
     0
  3

 62
   256
 51
90.0
 52
90.0
 71
     2
 49
0.5
 62
   256
  6
BYLAYER
 49
-0.5
 62
   256
  6
BYLAYER
  0
ACDBPLACEHOLDER
  5
F
102
{ACAD_REACTORS
330
E
102
}
330
E
  0
SCALE
  5
48
102
{ACAD_REACTORS
330
47
102
}
330
47
100
AcDbScale
 70
     0
300
1:1
140
1.0
141
1.0
290
     1
  0
SCALE
  5
49
102
{ACAD_REACTORS
330
47
102
}
330
47
100
AcDbScale
 70
     0
300
1:2
140
1.0
141
2.0
290
     0
  0
SCALE
  5
4A
102
{ACAD_REACTORS
330
47
102
}
330
47
100
AcDbScale
 70
     0
300
1:4
140
1.0
141
4.0
290
     0
  0
SCALE
  5
4B
102
{ACAD_REACTORS
330
47
102
}
330
47
100
AcDbScale
 70
     0
300
1:5
140
1.0
141
5.0
290
     0
  0
SCALE
  5
4C
102
{ACAD_REACTORS
330
47
102
}
330
47
100
AcDbScale
 70
     0
300
1:8
140
1.0
141
8.0
290
     0
  0
SCALE
  5
4D
102
{ACAD_REACTORS
330
47
102
}
330
47
100
AcDbScale
 70
     0
300
1:10
140
1.0
141
10.0
290
     0
  0
SCALE
  5
4E
102
{ACAD_REACTORS
330
47
102
}
330
47
100
AcDbScale
 70
     0
300
1:16
140
1.0
141
16.0
290
     0
  0
SCALE
  5
4F
102
{ACAD_REACTORS
330
47
102
}
330
47
100
AcDbScale
 70
     0
300
1:20
140
1.0
141
20.0
290
     0
  0
SCALE
  5
50
102
{ACAD_REACTORS
330
47
102
}
330
47
100
AcDbScale
 70
     0
300
1:30
140
1.0
141
30.0
290
     0
  0
SCALE
  5
51
102
{ACAD_REACTORS
330
47
102
}
330
47
100
AcDbScale
 70
     0
300
1:40
140
1.0
141
40.0
290
     0
  0
SCALE
  5
52
102
{ACAD_REACTORS
330
47
102
}
330
47
100
AcDbScale
 70
     0
300
1:50
140
1.0
141
50.0
290
     0
  0
SCALE
  5
53
102
{ACAD_REACTORS
330
47
102
}
330
47
100
AcDbScale
 70
     0
300
1:100
140
1.0
141
100.0
290
     0
  0
SCALE
  5
54
102
{ACAD_REACTORS
330
47
102
}
330
47
100
AcDbScale
 70
     0
300
2:1
140
2.0
141
1.0
290
     0
  0
SCALE
  5
55
102
{ACAD_REACTORS
330
47
102
}
330
47
100
AcDbScale
 70
     0
300
4:1
140
4.0
141
1.0
290
     0
  0
SCALE
  5
56
102
{ACAD_REACTORS
330
47
102
}
330
47
100
AcDbScale
 70
     0
300
8:1
140
8.0
141
1.0
290
     0
  0
SCALE
  5
57
102
{ACAD_REACTORS
330
47
102
}
330
47
100
AcDbScale
 70
     0
300
10:1
140
10.0
141
1.0
290
     0
  0
SCALE
  5
58
102
{ACAD_REACTORS
330
47
102
}
330
47
100
AcDbScale
 70
     0
300
100:1
140
100.0
141
1.0
290
     0
  0
SCALE
  5
59
102
{ACAD_REACTORS
330
47
102
}
330
47
100
AcDbScale
 70
     0
300
1/128" = 1'-0"
140
0.0078125
141
12.0
290
     0
  0
SCALE
  5
5A
102
{ACAD_REACTORS
330
47
102
}
330
47
100
AcDbScale
 70
     0
300
1/64" = 1'-0"
140
0.015625
141
12.0
290
     0
  0
SCALE
  5
5B
102
{ACAD_REACTORS
330
47
102
}
330
47
100
AcDbScale
 70
     0
300
1/32" = 1'-0"
140
0.03125
141
12.0
290
     0
  0
SCALE
  5
5C
102
{ACAD_REACTORS
330
47
102
}
330
47
100
AcDbScale
 70
     0
300
1/16" = 1'-0"
140
0.0625
141
12.0
290
     0
  0
SCALE
  5
5D
102
{ACAD_REACTORS
330
47
102
}
330
47
100
AcDbScale
 70
     0
300
3/32" = 1'-0"
140
0.09375
141
12.0
290
     0
  0
SCALE
  5
5E
102
{ACAD_REACTORS
330
47
102
}
330
47
100
AcDbScale
 70
     0
300
1/8" = 1'-0"
140
0.125
141
12.0
290
     0
  0
SCALE
  5
5F
102
{ACAD_REACTORS
330
47
102
}
330
47
100
AcDbScale
 70
     0
300
3/16" = 1'-0"
140
0.1875
141
12.0
290
     0
  0
SCALE
  5
60
102
{ACAD_REACTORS
330
47
102
}
330
47
100
AcDbScale
 70
     0
300
1/4" = 1'-0"
140
0.25
141
12.0
290
     0
  0
SCALE
  5
61
102
{ACAD_REACTORS
330
47
102
}
330
47
100
AcDbScale
 70
     0
300
3/8" = 1'-0"
140
0.375
141
12.0
290
     0
  0
SCALE
  5
62
102
{ACAD_REACTORS
330
47
102
}
330
47
100
AcDbScale
 70
     0
300
1/2" = 1'-0"
140
0.5
141
12.0
290
     0
  0
SCALE
  5
63
102
{ACAD_REACTORS
330
47
102
}
330
47
100
AcDbScale
 70
     0
300
3/4" = 1'-0"
140
0.75
141
12.0
290
     0
  0
SCALE
  5
64
102
{ACAD_REACTORS
330
47
102
}
330
47
100
AcDbScale
 70
     0
300
1" = 1'-0"
140
1.0
141
12.0
290
     0
  0
SCALE
  5
65
102
{ACAD_REACTORS
330
47
102
}
330
47
100
AcDbScale
 70
     0
300
1-1/2" = 1'-0"
140
1.5
141
12.0
290
     0
  0
SCALE
  5
66
102
{ACAD_REACTORS
330
47
102
}
330
47
100
AcDbScale
 70
     0
300
3" = 1'-0"
140
3.0
141
12.0
290
     0
  0
SCALE
  5
67
102
{ACAD_REACTORS
330
47
102
}
330
47
100
AcDbScale
 70
     0
300
6" = 1'-0"
140
6.0
141
12.0
290
     0
  0
SCALE
  5
68
102
{ACAD_REACTORS
330
47
102
}
330
47
100
AcDbScale
 70
     0
300
1'-0" = 1'-0"
140
12.0
141
12.0
290
     0
  0
ENDSEC
  0
EOF
