  0
SECTION
  2
HEADER
  9
$ACADVER
  1
AC1015
  9
$ACADMAINTVER
 70
     6
  9
$DWGCODEPAGE
  3
ANSI_932
  9
$INSBASE
 10
0.0
 20
0.0
 30
0.0
  9
$EXTMIN
 10
33.13910000000001
 20
37.0005
 30
-2.060363333333333
  9
$EXTMAX
 10
312.8684175279404
 20
239.8609
 30
2.060363333333333
  9
$LIMMIN
 10
0.0
 20
0.0
  9
$LIMMAX
 10
12.0
 20
9.0
  9
$ORTHOMODE
 70
     0
  9
$REGENMODE
 70
     1
  9
$FILLMODE
 70
     1
  9
$QTEXTMODE
 70
     0
  9
$MIRRTEXT
 70
     1
  9
$LTSCALE
 40
12.7
  9
$ATTMODE
 70
     1
  9
$TEXTSIZE
 40
0.2
  9
$TRACEWID
 40
1.0
  9
$TEXTSTYLE
  7
STANDARD
  9
$CLAYER
  8
Dimension
  9
$CELTYPE
  6
ByLayer
  9
$CECOLOR
 62
   256
  9
$CELTSCALE
 40
1.0
  9
$DISPSILH
 70
     0
  9
$DIMSCALE
 40
1.0
  9
$DIMASZ
 40
1.9998779296875
  9
$DIMEXO
 40
0.0
  9
$DIMDLI
 40
7.0
  9
$DIMRND
 40
0.0
  9
$DIMDLE
 40
0.0
  9
$DIMEXE
 40
2.0
  9
$DIMTP
 40
0.0
  9
$DIMTM
 40
0.0
  9
$DIMTXT
 40
3.208072916666666
  9
$DIMCEN
 40
0.0
  9
$DIMTSZ
 40
0.0
  9
$DIMTOL
 70
     0
  9
$DIMLIM
 70
     0
  9
$DIMTIH
 70
     0
  9
$DIMTOH
 70
     0
  9
$DIMSE1
 70
     0
  9
$DIMSE2
 70
     0
  9
$DIMTAD
 70
     1
  9
$DIMZIN
 70
     8
  9
$DIMBLK
  1
VW_FILLEDARROW
  9
$DIMASO
 70
     1
  9
$DIMSHO
 70
     1
  9
$DIMPOST
  1
<>
  9
$DIMAPOST
  1
[]
  9
$DIMALT
 70
     0
  9
$DIMALTD
 70
     2
  9
$DIMALTF
 40
1.0
  9
$DIMLFAC
 40
1.0
  9
$DIMTOFL
 70
     0
  9
$DIMTVP
 40
0.0
  9
$DIMTIX
 70
     1
  9
$DIMSOXD
 70
     0
  9
$DIMSAH
 70
     0
  9
$DIMBLK1
  1
VW_FILLEDARROW
  9
$DIMBLK2
  1
VW_FILLEDARROW
  9
$DIMSTYLE
  2
JOJI
  9
$DIMCLRD
 70
     0
  9
$DIMCLRE
 70
     0
  9
$DIMCLRT
 70
     0
  9
$DIMTFAC
 40
1.0
  9
$DIMGAP
 40
0.4999999999999999
  9
$DIMJUST
 70
     0
  9
$DIMSD1
 70
     0
  9
$DIMSD2
 70
     0
  9
$DIMTOLJ
 70
     1
  9
$DIMTZIN
 70
     8
  9
$DIMALTZ
 70
     8
  9
$DIMALTTZ
 70
     8
  9
$DIMUPT
 70
     0
  9
$DIMDEC
 70
     2
  9
$DIMTDEC
 70
     2
  9
$DIMALTU
 70
     2
  9
$DIMALTTD
 70
     2
  9
$DIMTXSTY
  7
ＶＷゴシック Std W5
  9
$DIMAUNIT
 70
     0
  9
$DIMADEC
 70
     0
  9
$DIMALTRND
 40
0.0
  9
$DIMAZIN
 70
     0
  9
$DIMDSEP
 70
    46
  9
$DIMATFIT
 70
     0
  9
$DIMFRAC
 70
     2
  9
$DIMLDRBLK
  1
VW_FILLEDARROW
  9
$DIMLUNIT
 70
     2
  9
$DIMLWD
 70
    -2
  9
$DIMLWE
 70
    -2
  9
$DIMTMOVE
 70
     0
  9
$LUNITS
 70
     2
  9
$LUPREC
 70
     4
  9
$SKETCHINC
 40
0.1
  9
$FILLETRAD
 40
0.5
  9
$AUNITS
 70
     0
  9
$AUPREC
 70
     0
  9
$MENU
  1
.
  9
$ELEVATION
 40
0.0
  9
$PELEVATION
 40
0.0
  9
$THICKNESS
 40
0.0
  9
$LIMCHECK
 70
     0
  9
$CHAMFERA
 40
0.5
  9
$CHAMFERB
 40
0.5
  9
$CHAMFERC
 40
1.0
  9
$CHAMFERD
 40
0.0
  9
$SKPOLY
 70
     0
  9
$TDCREATE
 40
2457630.398009236
  9
$TDUCREATE
 40
2457630.023009248
  9
$TDUPDATE
 40
2457630.398009248
  9
$TDUUPDATE
 40
2457630.023009259
  9
$TDINDWG
 40
0.0000000116
  9
$TDUSRTIMER
 40
0.0000000116
  9
$USRTIMER
 70
     1
  9
$ANGBASE
 50
0.0
  9
$ANGDIR
 70
     0
  9
$PDMODE
 70
     1
  9
$PDSIZE
 40
-2.0
  9
$PLINEWID
 40
0.0
  9
$SPLFRAME
 70
     0
  9
$SPLINETYPE
 70
     6
  9
$SPLINESEGS
 70
     8
  9
$HANDSEED
  5
35C
  9
$SURFTAB1
 70
     6
  9
$SURFTAB2
 70
     6
  9
$SURFTYPE
 70
     6
  9
$SURFU
 70
     6
  9
$SURFV
 70
     6
  9
$UCSBASE
  2

  9
$UCSNAME
  2

  9
$UCSORG
 10
0.0
 20
0.0
 30
0.0
  9
$UCSXDIR
 10
1.0
 20
0.0
 30
0.0
  9
$UCSYDIR
 10
0.0
 20
1.0
 30
0.0
  9
$UCSORTHOREF
  2

  9
$UCSORTHOVIEW
 70
     0
  9
$UCSORGTOP
 10
0.0
 20
0.0
 30
0.0
  9
$UCSORGBOTTOM
 10
0.0
 20
0.0
 30
0.0
  9
$UCSORGLEFT
 10
0.0
 20
0.0
 30
0.0
  9
$UCSORGRIGHT
 10
0.0
 20
0.0
 30
0.0
  9
$UCSORGFRONT
 10
0.0
 20
0.0
 30
0.0
  9
$UCSORGBACK
 10
0.0
 20
0.0
 30
0.0
  9
$PUCSBASE
  2

  9
$PUCSNAME
  2

  9
$PUCSORG
 10
0.0
 20
0.0
 30
0.0
  9
$PUCSXDIR
 10
1.0
 20
0.0
 30
0.0
  9
$PUCSYDIR
 10
0.0
 20
1.0
 30
0.0
  9
$PUCSORTHOREF
  2

  9
$PUCSORTHOVIEW
 70
     0
  9
$PUCSORGTOP
 10
0.0
 20
0.0
 30
0.0
  9
$PUCSORGBOTTOM
 10
0.0
 20
0.0
 30
0.0
  9
$PUCSORGLEFT
 10
0.0
 20
0.0
 30
0.0
  9
$PUCSORGRIGHT
 10
0.0
 20
0.0
 30
0.0
  9
$PUCSORGFRONT
 10
0.0
 20
0.0
 30
0.0
  9
$PUCSORGBACK
 10
0.0
 20
0.0
 30
0.0
  9
$USERI1
 70
     0
  9
$USERI2
 70
     0
  9
$USERI3
 70
     0
  9
$USERI4
 70
     0
  9
$USERI5
 70
     0
  9
$USERR1
 40
0.0
  9
$USERR2
 40
0.0
  9
$USERR3
 40
0.0
  9
$USERR4
 40
0.0
  9
$USERR5
 40
0.0
  9
$WORLDVIEW
 70
     1
  9
$SHADEDGE
 70
     3
  9
$SHADEDIF
 70
    70
  9
$TILEMODE
 70
     1
  9
$MAXACTVP
 70
    64
  9
$PINSBASE
 10
0.0
 20
0.0
 30
0.0
  9
$PLIMCHECK
 70
     0
  9
$PEXTMIN
 10
1.000000000000000E+20
 20
1.000000000000000E+20
 30
1.000000000000000E+20
  9
$PEXTMAX
 10
-1.000000000000000E+20
 20
-1.000000000000000E+20
 30
-1.000000000000000E+20
  9
$PLIMMIN
 10
-20.0
 20
-7.5
  9
$PLIMMAX
 10
277.0
 20
202.5
  9
$UNITMODE
 70
     0
  9
$VISRETAIN
 70
     1
  9
$PLINEGEN
 70
     0
  9
$PSLTSCALE
 70
     1
  9
$TREEDEPTH
 70
  3020
  9
$CMLSTYLE
  2
Standard
  9
$CMLJUST
 70
     0
  9
$CMLSCALE
 40
1.0
  9
$PROXYGRAPHICS
 70
     1
  9
$MEASUREMENT
 70
     1
  9
$CELWEIGHT
370
    -1
  9
$ENDCAPS
280
     0
  9
$JOINSTYLE
280
     0
  9
$LWDISPLAY
290
     1
  9
$INSUNITS
 70
     4
  9
$HYPERLINKBASE
  1

  9
$STYLESHEET
  1

  9
$XEDIT
290
     1
  9
$CEPSNTYPE
380
     0
  9
$PSTYLEMODE
290
     1
  9
$FINGERPRINTGUID
  2
{61B5F8C8-10D8-AC96-9A00-224B868AA6A7}
  9
$VERSIONGUID
  2
{FAEB1C32-E019-11D5-929B-00C0DF256EC4}
  9
$EXTNAMES
290
     1
  9
$PSVPSCALE
 40
0.0
  9
$OLESTARTUP
290
     0
  0
ENDSEC
  0
SECTION
  2
CLASSES
  0
CLASS
  1
ACDBDICTIONARYWDFLT
  2
AcDbDictionaryWithDefault
  3
ObjectDBX Classes
 90
        0
280
     0
281
     0
  0
CLASS
  1
VISUALSTYLE
  2
AcDbVisualStyle
  3
ObjectDBX Classes
 90
     4095
280
     0
281
     0
  0
CLASS
  1
MATERIAL
  2
AcDbMaterial
  3
ObjectDBX Classes
 90
     1153
280
     0
281
     0
  0
CLASS
  1
WIPEOUTVARIABLES
  2
AcDbWipeoutVariables
  3
WipeOut|AutoCAD Express Tool|expresstools@autodesk.com
 90
        0
280
     0
281
     0
  0
CLASS
  1
DICTIONARYVAR
  2
AcDbDictionaryVar
  3
ObjectDBX Classes
 90
        0
280
     0
281
     0
  0
CLASS
  1
ACDBPLACEHOLDER
  2
AcDbPlaceHolder
  3
ObjectDBX Classes
 90
        0
280
     0
281
     0
  0
CLASS
  1
LAYOUT
  2
AcDbLayout
  3
ObjectDBX Classes
 90
        0
280
     0
281
     0
  0
ENDSEC
  0
SECTION
  2
TABLES
  0
TABLE
  2
VPORT
  5
8
330
0
100
AcDbSymbolTable
 70
     1
  0
VPORT
  5
29
330
8
100
AcDbSymbolTableRecord
100
AcDbViewportTableRecord
  2
*Active
 70
     0
 10
0.0
 20
0.0
 11
1.0
 21
1.0
 12
173.0037587639702
 22
138.4307
 13
0.0
 23
0.0
 14
0.5
 24
0.5
 15
0.5
 25
0.5
 16
0.0
 26
0.0
 36
1.0
 17
0.0
 27
0.0
 37
0.0
 40
202.8604
 41
0.087531902508587
 42
2000.0
 43
0.0
 44
0.0
 50
0.0
 51
0.0
 71
     0
 72
   100
 73
     1
 74
     3
 75
     0
 76
     0
 77
     0
 78
     0
281
     0
 65
     1
110
0.0
120
0.0
130
0.0
111
1.0
121
0.0
131
0.0
112
0.0
122
1.0
132
0.0
 79
     0
146
0.0
  0
ENDTAB
  0
TABLE
  2
LTYPE
  5
5
330
0
100
AcDbSymbolTable
 70
    12
  0
LTYPE
  5
14
330
5
100
AcDbSymbolTableRecord
100
AcDbLinetypeTableRecord
  2
ByBlock
 70
     0
  3

 72
    65
 73
     0
 40
0.0
  0
LTYPE
  5
15
330
5
100
AcDbSymbolTableRecord
100
AcDbLinetypeTableRecord
  2
ByLayer
 70
     0
  3

 72
    65
 73
     0
 40
0.0
  0
LTYPE
  5
16
330
5
100
AcDbSymbolTableRecord
100
AcDbLinetypeTableRecord
  2
Continuous
 70
     0
  3
Solid line
 72
    65
 73
     0
 40
0.0
  0
LTYPE
  5
7A
330
5
100
AcDbSymbolTableRecord
100
AcDbLinetypeTableRecord
  2
破線の種類-1
 70
     0
  3

 72
    65
 73
     2
 40
0.08331298828125
 49
0.08331298828125
 74
     0
 49
-0.083343505859375
 74
     0
  0
LTYPE
  5
7B
330
5
100
AcDbSymbolTableRecord
100
AcDbLinetypeTableRecord
  2
破線の種類-2
 70
     0
  3

 72
    65
 73
     2
 40
0.194427490234375
 49
0.194427490234375
 74
     0
 49
-0.083343505859375
 74
     0
  0
LTYPE
  5
7C
330
5
100
AcDbSymbolTableRecord
100
AcDbLinetypeTableRecord
  2
破線の種類-3
 70
     0
  3

 72
    65
 73
     2
 40
0.416656494140625
 49
0.416656494140625
 74
     0
 49
-0.083343505859375
 74
     0
  0
LTYPE
  5
7D
330
5
100
AcDbSymbolTableRecord
100
AcDbLinetypeTableRecord
  2
破線の種類-4
 70
     0
  3

 72
    65
 73
     2
 40
0.52777099609375
 49
0.52777099609375
 74
     0
 49
-0.08331298828125
 74
     0
  0
LTYPE
  5
7E
330
5
100
AcDbSymbolTableRecord
100
AcDbLinetypeTableRecord
  2
破線の種類-5
 70
     0
  3

 72
    65
 73
     2
 40
0.02777099609375
 49
0.02777099609375
 74
     0
 49
-0.0555419921875
 74
     0
  0
LTYPE
  5
7F
330
5
100
AcDbSymbolTableRecord
100
AcDbLinetypeTableRecord
  2
破線の種類-6
 70
     0
  3

 72
    65
 73
     4
 40
0.25
 49
0.25
 74
     0
 49
-0.08331298828125
 74
     0
 49
0.02777099609375
 74
     0
 49
-0.055572509765625
 74
     0
  0
LTYPE
  5
80
330
5
100
AcDbSymbolTableRecord
100
AcDbLinetypeTableRecord
  2
破線の種類-7
 70
     0
  3

 72
    65
 73
     6
 40
0.25
 49
0.25
 74
     0
 49
-0.08331298828125
 74
     0
 49
0.25
 74
     0
 49
-0.083343505859375
 74
     0
 49
0.02777099609375
 74
     0
 49
-0.055572509765625
 74
     0
  0
LTYPE
  5
81
330
5
100
AcDbSymbolTableRecord
100
AcDbLinetypeTableRecord
  2
破線の種類-8
 70
     0
  3

 72
    65
 73
     6
 40
0.25
 49
0.25
 74
     0
 49
-0.08331298828125
 74
     0
 49
0.02777099609375
 74
     0
 49
-0.055572509765625
 74
     0
 49
0.02777099609375
 74
     0
 49
-0.055572509765625
 74
     0
  0
LTYPE
  5
82
330
5
100
AcDbSymbolTableRecord
100
AcDbLinetypeTableRecord
  2
破線の種類-9
 70
     0
  3

 72
    65
 73
     4
 40
1.5
 49
1.5
 74
     0
 49
-0.111114501953125
 74
     0
 49
0.27777099609375
 74
     0
 49
-0.111114501953125
 74
     0
  0
LTYPE
  5
83
330
5
100
AcDbSymbolTableRecord
100
AcDbLinetypeTableRecord
  2
破線の種類-10
 70
     0
  3

 72
    65
 73
     6
 40
1.5
 49
1.5
 74
     0
 49
-0.111114501953125
 74
     0
 49
0.27777099609375
 74
     0
 49
-0.111114501953125
 74
     0
 49
0.25
 74
     0
 49
-0.125
 74
     0
  0
LTYPE
  5
84
330
5
100
AcDbSymbolTableRecord
100
AcDbLinetypeTableRecord
  2
破線の種類-11
 70
     0
  3

 72
    65
 73
     4
 40
0.8055419921875
 49
0.8055419921875
 74
     0
 49
-0.055572509765625
 74
     0
 49
0.02777099609375
 74
     0
 49
-0.055572509765625
 74
     0
  0
ENDTAB
  0
TABLE
  2
LAYER
  5
2
330
0
100
AcDbSymbolTable
 70
     5
  0
LAYER
  5
10
330
2
100
AcDbSymbolTableRecord
100
AcDbLayerTableRecord
  2
0
 70
     0
 62
     7
  6
Continuous
370
    -3
390
F
  0
LAYER
  5
85
330
2
100
AcDbSymbolTableRecord
100
AcDbLayerTableRecord
  2
Valve
 70
     0
 62
     7
  6
Continuous
370
    -3
390
F
  0
LAYER
  5
86
330
2
100
AcDbSymbolTableRecord
100
AcDbLayerTableRecord
  2
Lever
 70
     0
 62
     7
  6
Continuous
370
    -3
390
F
  0
LAYER
  5
87
330
2
100
AcDbSymbolTableRecord
100
AcDbLayerTableRecord
  2
Dimension
 70
     0
 62
     7
  6
Continuous
370
    -3
390
F
  0
LAYER
  5
88
330
2
100
AcDbSymbolTableRecord
100
AcDbLayerTableRecord
  2
Defpoints
 70
     0
 62
     7
  6
Continuous
290
     0
370
    -3
390
F
  0
ENDTAB
  0
TABLE
  2
STYLE
  5
3
330
0
100
AcDbSymbolTable
 70
     2
  0
STYLE
  5
11
330
3
100
AcDbSymbolTableRecord
100
AcDbTextStyleTableRecord
  2
STANDARD
 70
     0
 40
0.0
 41
1.0
 50
0.0
 71
     0
 42
0.2
  3
txt
  4
BIGFONT.SHX
  0
STYLE
  5
79
330
3
100
AcDbSymbolTableRecord
100
AcDbTextStyleTableRecord
  2
ＶＷゴシック Std W5
 70
     0
 40
0.0
 41
1.0
 50
0.0
 71
     0
 42
0.0
  3

  4
\U+0082u\U+0082v\U+0083S\U+0083V\U+0083b\U+0083N Std W5
1001
ACAD
1000
\U+0082u\U+0082v\U+0083S\U+0083V\U+0083b\U+0083N Std W5
1071
        0
  0
ENDTAB
  0
TABLE
  2
VIEW
  5
6
330
0
100
AcDbSymbolTable
 70
     0
  0
ENDTAB
  0
TABLE
  2
UCS
  5
7
330
0
100
AcDbSymbolTable
 70
     0
  0
ENDTAB
  0
TABLE
  2
APPID
  5
9
330
0
100
AcDbSymbolTable
 70
     1
  0
APPID
  5
12
330
9
100
AcDbSymbolTableRecord
100
AcDbRegAppTableRecord
  2
ACAD
 70
     0
  0
ENDTAB
  0
TABLE
  2
DIMSTYLE
  5
A
330
0
100
AcDbSymbolTable
 70
     2
100
AcDbDimStyleTable
  0
DIMSTYLE
105
27
330
A
100
AcDbSymbolTableRecord
100
AcDbDimStyleTableRecord
  2
Standard
 70
     0
178
     0
340
11
  0
DIMSTYLE
105
89
102
{ACAD_REACTORS
330
31C
330
31D
330
31E
330
31F
330
320
330
321
330
322
330
323
330
325
102
}
330
A
100
AcDbSymbolTableRecord
100
AcDbDimStyleTableRecord
  2
JOJI
 70
     0
  3
<>
  4
[]
 41
1.9998779296875
 42
0.0
 43
7.0
 44
2.0
 73
     0
 74
     0
 77
     1
 78
     8
140
3.208072916666666
141
0.0
143
1.0
147
0.4999999999999999
174
     1
178
     0
271
     2
272
     2
276
     2
284
     8
285
     8
286
     8
289
     0
340
79
341
8A
342
8A
343
8A
344
8A
  0
ENDTAB
  0
TABLE
  2
BLOCK_RECORD
  5
1
330
0
100
AcDbSymbolTable
 70
    21
  0
BLOCK_RECORD
  5
1F
330
1
100
AcDbSymbolTableRecord
100
AcDbBlockTableRecord
  2
*Model_Space
340
22
  0
BLOCK_RECORD
  5
1B
330
1
100
AcDbSymbolTableRecord
100
AcDbBlockTableRecord
  2
*Paper_Space
340
1E
  0
BLOCK_RECORD
  5
3F
330
1
100
AcDbSymbolTableRecord
100
AcDbBlockTableRecord
  2
グループ-1
340
0
102
{BLKREFS
331
275
102
}
  0
BLOCK_RECORD
  5
42
330
1
100
AcDbSymbolTableRecord
100
AcDbBlockTableRecord
  2
グループ-2-1
340
0
102
{BLKREFS
331
2FC
102
}
  0
BLOCK_RECORD
  5
45
330
1
100
AcDbSymbolTableRecord
100
AcDbBlockTableRecord
  2
グループ-3-1
340
0
102
{BLKREFS
331
113
102
}
  0
BLOCK_RECORD
  5
48
330
1
100
AcDbSymbolTableRecord
100
AcDbBlockTableRecord
  2
グループ-4-1
340
0
102
{BLKREFS
331
307
102
}
  0
BLOCK_RECORD
  5
4B
330
1
100
AcDbSymbolTableRecord
100
AcDbBlockTableRecord
  2
グループ-5-1
340
0
102
{BLKREFS
331
308
102
}
  0
BLOCK_RECORD
  5
4E
330
1
100
AcDbSymbolTableRecord
100
AcDbBlockTableRecord
  2
グループ-6-1
340
0
102
{BLKREFS
331
152
102
}
  0
BLOCK_RECORD
  5
51
330
1
100
AcDbSymbolTableRecord
100
AcDbBlockTableRecord
  2
グループ-7-1
340
0
102
{BLKREFS
331
309
102
}
  0
BLOCK_RECORD
  5
54
330
1
100
AcDbSymbolTableRecord
100
AcDbBlockTableRecord
  2
グループ-8-1
340
0
102
{BLKREFS
331
30D
102
}
  0
BLOCK_RECORD
  5
57
330
1
100
AcDbSymbolTableRecord
100
AcDbBlockTableRecord
  2
グループ-9-1
340
0
102
{BLKREFS
331
312
102
}
  0
BLOCK_RECORD
  5
5A
330
1
100
AcDbSymbolTableRecord
100
AcDbBlockTableRecord
  2
グループ-10-1
340
0
102
{BLKREFS
331
317
102
}
  0
BLOCK_RECORD
  5
5D
330
1
100
AcDbSymbolTableRecord
100
AcDbBlockTableRecord
  2
*D11
340
0
  0
BLOCK_RECORD
  5
60
330
1
100
AcDbSymbolTableRecord
100
AcDbBlockTableRecord
  2
*D12
340
0
  0
BLOCK_RECORD
  5
63
330
1
100
AcDbSymbolTableRecord
100
AcDbBlockTableRecord
  2
*D13
340
0
  0
BLOCK_RECORD
  5
66
330
1
100
AcDbSymbolTableRecord
100
AcDbBlockTableRecord
  2
*D14
340
0
  0
BLOCK_RECORD
  5
69
330
1
100
AcDbSymbolTableRecord
100
AcDbBlockTableRecord
  2
*D15
340
0
  0
BLOCK_RECORD
  5
6C
330
1
100
AcDbSymbolTableRecord
100
AcDbBlockTableRecord
  2
*D16
340
0
  0
BLOCK_RECORD
  5
6F
330
1
100
AcDbSymbolTableRecord
100
AcDbBlockTableRecord
  2
*D17
340
0
  0
BLOCK_RECORD
  5
72
330
1
100
AcDbSymbolTableRecord
100
AcDbBlockTableRecord
  2
*D18
340
0
  0
BLOCK_RECORD
  5
75
330
1
100
AcDbSymbolTableRecord
100
AcDbBlockTableRecord
  2
*D19
340
0
  0
BLOCK_RECORD
  5
8A
330
1
100
AcDbSymbolTableRecord
100
AcDbBlockTableRecord
  2
VW_FILLEDARROW
340
0
102
{BLKREFS
331
172
331
16D
331
185
331
180
331
199
331
194
331
1AC
331
1A7
331
1BF
331
1BA
331
1D2
331
1CD
331
1E5
331
1E0
331
1F8
331
1F3
331
211
331
20C
102
}
  0
ENDTAB
  0
ENDSEC
  0
SECTION
  2
BLOCKS
  0
BLOCK
  5
20
330
1F
100
AcDbEntity
  8
0
100
AcDbBlockBegin
  2
*Model_Space
 70
     0
 10
0.0
 20
0.0
 30
0.0
  3
*Model_Space
  1

  0
ENDBLK
  5
21
330
1F
100
AcDbEntity
  8
0
100
AcDbBlockEnd
  0
BLOCK
  5
1C
330
1B
100
AcDbEntity
 67
     1
  8
0
100
AcDbBlockBegin
  2
*Paper_Space
 70
     0
 10
0.0
 20
0.0
 30
0.0
  3
*Paper_Space
  1

  0
ENDBLK
  5
1D
330
1B
100
AcDbEntity
 67
     1
  8
0
100
AcDbBlockEnd
  0
BLOCK
  5
40
330
3F
100
AcDbEntity
  8
0
100
AcDbBlockBegin
  2
グループ-1
 70
     0
 10
0.0
 20
0.0
 30
0.0
  3
グループ-1
  1

  0
POLYLINE
  5
93
330
3F
100
AcDbEntity
  8
0
  6
Continuous
 62
     7
370
    25
100
AcDb2dPolyline
 66
     1
 10
0.0
 20
0.0
 30
0.0
 70
   129
  0
VERTEX
  5
94
330
93
100
AcDbEntity
  8
0
  6
Continuous
 62
     7
370
    25
100
AcDbVertex
100
AcDb2dVertex
 10
76.00000000000003
 20
-54.83974596215562
 30
0.0
  0
VERTEX
  5
95
330
93
100
AcDbEntity
  8
0
  6
Continuous
 62
     7
370
    25
100
AcDbVertex
100
AcDb2dVertex
 10
61.00000000000003
 20
-46.17949192431123
 30
0.0
  0
VERTEX
  5
96
330
93
100
AcDbEntity
  8
0
  6
Continuous
 62
     7
370
    25
100
AcDbVertex
100
AcDb2dVertex
 10
46.00000000000003
 20
-54.83974596215561
 30
0.0
  0
VERTEX
  5
97
330
93
100
AcDbEntity
  8
0
  6
Continuous
 62
     7
370
    25
100
AcDbVertex
100
AcDb2dVertex
 10
46.00000000000003
 20
-72.16025403784438
 30
0.0
  0
VERTEX
  5
98
330
93
100
AcDbEntity
  8
0
  6
Continuous
 62
     7
370
    25
100
AcDbVertex
100
AcDb2dVertex
 10
61.00000000000003
 20
-80.82050807568876
 30
0.0
  0
VERTEX
  5
99
330
93
100
AcDbEntity
  8
0
  6
Continuous
 62
     7
370
    25
100
AcDbVertex
100
AcDb2dVertex
 10
76.00000000000003
 20
-72.16025403784438
 30
0.0
  0
SEQEND
  5
9A
330
93
100
AcDbEntity
  8
0
  6
Continuous
 62
     7
370
    25
  0
ELLIPSE
  5
9B
330
3F
100
AcDbEntity
  8
0
  6
Continuous
 62
     7
370
    15
100
AcDbEllipse
 10
61.00000000000003
 20
-63.5
 30
0.0
 11
15.0
 21
0.0
 31
0.0
210
0.0
220
0.0
230
1.0
 40
1.0
 41
0.0
 42
6.283185307179586
  0
ELLIPSE
  5
9C
330
3F
100
AcDbEntity
  8
0
  6
Continuous
 62
     7
370
    25
100
AcDbEllipse
 10
61.00000000000003
 20
-63.5
 30
0.0
 11
11.0
 21
0.0
 31
0.0
210
0.0
220
0.0
230
1.0
 40
1.0
 41
0.0
 42
6.283185307179586
  0
ELLIPSE
  5
9D
330
3F
100
AcDbEntity
  8
0
  6
Continuous
 62
     7
370
    25
100
AcDbEllipse
 10
61.00000000000003
 20
-63.500495
 30
0.0
 11
0.0
 21
6.500005000000002
 31
0.0
210
0.0
220
0.0
230
1.0
 40
0.999920769291717
 41
0.0
 42
6.283185307179586
  0
ELLIPSE
  5
9E
330
3F
100
AcDbEntity
  8
0
  6
Continuous
 62
     7
370
    15
100
AcDbEllipse
 10
61.00000000000003
 20
-63.5
 30
0.0
 11
9.25
 21
0.0
 31
0.0
210
0.0
220
0.0
230
1.0
 40
1.0
 41
0.0
 42
6.283185307179586
  0
ELLIPSE
  5
9F
330
3F
100
AcDbEntity
  8
0
  6
Continuous
 62
     7
370
    25
100
AcDbEllipse
 10
61.00000000000003
 20
-63.5
 30
0.0
 11
6.5
 21
0.0
 31
0.0
210
0.0
220
0.0
230
1.0
 40
1.0
 41
0.0
 42
6.283185307179586
  0
ENDBLK
  5
41
330
3F
100
AcDbEntity
  8
0
100
AcDbBlockEnd
  0
BLOCK
  5
43
330
42
100
AcDbEntity
  8
0
100
AcDbBlockBegin
  2
グループ-2-1
 70
     0
 10
0.0
 20
0.0
 30
0.0
  3
グループ-2-1
  1

  0
POLYLINE
  5
A0
330
42
100
AcDbEntity
  8
0
  6
Continuous
 62
     7
370
     5
100
AcDb2dPolyline
 66
     1
 10
0.0
 20
0.0
 30
0.0
 70
   128
  0
VERTEX
  5
A1
330
A0
100
AcDbEntity
  8
0
  6
Continuous
 62
     7
370
     5
100
AcDbVertex
100
AcDb2dVertex
 10
50.17714450412322
 20
56.78672444661456
 30
0.0
  0
VERTEX
  5
A2
330
A0
100
AcDbEntity
  8
0
  6
Continuous
 62
     7
370
     5
100
AcDbVertex
100
AcDb2dVertex
 10
54.18465182834197
 20
56.78672444661456
 30
0.0
  0
VERTEX
  5
A3
330
A0
100
AcDbEntity
  8
0
  6
Continuous
 62
     7
370
     5
100
AcDbVertex
100
AcDb2dVertex
 10
53.91180026584198
 20
55.69872884116248
 30
0.0
  0
VERTEX
  5
A4
330
A0
100
AcDbEntity
  8
0
  6
Continuous
 62
     7
370
     5
100
AcDbVertex
100
AcDb2dVertex
 10
51.17229478624128
 20
55.69872884114583
 30
0.0
  0
VERTEX
  5
A5
330
A0
100
AcDbEntity
  8
0
  6
Continuous
 62
     7
370
     5
100
AcDbVertex
100
AcDb2dVertex
 10
50.93999199761279
 20
54.75056966145829
 30
0.0
  0
VERTEX
  5
A6
330
A0
100
AcDbEntity
  8
0
  6
Continuous
 62
     7
370
     5
100
AcDbVertex
100
AcDb2dVertex
 10
53.62568508572045
 20
54.75056966145829
 30
0.0
  0
VERTEX
  5
A7
330
A0
100
AcDbEntity
  8
0
  6
Continuous
 62
     7
370
     5
100
AcDbVertex
100
AcDb2dVertex
 10
53.36685506184892
 20
53.64893147786459
 30
0.0
  0
VERTEX
  5
A8
330
A0
100
AcDbEntity
  8
0
  6
Continuous
 62
     7
370
     5
100
AcDbVertex
100
AcDb2dVertex
 10
50.68154093424477
 20
53.64893147786459
 30
0.0
  0
VERTEX
  5
A9
330
A0
100
AcDbEntity
  8
0
  6
Continuous
 62
     7
370
     5
100
AcDbVertex
100
AcDb2dVertex
 10
50.09528903537324
 20
51.29293402777777
 30
0.0
  0
VERTEX
  5
AA
330
A0
100
AcDbEntity
  8
0
  6
Continuous
 62
     7
370
     5
100
AcDbVertex
100
AcDb2dVertex
 10
48.81364461263018
 20
51.29293402777777
 30
0.0
  0
VERTEX
  5
AB
330
A0
100
AcDbEntity
  8
0
  6
Continuous
 62
     7
370
     5
100
AcDbVertex
100
AcDb2dVertex
 10
50.17714450412322
 20
56.78672444661456
 30
0.0
  0
SEQEND
  5
AC
330
A0
100
AcDbEntity
  8
0
  6
Continuous
 62
     7
370
     5
  0
HATCH
  5
AD
330
42
100
AcDbEntity
  8
0
  6
Continuous
 62
     7
370
     0
100
AcDbHatch
 10
0.0
 20
0.0
 30
0.0
210
0.0
220
0.0
230
1.0
  2
SOLID
 70
     1
 71
     0
 91
        1
 92
        1
 93
       11
 72
     1
 10
50.17714450412322
 20
56.78672444661456
 11
54.18465182834197
 21
56.78672444661456
 72
     1
 10
54.18465182834197
 20
56.78672444661456
 11
53.91180026584198
 21
55.69872884116248
 72
     1
 10
53.91180026584198
 20
55.69872884116248
 11
51.17229478624128
 21
55.69872884114583
 72
     1
 10
51.17229478624128
 20
55.69872884114583
 11
50.93999199761279
 21
54.75056966145829
 72
     1
 10
50.93999199761279
 20
54.75056966145829
 11
53.62568508572045
 21
54.75056966145829
 72
     1
 10
53.62568508572045
 20
54.75056966145829
 11
53.36685506184892
 21
53.64893147786459
 72
     1
 10
53.36685506184892
 20
53.64893147786459
 11
50.68154093424477
 21
53.64893147786459
 72
     1
 10
50.68154093424477
 20
53.64893147786459
 11
50.09528903537324
 21
51.29293402777777
 72
     1
 10
50.09528903537324
 20
51.29293402777777
 11
48.81364461263018
 21
51.29293402777777
 72
     1
 10
48.81364461263018
 20
51.29293402777777
 11
50.17714450412322
 21
56.78672444661456
 72
     1
 10
50.17714450412322
 20
56.78672444661456
 11
50.17714450412322
 21
56.78672444661456
 97
        0
 75
     0
 76
     1
 98
        1
 10
0.0
 20
0.0
  0
POLYLINE
  5
AE
330
42
100
AcDbEntity
  8
0
  6
Continuous
 62
     7
370
     5
100
AcDb2dPolyline
 66
     1
 10
0.0
 20
0.0
 30
0.0
 70
   128
  0
VERTEX
  5
AF
330
AE
100
AcDbEntity
  8
0
  6
Continuous
 62
     7
370
     5
100
AcDbVertex
100
AcDb2dVertex
 10
55.16578057183156
 20
56.82424153645835
 30
0.0
  0
VERTEX
  5
B0
330
AE
100
AcDbEntity
  8
0
  6
Continuous
 62
     7
370
     5
100
AcDbVertex
100
AcDb2dVertex
 10
56.43416137695309
 20
56.82424153645835
 30
0.0
  0
VERTEX
  5
B1
330
AE
100
AcDbEntity
  8
0
  6
Continuous
 62
     7
370
     5
100
AcDbVertex
100
AcDb2dVertex
 10
55.37004028320308
 20
52.4449739583333
 30
0.0
  0
VERTEX
  5
B2
330
AE
100
AcDbEntity
  8
0
  6
Continuous
 62
     7
370
     5
100
AcDbVertex
100
AcDb2dVertex
 10
57.52443074544269
 20
52.4449739583333
 30
0.0
  0
VERTEX
  5
B3
330
AE
100
AcDbEntity
  8
0
  6
Continuous
 62
     7
370
     5
100
AcDbVertex
100
AcDb2dVertex
 10
57.25120022243919
 20
51.29293402780625
 30
0.0
  0
VERTEX
  5
B4
330
AE
100
AcDbEntity
  8
0
  6
Continuous
 62
     7
370
     5
100
AcDbVertex
100
AcDb2dVertex
 10
53.816302218967
 20
51.29293402777777
 30
0.0
  0
VERTEX
  5
B5
330
AE
100
AcDbEntity
  8
0
  6
Continuous
 62
     7
370
     5
100
AcDbVertex
100
AcDb2dVertex
 10
55.16578057183156
 20
56.82424153645835
 30
0.0
  0
SEQEND
  5
B6
330
AE
100
AcDbEntity
  8
0
  6
Continuous
 62
     7
370
     5
  0
HATCH
  5
B7
330
42
100
AcDbEntity
  8
0
  6
Continuous
 62
     7
370
     0
100
AcDbHatch
 10
0.0
 20
0.0
 30
0.0
210
0.0
220
0.0
230
1.0
  2
SOLID
 70
     1
 71
     0
 91
        1
 92
        1
 93
        7
 72
     1
 10
55.16578057183156
 20
56.82424153645835
 11
56.43416137695309
 21
56.82424153645835
 72
     1
 10
56.43416137695309
 20
56.82424153645835
 11
55.37004028320308
 21
52.4449739583333
 72
     1
 10
55.37004028320308
 20
52.4449739583333
 11
57.52443074544269
 21
52.4449739583333
 72
     1
 10
57.52443074544269
 20
52.4449739583333
 11
57.25120022243919
 21
51.29293402780625
 72
     1
 10
57.25120022243919
 20
51.29293402780625
 11
53.816302218967
 21
51.29293402777777
 72
     1
 10
53.816302218967
 20
51.29293402777777
 11
55.16578057183156
 21
56.82424153645835
 72
     1
 10
55.16578057183156
 20
56.82424153645835
 11
55.16578057183156
 21
56.82424153645835
 97
        0
 75
     0
 76
     1
 98
        1
 10
0.0
 20
0.0
  0
POLYLINE
  5
B8
330
42
100
AcDbEntity
  8
0
  6
Continuous
 62
     7
370
     5
100
AcDb2dPolyline
 66
     1
 10
0.0
 20
0.0
 30
0.0
 70
   128
  0
VERTEX
  5
B9
330
B8
100
AcDbEntity
  8
0
  6
Continuous
 62
     7
370
     5
100
AcDbVertex
100
AcDb2dVertex
 10
64.84291598849822
 20
54.35379801432291
 30
0.0
  0
VERTEX
  5
BA
330
B8
100
AcDbEntity
  8
0
  6
Continuous
 62
     7
370
     5
100
AcDbVertex
100
AcDb2dVertex
 10
67.87914754231767
 20
54.35379801432291
 30
0.0
  0
VERTEX
  5
BB
330
B8
100
AcDbEntity
  8
0
  6
Continuous
 62
     7
370
     5
100
AcDbVertex
100
AcDb2dVertex
 10
67.61539103190103
 20
53.29498236762149
 30
0.0
  0
VERTEX
  5
BC
330
B8
100
AcDbEntity
  8
0
  6
Continuous
 62
     7
370
     5
100
AcDbVertex
100
AcDb2dVertex
 10
64.58901245117187
 20
53.29498236762149
 30
0.0
  0
VERTEX
  5
BD
330
B8
100
AcDbEntity
  8
0
  6
Continuous
 62
     7
370
     5
100
AcDbVertex
100
AcDb2dVertex
 10
64.84291598849822
 20
54.35379801432291
 30
0.0
  0
SEQEND
  5
BE
330
B8
100
AcDbEntity
  8
0
  6
Continuous
 62
     7
370
     5
  0
HATCH
  5
BF
330
42
100
AcDbEntity
  8
0
  6
Continuous
 62
     7
370
     0
100
AcDbHatch
 10
0.0
 20
0.0
 30
0.0
210
0.0
220
0.0
230
1.0
  2
SOLID
 70
     1
 71
     0
 91
        1
 92
        1
 93
        5
 72
     1
 10
64.84291598849822
 20
54.35379801432291
 11
67.87914754231767
 21
54.35379801432291
 72
     1
 10
67.87914754231767
 20
54.35379801432291
 11
67.61539103190103
 21
53.29498236762149
 72
     1
 10
67.61539103190103
 20
53.29498236762149
 11
64.58901245117187
 21
53.29498236762149
 72
     1
 10
64.58901245117187
 20
53.29498236762149
 11
64.84291598849822
 21
54.35379801432291
 72
     1
 10
64.84291598849822
 20
54.35379801432291
 11
64.84291598849822
 21
54.35379801432291
 97
        0
 75
     0
 76
     1
 98
        1
 10
0.0
 20
0.0
  0
POLYLINE
  5
C0
330
42
100
AcDbEntity
  8
0
  6
Continuous
 62
     7
370
     5
100
AcDb2dPolyline
 66
     1
 10
0.0
 20
0.0
 30
0.0
 70
   128
  0
VERTEX
  5
C1
330
C0
100
AcDbEntity
  8
0
  6
Continuous
 62
     7
370
     5
100
AcDbVertex
100
AcDb2dVertex
 10
67.88824259440102
 20
56.842431640625
 30
0.0
  0
VERTEX
  5
C2
330
C0
100
AcDbEntity
  8
0
  6
Continuous
 62
     7
370
     5
100
AcDbVertex
100
AcDb2dVertex
 10
72.42212605794268
 20
56.842431640625
 30
0.0
  0
VERTEX
  5
C3
330
C0
100
AcDbEntity
  8
0
  6
Continuous
 62
     7
370
     5
100
AcDbVertex
100
AcDb2dVertex
 10
72.13184231228294
 20
55.70706597222219
 30
0.0
  0
VERTEX
  5
C4
330
C0
100
AcDbEntity
  8
0
  6
Continuous
 62
     7
370
     5
100
AcDbVertex
100
AcDb2dVertex
 10
70.53149210611977
 20
55.70706597222219
 30
0.0
  0
VERTEX
  5
C5
330
C0
100
AcDbEntity
  8
0
  6
Continuous
 62
     7
370
     5
100
AcDbVertex
100
AcDb2dVertex
 10
69.4685078938802
 20
51.29293402777777
 30
0.0
  0
VERTEX
  5
C6
330
C0
100
AcDbEntity
  8
0
  6
Continuous
 62
     7
370
     5
100
AcDbVertex
100
AcDb2dVertex
 10
68.15086222330726
 20
51.29293402777777
 30
0.0
  0
VERTEX
  5
C7
330
C0
100
AcDbEntity
  8
0
  6
Continuous
 62
     7
370
     5
100
AcDbVertex
100
AcDb2dVertex
 10
69.18618231879336
 20
55.70706597222219
 30
0.0
  0
VERTEX
  5
C8
330
C0
100
AcDbEntity
  8
0
  6
Continuous
 62
     7
370
     5
100
AcDbVertex
100
AcDb2dVertex
 10
67.59757988823782
 20
55.70706597222219
 30
0.0
  0
VERTEX
  5
C9
330
C0
100
AcDbEntity
  8
0
  6
Continuous
 62
     7
370
     5
100
AcDbVertex
100
AcDb2dVertex
 10
67.88824259440102
 20
56.842431640625
 30
0.0
  0
SEQEND
  5
CA
330
C0
100
AcDbEntity
  8
0
  6
Continuous
 62
     7
370
     5
  0
HATCH
  5
CB
330
42
100
AcDbEntity
  8
0
  6
Continuous
 62
     7
370
     0
100
AcDbHatch
 10
0.0
 20
0.0
 30
0.0
210
0.0
220
0.0
230
1.0
  2
SOLID
 70
     1
 71
     0
 91
        1
 92
        1
 93
        9
 72
     1
 10
67.88824259440102
 20
56.842431640625
 11
72.42212605794268
 21
56.842431640625
 72
     1
 10
72.42212605794268
 20
56.842431640625
 11
72.13184231228294
 21
55.70706597222219
 72
     1
 10
72.13184231228294
 20
55.70706597222219
 11
70.53149210611977
 21
55.70706597222219
 72
     1
 10
70.53149210611977
 20
55.70706597222219
 11
69.4685078938802
 21
51.29293402777777
 72
     1
 10
69.4685078938802
 20
51.29293402777777
 11
68.15086222330726
 21
51.29293402777777
 72
     1
 10
68.15086222330726
 20
51.29293402777777
 11
69.18618231879336
 21
55.70706597222219
 72
     1
 10
69.18618231879336
 20
55.70706597222219
 11
67.59757988823782
 21
55.70706597222219
 72
     1
 10
67.59757988823782
 20
55.70706597222219
 11
67.88824259440102
 21
56.842431640625
 72
     1
 10
67.88824259440102
 20
56.842431640625
 11
67.88824259440102
 21
56.842431640625
 97
        0
 75
     0
 76
     1
 98
        1
 10
0.0
 20
0.0
  0
POLYLINE
  5
CC
330
42
100
AcDbEntity
  8
0
  6
Continuous
 62
     7
370
     5
100
AcDb2dPolyline
 66
     1
 10
0.0
 20
0.0
 30
0.0
 70
   128
  0
VERTEX
  5
CD
330
CC
100
AcDbEntity
  8
0
  6
Continuous
 62
     7
370
     5
100
AcDbVertex
100
AcDb2dVertex
 10
73.18573147243922
 20
56.82575737847223
 30
0.0
  0
VERTEX
  5
CE
330
CC
100
AcDbEntity
  8
0
  6
Continuous
 62
     7
370
     5
100
AcDbVertex
100
AcDb2dVertex
 10
77.21881863064232
 20
56.82575737847223
 30
0.0
  0
VERTEX
  5
CF
330
CC
100
AcDbEntity
  8
0
  6
Continuous
 62
     7
370
     5
100
AcDbVertex
100
AcDb2dVertex
 10
76.95430419921874
 20
55.75936252170138
 30
0.0
  0
VERTEX
  5
D0
330
CC
100
AcDbEntity
  8
0
  6
Continuous
 62
     7
370
     5
100
AcDbVertex
100
AcDb2dVertex
 10
74.19319797092012
 20
55.75936252170138
 30
0.0
  0
VERTEX
  5
D1
330
CC
100
AcDbEntity
  8
0
  6
Continuous
 62
     7
370
     5
100
AcDbVertex
100
AcDb2dVertex
 10
73.94668416341145
 20
54.80210828993055
 30
0.0
  0
VERTEX
  5
D2
330
CC
100
AcDbEntity
  8
0
  6
Continuous
 62
     7
370
     5
100
AcDbVertex
100
AcDb2dVertex
 10
76.64583034939233
 20
54.80210828993055
 30
0.0
  0
VERTEX
  5
D3
330
CC
100
AcDbEntity
  8
0
  6
Continuous
 62
     7
370
     5
100
AcDbVertex
100
AcDb2dVertex
 10
76.38321072048609
 20
53.6663636610243
 30
0.0
  0
VERTEX
  5
D4
330
CC
100
AcDbEntity
  8
0
  6
Continuous
 62
     7
370
     5
100
AcDbVertex
100
AcDb2dVertex
 10
73.68406453450518
 20
53.6663636610243
 30
0.0
  0
VERTEX
  5
D5
330
CC
100
AcDbEntity
  8
0
  6
Continuous
 62
     7
370
     5
100
AcDbVertex
100
AcDb2dVertex
 10
73.35853746202253
 20
52.37827690972225
 30
0.0
  0
VERTEX
  5
D6
330
CC
100
AcDbEntity
  8
0
  6
Continuous
 62
     7
370
     5
100
AcDbVertex
100
AcDb2dVertex
 10
76.09292697482636
 20
52.37827690972225
 30
0.0
  0
VERTEX
  5
D7
330
CC
100
AcDbEntity
  8
0
  6
Continuous
 62
     7
370
     5
100
AcDbVertex
100
AcDb2dVertex
 10
75.8481184895833
 20
51.29293402777777
 30
0.0
  0
VERTEX
  5
D8
330
CC
100
AcDbEntity
  8
0
  6
Continuous
 62
     7
370
     5
100
AcDbVertex
100
AcDb2dVertex
 10
71.83094767252601
 20
51.29293402777777
 30
0.0
  0
VERTEX
  5
D9
330
CC
100
AcDbEntity
  8
0
  6
Continuous
 62
     7
370
     5
100
AcDbVertex
100
AcDb2dVertex
 10
73.18573147243922
 20
56.82575737847223
 30
0.0
  0
SEQEND
  5
DA
330
CC
100
AcDbEntity
  8
0
  6
Continuous
 62
     7
370
     5
  0
HATCH
  5
DB
330
42
100
AcDbEntity
  8
0
  6
Continuous
 62
     7
370
     0
100
AcDbHatch
 10
0.0
 20
0.0
 30
0.0
210
0.0
220
0.0
230
1.0
  2
SOLID
 70
     1
 71
     0
 91
        1
 92
        1
 93
       13
 72
     1
 10
73.18573147243922
 20
56.82575737847223
 11
77.21881863064232
 21
56.82575737847223
 72
     1
 10
77.21881863064232
 20
56.82575737847223
 11
76.95430419921874
 21
55.75936252170138
 72
     1
 10
76.95430419921874
 20
55.75936252170138
 11
74.19319797092012
 21
55.75936252170138
 72
     1
 10
74.19319797092012
 20
55.75936252170138
 11
73.94668416341145
 21
54.80210828993055
 72
     1
 10
73.94668416341145
 20
54.80210828993055
 11
76.64583034939233
 21
54.80210828993055
 72
     1
 10
76.64583034939233
 20
54.80210828993055
 11
76.38321072048609
 21
53.6663636610243
 72
     1
 10
76.38321072048609
 20
53.6663636610243
 11
73.68406453450518
 21
53.6663636610243
 72
     1
 10
73.68406453450518
 20
53.6663636610243
 11
73.35853746202253
 21
52.37827690972225
 72
     1
 10
73.35853746202253
 20
52.37827690972225
 11
76.09292697482636
 21
52.37827690972225
 72
     1
 10
76.09292697482636
 20
52.37827690972225
 11
75.8481184895833
 21
51.29293402777777
 72
     1
 10
75.8481184895833
 20
51.29293402777777
 11
71.83094767252601
 21
51.29293402777777
 72
     1
 10
71.83094767252601
 20
51.29293402777777
 11
73.18573147243922
 21
56.82575737847223
 72
     1
 10
73.18573147243922
 20
56.82575737847223
 11
73.18573147243922
 21
56.82575737847223
 97
        0
 75
     0
 76
     1
 98
        1
 10
0.0
 20
0.0
  0
POLYLINE
  5
DC
330
42
100
AcDbEntity
  8
0
  6
Continuous
 62
     7
370
     5
100
AcDb2dPolyline
 66
     1
 10
0.0
 20
0.0
 30
0.0
 70
   128
  0
VERTEX
  5
DD
330
DC
100
AcDbEntity
  8
0
  6
Continuous
 62
     7
370
     5
100
AcDbVertex
100
AcDb2dVertex
 10
85.03412109374995
 20
56.81742024739587
 30
0.0
  0
VERTEX
  5
DE
330
DC
100
AcDbEntity
  8
0
  6
Continuous
 62
     7
370
     5
100
AcDbVertex
100
AcDb2dVertex
 10
86.30742838541664
 20
56.81742024739587
 30
0.0
  0
VERTEX
  5
DF
330
DC
100
AcDbEntity
  8
0
  6
Continuous
 62
     7
370
     5
100
AcDbVertex
100
AcDb2dVertex
 10
85.25278130425343
 20
52.43777370876737
 30
0.0
  0
VERTEX
  5
E0
330
DC
100
AcDbEntity
  8
0
  6
Continuous
 62
     7
370
     5
100
AcDbVertex
100
AcDb2dVertex
 10
87.41437201605899
 20
52.43777370876737
 30
0.0
  0
VERTEX
  5
E1
330
DC
100
AcDbEntity
  8
0
  6
Continuous
 62
     7
370
     5
100
AcDbVertex
100
AcDb2dVertex
 10
87.14265733506943
 20
51.29293402777777
 30
0.0
  0
VERTEX
  5
E2
330
DC
100
AcDbEntity
  8
0
  6
Continuous
 62
     7
370
     5
100
AcDbVertex
100
AcDb2dVertex
 10
83.68123209635414
 20
51.29293402777777
 30
0.0
  0
VERTEX
  5
E3
330
DC
100
AcDbEntity
  8
0
  6
Continuous
 62
     7
370
     5
100
AcDbVertex
100
AcDb2dVertex
 10
85.03412109374995
 20
56.81742024739587
 30
0.0
  0
SEQEND
  5
E4
330
DC
100
AcDbEntity
  8
0
  6
Continuous
 62
     7
370
     5
  0
HATCH
  5
E5
330
42
100
AcDbEntity
  8
0
  6
Continuous
 62
     7
370
     0
100
AcDbHatch
 10
0.0
 20
0.0
 30
0.0
210
0.0
220
0.0
230
1.0
  2
SOLID
 70
     1
 71
     0
 91
        1
 92
        1
 93
        7
 72
     1
 10
85.03412109374995
 20
56.81742024739587
 11
86.30742838541664
 21
56.81742024739587
 72
     1
 10
86.30742838541664
 20
56.81742024739587
 11
85.25278130425343
 21
52.43777370876737
 72
     1
 10
85.25278130425343
 20
52.43777370876737
 11
87.41437201605899
 21
52.43777370876737
 72
     1
 10
87.41437201605899
 20
52.43777370876737
 11
87.14265733506943
 21
51.29293402777777
 72
     1
 10
87.14265733506943
 20
51.29293402777777
 11
83.68123209635414
 21
51.29293402777777
 72
     1
 10
83.68123209635414
 20
51.29293402777777
 11
85.03412109374995
 21
56.81742024739587
 72
     1
 10
85.03412109374995
 20
56.81742024739587
 11
85.03412109374995
 21
56.81742024739587
 97
        0
 75
     0
 76
     1
 98
        1
 10
0.0
 20
0.0
  0
POLYLINE
  5
E6
330
42
100
AcDbEntity
  8
0
  6
Continuous
 62
     7
370
     5
100
AcDb2dPolyline
 66
     1
 10
0.0
 20
0.0
 30
0.0
 70
   128
  0
VERTEX
  5
E7
330
E6
100
AcDbEntity
  8
0
  6
Continuous
 62
     7
370
     5
100
AcDbVertex
100
AcDb2dVertex
 10
88.07906873914928
 20
56.82499945751253
 30
0.0
  0
VERTEX
  5
E8
330
E6
100
AcDbEntity
  8
0
  6
Continuous
 62
     7
370
     5
100
AcDbVertex
100
AcDb2dVertex
 10
92.62091037326385
 20
56.82499945751253
 30
0.0
  0
VERTEX
  5
E9
330
E6
100
AcDbEntity
  8
0
  6
Continuous
 62
     7
370
     5
100
AcDbVertex
100
AcDb2dVertex
 10
92.33100558810762
 20
55.69039171011671
 30
0.0
  0
VERTEX
  5
EA
330
E6
100
AcDbEntity
  8
0
  6
Continuous
 62
     7
370
     5
100
AcDbVertex
100
AcDb2dVertex
 10
90.7211813693576
 20
55.69039171011671
 30
0.0
  0
VERTEX
  5
EB
330
E6
100
AcDbEntity
  8
0
  6
Continuous
 62
     7
370
     5
100
AcDbVertex
100
AcDb2dVertex
 10
89.64303873697912
 20
51.29293402782501
 30
0.0
  0
VERTEX
  5
EC
330
E6
100
AcDbEntity
  8
0
  6
Continuous
 62
     7
370
     5
100
AcDbVertex
100
AcDb2dVertex
 10
88.31591905381941
 20
51.29293402777777
 30
0.0
  0
VERTEX
  5
ED
330
E6
100
AcDbEntity
  8
0
  6
Continuous
 62
     7
370
     5
100
AcDbVertex
100
AcDb2dVertex
 10
89.38724039713537
 20
55.70782389327642
 30
0.0
  0
VERTEX
  5
EE
330
E6
100
AcDbEntity
  8
0
  6
Continuous
 62
     7
370
     5
100
AcDbVertex
100
AcDb2dVertex
 10
87.79484836154512
 20
55.70782389327642
 30
0.0
  0
VERTEX
  5
EF
330
E6
100
AcDbEntity
  8
0
  6
Continuous
 62
     7
370
     5
100
AcDbVertex
100
AcDb2dVertex
 10
88.07906873914928
 20
56.82499945751253
 30
0.0
  0
SEQEND
  5
F0
330
E6
100
AcDbEntity
  8
0
  6
Continuous
 62
     7
370
     5
  0
HATCH
  5
F1
330
42
100
AcDbEntity
  8
0
  6
Continuous
 62
     7
370
     0
100
AcDbHatch
 10
0.0
 20
0.0
 30
0.0
210
0.0
220
0.0
230
1.0
  2
SOLID
 70
     1
 71
     0
 91
        1
 92
        1
 93
        9
 72
     1
 10
88.07906873914928
 20
56.82499945751253
 11
92.62091037326385
 21
56.82499945751253
 72
     1
 10
92.62091037326385
 20
56.82499945751253
 11
92.33100558810762
 21
55.69039171011671
 72
     1
 10
92.33100558810762
 20
55.69039171011671
 11
90.7211813693576
 21
55.69039171011671
 72
     1
 10
90.7211813693576
 20
55.69039171011671
 11
89.64303873697912
 21
51.29293402782501
 72
     1
 10
89.64303873697912
 20
51.29293402782501
 11
88.31591905381941
 21
51.29293402777777
 72
     1
 10
88.31591905381941
 20
51.29293402777777
 11
89.38724039713537
 21
55.70782389327642
 72
     1
 10
89.38724039713537
 20
55.70782389327642
 11
87.79484836154512
 21
55.70782389327642
 72
     1
 10
87.79484836154512
 20
55.70782389327642
 11
88.07906873914928
 21
56.82499945751253
 72
     1
 10
88.07906873914928
 20
56.82499945751253
 11
88.07906873914928
 21
56.82499945751253
 97
        0
 75
     0
 76
     1
 98
        1
 10
0.0
 20
0.0
  0
POLYLINE
  5
F2
330
42
100
AcDbEntity
  8
0
  6
Continuous
 62
     7
370
     5
100
AcDb2dPolyline
 66
     1
 10
0.0
 20
0.0
 30
0.0
 70
   128
  0
VERTEX
  5
F3
330
F2
100
AcDbEntity
  8
0
  6
Continuous
 62
     7
370
     5
100
AcDbVertex
100
AcDb2dVertex
 10
97.72740315755206
 20
52.39608805338541
 30
0.0
  0
VERTEX
  5
F4
330
F2
100
AcDbEntity
  8
0
  6
Continuous
 62
     7
370
     5
100
AcDbVertex
100
AcDb2dVertex
 10
98.989720594618
 20
52.39608805338541
 30
0.0
  0
VERTEX
  5
F5
330
F2
100
AcDbEntity
  8
0
  6
Continuous
 62
     7
370
     5
100
AcDbVertex
100
AcDb2dVertex
 10
98.70284749348954
 20
51.29293402777777
 30
0.0
  0
VERTEX
  5
F6
330
F2
100
AcDbEntity
  8
0
  6
Continuous
 62
     7
370
     5
100
AcDbVertex
100
AcDb2dVertex
 10
97.46250976562499
 20
51.30771348741317
 30
0.0
  0
VERTEX
  5
F7
330
F2
100
AcDbEntity
  8
0
  6
Continuous
 62
     7
370
     5
100
AcDbVertex
100
AcDb2dVertex
 10
97.72740315755206
 20
52.39608805338541
 30
0.0
  0
SEQEND
  5
F8
330
F2
100
AcDbEntity
  8
0
  6
Continuous
 62
     7
370
     5
  0
HATCH
  5
F9
330
42
100
AcDbEntity
  8
0
  6
Continuous
 62
     7
370
     0
100
AcDbHatch
 10
0.0
 20
0.0
 30
0.0
210
0.0
220
0.0
230
1.0
  2
SOLID
 70
     1
 71
     0
 91
        1
 92
        1
 93
        5
 72
     1
 10
97.72740315755206
 20
52.39608805338541
 11
98.989720594618
 21
52.39608805338541
 72
     1
 10
98.989720594618
 20
52.39608805338541
 11
98.70284749348954
 21
51.29293402777777
 72
     1
 10
98.70284749348954
 20
51.29293402777777
 11
97.46250976562499
 21
51.30771348741317
 72
     1
 10
97.46250976562499
 20
51.30771348741317
 11
97.72740315755206
 21
52.39608805338541
 72
     1
 10
97.72740315755206
 20
52.39608805338541
 11
97.72740315755206
 21
52.39608805338541
 97
        0
 75
     0
 76
     1
 98
        1
 10
0.0
 20
0.0
  0
LWPOLYLINE
  5
FA
330
42
100
AcDbEntity
  8
0
  6
Continuous
 62
     7
370
     5
100
AcDbPolyline
 90
       12
 70
   129
 43
0.0
 10
61.81899210611977
 20
56.79293402777777
 10
60.03683522939522
 20
56.79293402777777
 42
0.3526067844711683
 10
59.05981946798523
 20
56.00610110299449
 10
58.63149210611977
 20
54.04293402777777
 10
58.19030670505723
 20
52.02083427290781
 42
0.4786263258186699
 10
58.77651616190322
 20
51.29293402777777
 10
60.60649210611977
 20
51.29293402777777
 10
62.37971587079228
 20
51.29293402777777
 42
0.3513888176622454
 10
63.35579842408554
 20
52.07553382272609
 10
63.79399210611977
 20
54.04293402777777
 10
64.21668834687762
 20
55.94075388424159
 42
0.4799589680339244
 10
63.53343055957234
 20
56.79293402777777
  0
LWPOLYLINE
  5
FB
330
42
100
AcDbEntity
  8
0
  6
Continuous
 62
     7
370
     5
100
AcDbPolyline
 90
       12
 70
   129
 43
0.0
 10
61.58663916494329
 20
55.69293402777777
 10
60.40729817034491
 20
55.69293402777777
 42
0.3513649685694647
 10
60.11447894341617
 20
55.45817895356404
 10
59.7991391649433
 20
54.04293402777778
 10
59.4857471456008
 20
52.63643064496863
 42
0.4799850865730068
 10
59.6809599635533
 20
52.39293402777779
 10
60.84472740023742
 20
52.39293402777779
 10
62.018390037036
 20
52.39293402777779
 42
0.3502930649592498
 10
62.31095804347458
 20
52.62657167694123
 10
62.63222740023741
 20
54.04293402777778
 10
62.95109150107644
 20
55.4486924605534
 42
0.4811599436455284
 10
62.75604616345072
 20
55.69293402777777
  0
HATCH
  5
FC
330
42
100
AcDbEntity
  8
0
  6
Continuous
 62
     7
370
     0
100
AcDbHatch
 10
0.0
 20
0.0
 30
0.0
210
0.0
220
0.0
230
1.0
  2
SOLID
 70
     1
 71
     0
 91
        2
 92
        1
 93
       12
 72
     1
 10
61.81899210611977
 20
56.79293402777777
 11
60.03683522939522
 21
56.79293402777777
 72
     2
 10
60.03683522939522
 20
55.79293402777778
 40
0.9999999999999929
 50
90.0
 51
167.6919841825726
 73
     1
 72
     1
 10
59.05981946798523
 20
56.00610110299449
 11
58.63149210611977
 21
54.04293402777777
 72
     1
 10
58.63149210611977
 20
54.04293402777777
 11
58.19030670505723
 21
52.02083427290781
 72
     2
 10
58.77651616190322
 20
51.89293402777776
 40
0.5999999999999986
 50
167.6919841825713
 51
270.0
 73
     1
 72
     1
 10
58.77651616190322
 20
51.29293402777777
 11
60.60649210611977
 21
51.29293402777777
 72
     1
 10
60.60649210611977
 20
51.29293402777777
 11
62.37971587079228
 21
51.29293402777777
 72
     2
 10
62.37971587079228
 20
52.29293402777778
 40
1.000000000000007
 50
270.0
 51
347.4436197330568
 73
     1
 72
     1
 10
63.35579842408554
 20
52.07553382272609
 11
63.79399210611977
 21
54.04293402777777
 72
     1
 10
63.79399210611977
 20
54.04293402777777
 11
64.21668834687762
 21
55.94075388424159
 72
     2
 10
63.53343055957234
 20
56.09293402777777
 40
0.7000000000000007
 50
347.4436197330566
 51
450.0
 73
     1
 72
     1
 10
63.53343055957234
 20
56.79293402777777
 11
61.81899210611977
 21
56.79293402777777
 97
        0
 92
        1
 93
       12
 72
     1
 10
61.58663916494329
 20
55.69293402777777
 11
60.40729817034491
 21
55.69293402777777
 72
     2
 10
60.4072981703449
 20
55.39293402777778
 40
0.2999999999999972
 50
89.99999999999865
 51
167.4387546006853
 73
     1
 72
     1
 10
60.11447894341617
 20
55.45817895356404
 11
59.7991391649433
 21
54.04293402777778
 72
     1
 10
59.7991391649433
 20
54.04293402777778
 11
59.4857471456008
 21
52.63643064496863
 72
     2
 10
59.6809599635533
 20
52.59293402777779
 40
0.2000000000000009
 50
167.4387546006856
 51
270.0
 73
     1
 72
     1
 10
59.6809599635533
 20
52.39293402777779
 11
60.84472740023742
 21
52.39293402777779
 72
     1
 10
60.84472740023742
 20
52.39293402777779
 11
62.018390037036
 21
52.39293402777779
 72
     2
 10
62.018390037036
 20
52.69293402777779
 40
0.2999999999999972
 50
270.0
 51
347.2200150795873
 73
     1
 72
     1
 10
62.31095804347458
 20
52.62657167694123
 11
62.63222740023741
 21
54.04293402777778
 72
     1
 10
62.63222740023741
 20
54.04293402777778
 11
62.95109150107644
 21
55.4486924605534
 72
     2
 10
62.75604616345071
 20
55.49293402777777
 40
0.2000000000000085
 50
347.2200150795866
 51
449.999999999998
 73
     1
 72
     1
 10
62.75604616345072
 20
55.69293402777777
 11
61.58663916494329
 21
55.69293402777777
 97
        0
 75
     0
 76
     1
 98
        1
 10
0.0
 20
0.0
  0
LWPOLYLINE
  5
FD
102
{ACAD_REACTORS
330
FE
102
}
330
42
100
AcDbEntity
  8
0
  6
Continuous
 62
     7
370
     5
100
AcDbPolyline
 90
       12
 70
   129
 43
0.0
 10
80.43149210611978
 20
51.29293402777777
 10
80.67649210611978
 20
52.39293402777779
 10
78.4809599635533
 20
52.39293402777779
 42
-0.4799850865730068
 10
78.28574714560081
 20
52.63643064496863
 10
78.91447894341619
 20
55.45817895356404
 42
-0.3513649685694595
 10
79.20729817034493
 20
55.69293402777777
 10
81.41149210611977
 20
55.69293402777777
 10
81.65649210611977
 20
56.79293402777777
 10
78.83683522939522
 20
56.79293402777777
 42
0.352606784471164
 10
77.85981946798523
 20
56.0061011029945
 10
77.01677580488013
 20
52.14215098042948
 42
0.4786263258186678
 10
77.70068683786712
 20
51.29293402777777
  0
HATCH
  5
FE
330
42
100
AcDbEntity
  8
0
  6
Continuous
 62
     7
370
     0
100
AcDbHatch
 10
0.0
 20
0.0
 30
0.0
210
0.0
220
0.0
230
1.0
  2
SOLID
 70
     1
 71
     1
 91
        1
 92
        1
 93
       12
 72
     1
 10
80.43149210611978
 20
51.29293402777777
 11
80.67649210611978
 21
52.39293402777779
 72
     1
 10
80.67649210611978
 20
52.39293402777779
 11
78.4809599635533
 21
52.39293402777779
 72
     2
 10
78.4809599635533
 20
52.59293402777779
 40
0.2000000000000018
 50
90.0000000000002
 51
192.5612453993146
 73
     0
 72
     1
 10
78.28574714560081
 20
52.63643064496863
 11
78.91447894341619
 21
55.45817895356404
 72
     2
 10
79.20729817034493
 20
55.39293402777778
 40
0.2999999999999993
 50
192.5612453993149
 51
270.0000000000005
 73
     0
 72
     1
 10
79.20729817034493
 20
55.69293402777777
 11
81.41149210611977
 21
55.69293402777777
 72
     1
 10
81.41149210611977
 20
55.69293402777777
 11
81.65649210611977
 21
56.79293402777777
 72
     1
 10
81.65649210611977
 20
56.79293402777777
 11
78.83683522939522
 21
56.79293402777777
 72
     2
 10
78.83683522939522
 20
55.79293402777777
 40
0.9999999999999982
 50
90.00000000000014
 51
167.6919841825718
 73
     1
 72
     1
 10
77.85981946798523
 20
56.0061011029945
 11
77.01677580488013
 21
52.14215098042948
 72
     2
 10
77.70068683786712
 20
51.99293402777777
 40
0.7000000000000037
 50
167.6919841825718
 51
270.0000000000001
 73
     1
 72
     1
 10
77.70068683786712
 20
51.29293402777777
 11
80.43149210611978
 21
51.29293402777777
 97
        1
330
FD
 75
     0
 76
     1
 98
        1
 10
0.0
 20
0.0
  0
SPLINE
  5
FF
330
42
100
AcDbEntity
  8
0
  6
Continuous
 62
     7
370
     5
100
AcDbSpline
210
0.0
220
0.0
230
1.0
 70
    15
 71
     2
 72
    20
 73
    17
 74
     0
 42
0.000000001
 43
0.0000000000001
 12
1.0
 22
0.0
 32
0.0
 13
1.0
 23
0.0
 33
0.0
 40
0.0
 40
0.0
 40
0.0
 40
1.0
 40
1.0
 40
2.0
 40
2.0
 40
3.0
 40
3.0
 40
4.0
 40
4.0
 40
5.0
 40
5.0
 40
6.0
 40
6.0
 40
7.0
 40
7.0
 40
8.0
 40
8.0
 40
8.0
 10
93.26364461263017
 20
56.79293402777777
 30
0.0
 41
1.0
 10
92.59756835937497
 20
54.04293402777777
 30
0.0
 41
1.0
 10
91.93149210611978
 20
51.29293402777777
 30
0.0
 41
1.0
 10
93.51634183671737
 20
51.29293402777777
 30
0.0
 41
1.0
 10
95.10119156731497
 20
51.29293402777777
 30
0.0
 41
1.0
 10
96.41364461263018
 20
51.29293402777777
 30
0.0
 41
0.8227858708602201
 10
96.87819153974918
 20
52.52042298848637
 30
0.0
 41
1.0
 10
96.93133474285634
 20
52.66084517479874
 30
0.0
 41
1.0
 10
96.9844779459635
 20
52.80126736111109
 30
0.0
 41
1.0
 10
97.55529306084692
 20
54.30959212105622
 30
0.0
 41
1.0
 10
97.55946883673855
 20
55.55126307441699
 30
0.0
 41
1.0
 10
97.55953213594654
 20
55.57008515442796
 30
0.0
 41
1.0
 10
97.55959543515453
 20
55.58890723443893
 30
0.0
 41
1.0
 10
97.56364461263018
 20
56.79293402777777
 30
0.0
 41
0.7059167761293033
 10
96.3596110105592
 20
56.79293402777777
 30
0.0
 41
1.0
 10
94.81162781159469
 20
56.79293402777777
 30
0.0
 41
1.0
 10
93.26364461263017
 20
56.79293402777777
 30
0.0
 41
1.0
  0
SPLINE
  5
100
330
42
100
AcDbEntity
  8
0
  6
Continuous
 62
     7
370
     5
100
AcDbSpline
210
0.0
220
0.0
230
1.0
 70
    15
 71
     2
 72
    20
 73
    17
 74
     0
 42
0.000000001
 43
0.0000000000001
 12
1.0
 22
0.0
 32
0.0
 13
1.0
 23
0.0
 33
0.0
 40
0.0
 40
0.0
 40
0.0
 40
1.0
 40
1.0
 40
2.0
 40
2.0
 40
3.0
 40
3.0
 40
4.0
 40
4.0
 40
5.0
 40
5.0
 40
6.0
 40
6.0
 40
7.0
 40
7.0
 40
8.0
 40
8.0
 40
8.0
 10
94.26364461263017
 20
55.6929340277778
 30
0.0
 41
1.0
 10
93.85560648600257
 20
54.05543402777779
 30
0.0
 41
1.0
 10
93.44756835937497
 20
52.41793402777777
 30
0.0
 41
1.0
 10
94.19021222260784
 20
52.41793402777777
 30
0.0
 41
1.0
 10
94.93285608584073
 20
52.41793402777777
 30
0.0
 41
1.0
 10
95.51364461263017
 20
52.41793402777777
 30
0.0
 41
0.8256649152407532
 10
95.72472935945262
 20
52.95900568893658
 30
0.0
 41
1.0
 10
95.78377031937474
 20
53.11034485835718
 30
0.0
 41
1.0
 10
95.84281127929685
 20
53.26168402777778
 30
0.0
 41
1.0
 10
96.17173789109385
 20
54.10538258744856
 30
0.0
 41
1.0
 10
96.26781127929686
 20
54.89918402777779
 30
0.0
 41
1.0
 10
96.29882710465077
 20
55.15607597255691
 30
0.0
 41
1.0
 10
96.32984293000467
 20
55.41296791733603
 30
0.0
 41
1.0
 10
96.3636446126302
 20
55.69293402777782
 30
0.0
 41
0.6633760465349968
 10
96.0816453630847
 20
55.6929340277778
 30
0.0
 41
1.0
 10
95.17264498785744
 20
55.6929340277778
 30
0.0
 41
1.0
 10
94.26364461263017
 20
55.6929340277778
 30
0.0
 41
1.0
  0
HATCH
  5
101
330
42
100
AcDbEntity
  8
0
  6
Continuous
 62
     7
370
     0
100
AcDbHatch
 10
0.0
 20
0.0
 30
0.0
210
0.0
220
0.0
230
1.0
  2
SOLID
 70
     1
 71
     0
 91
        2
 92
        1
 93
      773
 72
     1
 10
93.26364461263017
 20
56.79293402777777
 11
91.93149210611978
 21
51.29293402777777
 72
     1
 10
91.93149210611978
 20
51.29293402777777
 11
95.10119156731497
 21
51.29293402777777
 72
     1
 10
95.10119156731497
 20
51.29293402777777
 11
95.11016459402364
 21
51.29295521610864
 72
     1
 10
95.11016459402364
 20
51.29295521610864
 11
95.11913742060237
 21
51.29301878062864
 72
     1
 10
95.11913742060237
 20
51.29301878062864
 11
95.12810984692564
 21
51.29312471992007
 72
     1
 10
95.12810984692564
 20
51.29312471992007
 11
95.1370816728769
 21
51.29327303162011
 72
     1
 10
95.1370816728769
 20
51.29327303162011
 11
95.14605269835297
 21
51.29346371242089
 72
     1
 10
95.14605269835297
 20
51.29346371242089
 11
95.15502272326853
 21
51.29369675806957
 72
     1
 10
95.15502272326853
 20
51.29369675806957
 11
95.16399154756056
 21
51.2939721633684
 72
     1
 10
95.16399154756056
 20
51.2939721633684
 11
95.17295897119286
 21
51.29428992217488
 72
     1
 10
95.17295897119286
 20
51.29428992217488
 11
95.18192479416041
 21
51.29465002740189
 72
     1
 10
95.18192479416041
 20
51.29465002740189
 11
95.19088881649394
 21
51.29505247101779
 72
     1
 10
95.19088881649394
 20
51.29505247101779
 11
95.19985083826433
 21
51.2954972440467
 72
     1
 10
95.19985083826433
 20
51.2954972440467
 11
95.20881065958704
 21
51.29598433656862
 72
     1
 10
95.20881065958704
 20
51.29598433656862
 11
95.21776808062668
 21
51.29651373771967
 72
     1
 10
95.21776808062668
 20
51.29651373771967
 11
95.22672290160133
 21
51.29708543569236
 72
     1
 10
95.22672290160133
 20
51.29708543569236
 11
95.2356749227871
 21
51.29769941773581
 72
     1
 10
95.2356749227871
 20
51.29769941773581
 11
95.24462394452252
 21
51.29835567015607
 72
     1
 10
95.24462394452252
 20
51.29835567015607
 11
95.25356976721301
 21
51.29905417831641
 72
     1
 10
95.25356976721301
 20
51.29905417831641
 11
95.2625121913354
 21
51.29979492663765
 72
     1
 10
95.2625121913354
 20
51.29979492663765
 11
95.27145101744225
 21
51.30057789859851
 72
     1
 10
95.27145101744225
 20
51.30057789859851
 11
95.28038604616641
 21
51.30140307673597
 72
     1
 10
95.28038604616641
 20
51.30140307673597
 11
95.28931707822541
 21
51.30227044264565
 72
     1
 10
95.28931707822541
 20
51.30227044264565
 11
95.2982439144259
 21
51.30317997698226
 72
     1
 10
95.2982439144259
 20
51.30317997698226
 11
95.30716635566816
 21
51.30413165946
 72
     1
 10
95.30716635566816
 20
51.30413165946
 11
95.31608420295046
 21
51.30512546885301
 72
     1
 10
95.31608420295046
 20
51.30512546885301
 11
95.32499725737354
 21
51.30616138299585
 72
     1
 10
95.32499725737354
 20
51.30616138299585
 11
95.33390532014502
 21
51.30723937878401
 72
     1
 10
95.33390532014502
 20
51.30723937878401
 11
95.34280819258389
 21
51.3083594321744
 72
     1
 10
95.34280819258389
 20
51.3083594321744
 11
95.35170567612487
 21
51.3095215181859
 72
     1
 10
95.35170567612487
 20
51.3095215181859
 11
95.36059757232287
 21
51.31072561089993
 72
     1
 10
95.36059757232287
 20
51.31072561089993
 11
95.36948368285744
 21
51.31197168346098
 72
     1
 10
95.36948368285744
 20
51.31197168346098
 11
95.37836380953716
 21
51.31325970807728
 72
     1
 10
95.37836380953716
 20
51.31325970807728
 11
95.38723775430407
 21
51.31458965602137
 72
     1
 10
95.38723775430407
 20
51.31458965602137
 11
95.39610531923807
 21
51.31596149763072
 72
     1
 10
95.39610531923807
 20
51.31596149763072
 11
95.40496630656139
 21
51.31737520230848
 72
     1
 10
95.40496630656139
 20
51.31737520230848
 11
95.41382051864295
 21
51.31883073852407
 72
     1
 10
95.41382051864295
 20
51.31883073852407
 11
95.42266775800276
 21
51.32032807381393
 72
     1
 10
95.42266775800276
 20
51.32032807381393
 11
95.43150782731637
 21
51.32186717478223
 72
     1
 10
95.43150782731637
 20
51.32186717478223
 11
95.44034052941925
 21
51.32344800710162
 72
     1
 10
95.44034052941925
 20
51.32344800710162
 11
95.44916566731114
 21
51.325070535514
 72
     1
 10
95.44916566731114
 20
51.325070535514
 11
95.45798304416056
 21
51.32673472383129
 72
     1
 10
95.45798304416056
 20
51.32673472383129
 11
95.46679246330906
 21
51.32844053493628
 72
     1
 10
95.46679246330906
 20
51.32844053493628
 11
95.47559372827574
 21
51.33018793078337
 72
     1
 10
95.47559372827574
 20
51.33018793078337
 11
95.4843866427615
 21
51.33197687239953
 72
     1
 10
95.4843866427615
 20
51.33197687239953
 11
95.49317101065355
 21
51.33380731988508
 72
     1
 10
95.49317101065355
 20
51.33380731988508
 11
95.50194663602966
 21
51.33567923241461
 72
     1
 10
95.50194663602966
 20
51.33567923241461
 11
95.51071332316262
 21
51.33759256823793
 72
     1
 10
95.51071332316262
 20
51.33759256823793
 11
95.51947087652458
 21
51.33954728468093
 72
     1
 10
95.51947087652458
 20
51.33954728468093
 11
95.52821910079138
 21
51.34154333814659
 72
     1
 10
95.52821910079138
 20
51.34154333814659
 11
95.53695780084695
 21
51.34358068411591
 72
     1
 10
95.53695780084695
 20
51.34358068411591
 11
95.54568678178765
 21
51.34565927714893
 72
     1
 10
95.54568678178765
 20
51.34565927714893
 11
95.55440584892659
 21
51.34777907088574
 72
     1
 10
95.55440584892659
 20
51.34777907088574
 11
95.56311480779802
 21
51.34994001804752
 72
     1
 10
95.56311480779802
 20
51.34994001804752
 11
95.5718134641616
 21
51.35214207043755
 72
     1
 10
95.5718134641616
 20
51.35214207043755
 11
95.5805016240068
 21
51.35438517894235
 72
     1
 10
95.5805016240068
 20
51.35438517894235
 11
95.58917909355719
 21
51.35666929353275
 72
     1
 10
95.58917909355719
 20
51.35666929353275
 11
95.59784567927478
 21
51.35899436326496
 72
     1
 10
95.59784567927478
 20
51.35899436326496
 11
95.60650118786432
 21
51.36136033628178
 72
     1
 10
95.60650118786432
 20
51.36136033628178
 11
95.61514542627764
 21
51.36376715981374
 72
     1
 10
95.61514542627764
 20
51.36376715981374
 11
95.62377820171787
 21
51.36621478018021
 72
     1
 10
95.62377820171787
 20
51.36621478018021
 11
95.63239932164389
 21
51.36870314279068
 72
     1
 10
95.63239932164389
 20
51.36870314279068
 11
95.64100859377449
 21
51.37123219214595
 72
     1
 10
95.64100859377449
 20
51.37123219214595
 11
95.64960582609271
 21
51.37380187183933
 72
     1
 10
95.64960582609271
 20
51.37380187183933
 11
95.65819082685013
 21
51.37641212455798
 72
     1
 10
95.65819082685013
 20
51.37641212455798
 11
95.66676340457113
 21
51.37906289208409
 72
     1
 10
95.66676340457113
 20
51.37906289208409
 11
95.67532336805716
 21
51.38175411529627
 72
     1
 10
95.67532336805716
 20
51.38175411529627
 11
95.68387052639103
 21
51.3844857341708
 72
     1
 10
95.68387052639103
 20
51.3844857341708
 11
95.69240468894117
 21
51.38725768778298
 72
     1
 10
95.69240468894117
 20
51.38725768778298
 11
95.70092566536577
 21
51.39006991430855
 72
     1
 10
95.70092566536577
 20
51.39006991430855
 11
95.70943326561725
 21
51.392922351025
 72
     1
 10
95.70943326561725
 20
51.392922351025
 11
95.71792729994624
 21
51.39581493431297
 72
     1
 10
95.71792729994624
 20
51.39581493431297
 11
95.72640757890602
 21
51.39874759965773
 72
     1
 10
95.72640757890602
 20
51.39874759965773
 11
95.73487391335664
 21
51.40172028165055
 72
     1
 10
95.73487391335664
 20
51.40172028165055
 11
95.74332611446913
 21
51.40473291399021
 72
     1
 10
95.74332611446913
 20
51.40473291399021
 11
95.7517639937298
 21
51.40778542948443
 72
     1
 10
95.7517639937298
 20
51.40778542948443
 11
95.76018736294434
 21
51.41087776005142
 72
     1
 10
95.76018736294434
 20
51.41087776005142
 11
95.7685960342421
 21
51.41400983672136
 72
     1
 10
95.7685960342421
 20
51.41400983672136
 11
95.77698982008019
 21
51.41718158963798
 72
     1
 10
95.77698982008019
 20
51.41718158963798
 11
95.7853685332478
 21
51.42039294806004
 72
     1
 10
95.7853685332478
 20
51.42039294806004
 11
95.79373198687024
 21
51.42364384036301
 72
     1
 10
95.79373198687024
 20
51.42364384036301
 11
95.80207999441315
 21
51.42693419404058
 72
     1
 10
95.80207999441315
 20
51.42693419404058
 11
95.8104123696867
 21
51.43026393570633
 72
     1
 10
95.8104123696867
 20
51.43026393570633
 11
95.81872892684973
 21
51.43363299109535
 72
     1
 10
95.81872892684973
 20
51.43363299109535
 11
95.82702948041383
 21
51.43704128506589
 72
     1
 10
95.82702948041383
 20
51.43704128506589
 11
95.83531384524755
 21
51.44048874160104
 72
     1
 10
95.83531384524755
 20
51.44048874160104
 11
95.84358183658053
 21
51.44397528381044
 72
     1
 10
95.84358183658053
 20
51.44397528381044
 11
95.85183327000755
 21
51.44750083393197
 72
     1
 10
95.85183327000755
 20
51.44750083393197
 11
95.86006796149273
 21
51.4510653133335
 72
     1
 10
95.86006796149273
 20
51.4510653133335
 11
95.86828572737357
 21
51.45466864251465
 72
     1
 10
95.86828572737357
 20
51.45466864251465
 11
95.87648638436508
 21
51.45831074110853
 72
     1
 10
95.87648638436508
 20
51.45831074110853
 11
95.88466974956387
 21
51.46199152788358
 72
     1
 10
95.88466974956387
 20
51.46199152788358
 11
95.89283564045218
 21
51.46571092074536
 72
     1
 10
95.89283564045218
 20
51.46571092074536
 11
95.90098387490202
 21
51.46946883673835
 72
     1
 10
95.90098387490202
 20
51.46946883673835
 11
95.9091142711792
 21
51.47326519204786
 72
     1
 10
95.9091142711792
 20
51.47326519204786
 11
95.91722664794737
 21
51.47709990200185
 72
     1
 10
95.91722664794737
 20
51.47709990200185
 11
95.92532082427209
 21
51.48097288107284
 72
     1
 10
95.92532082427209
 20
51.48097288107284
 11
95.93339661962486
 21
51.48488404287983
 72
     1
 10
95.93339661962486
 20
51.48488404287983
 11
95.9414538538871
 21
51.48883330019019
 72
     1
 10
95.9414538538871
 20
51.48883330019019
 11
95.94949234735425
 21
51.49282056492162
 72
     1
 10
95.94949234735425
 20
51.49282056492162
 11
95.95751192073972
 21
51.49684574814417
 72
     1
 10
95.95751192073972
 20
51.49684574814417
 11
95.96551239517892
 21
51.50090876008212
 72
     1
 10
95.96551239517892
 20
51.50090876008212
 11
95.97349359223318
 21
51.50500951011605
 72
     1
 10
95.97349359223318
 20
51.50500951011605
 11
95.98145533389388
 21
51.50914790678488
 72
     1
 10
95.98145533389388
 20
51.50914790678488
 11
95.98939744258621
 21
51.51332385778784
 72
     1
 10
95.98939744258621
 20
51.51332385778784
 11
95.99731974117334
 21
51.51753726998658
 72
     1
 10
95.99731974117334
 20
51.51753726998658
 11
96.0052220529602
 21
51.52178804940724
 72
     1
 10
96.0052220529602
 20
51.52178804940724
 11
96.01310420169757
 21
51.52607610124254
 72
     1
 10
96.01310420169757
 20
51.52607610124254
 11
96.02096601158587
 21
51.53040132985387
 72
     1
 10
96.02096601158587
 20
51.53040132985387
 11
96.02880730727918
 21
51.53476363877348
 72
     1
 10
96.02880730727918
 20
51.53476363877348
 11
96.0366279138891
 21
51.5391629307066
 72
     1
 10
96.0366279138891
 20
51.5391629307066
 11
96.04442765698872
 21
51.54359910753357
 72
     1
 10
96.04442765698872
 20
51.54359910753357
 11
96.05220636261637
 21
51.5480720703121
 72
     1
 10
96.05220636261637
 20
51.5480720703121
 11
96.0599638572797
 21
51.55258171927945
 72
     1
 10
96.0599638572797
 20
51.55258171927945
 11
96.06769996795933
 21
51.55712795385462
 72
     1
 10
96.06769996795933
 20
51.55712795385462
 11
96.07541452211288
 21
51.56171067264066
 72
     1
 10
96.07541452211288
 20
51.56171067264066
 11
96.08310734767876
 21
51.56632977342684
 72
     1
 10
96.08310734767876
 20
51.56632977342684
 11
96.09077827307998
 21
51.57098515319105
 72
     1
 10
96.09077827307998
 20
51.57098515319105
 11
96.098427127228
 21
51.57567670810199
 72
     1
 10
96.098427127228
 20
51.57567670810199
 11
96.10605373952657
 21
51.58040433352152
 72
     1
 10
96.10605373952657
 20
51.58040433352152
 11
96.11365793987548
 21
51.58516792400704
 72
     1
 10
96.11365793987548
 20
51.58516792400704
 11
96.1212395586744
 21
51.58996737331376
 72
     1
 10
96.1212395586744
 20
51.58996737331376
 11
96.12879842682666
 21
51.59480257439714
 72
     1
 10
96.12879842682666
 20
51.59480257439714
 11
96.136334375743
 21
51.59967341941525
 72
     1
 10
96.136334375743
 20
51.59967341941525
 11
96.14384723734533
 21
51.60457979973117
 72
     1
 10
96.14384723734533
 20
51.60457979973117
 11
96.15133684407049
 21
51.6095216059154
 72
     1
 10
96.15133684407049
 20
51.6095216059154
 11
96.15880302887398
 21
51.61449872774835
 72
     1
 10
96.15880302887398
 20
51.61449872774835
 11
96.16624562523373
 21
51.61951105422274
 72
     1
 10
96.16624562523373
 20
51.61951105422274
 11
96.17366446715373
 21
51.62455847354613
 72
     1
 10
96.17366446715373
 20
51.62455847354613
 11
96.1810593891678
 21
51.62964087314336
 72
     1
 10
96.1810593891678
 20
51.62964087314336
 11
96.18843022634323
 21
51.63475813965911
 72
     1
 10
96.18843022634323
 20
51.63475813965911
 11
96.19577681428454
 21
51.63991015896038
 72
     1
 10
96.19577681428454
 20
51.63991015896038
 11
96.20309898913705
 21
51.64509681613909
 72
     1
 10
96.20309898913705
 20
51.64509681613909
 11
96.21039658759057
 21
51.65031799551459
 72
     1
 10
96.21039658759057
 20
51.65031799551459
 11
96.21766944688308
 21
51.65557358063629
 72
     1
 10
96.21766944688308
 20
51.65557358063629
 11
96.22491740480432
 21
51.66086345428619
 72
     1
 10
96.22491740480432
 20
51.66086345428619
 11
96.23214029969941
 21
51.66618749848158
 72
     1
 10
96.23214029969941
 20
51.66618749848158
 11
96.23933797047249
 21
51.67154559447759
 72
     1
 10
96.23933797047249
 20
51.67154559447759
 11
96.24651025659024
 21
51.67693762276991
 72
     1
 10
96.24651025659024
 20
51.67693762276991
 11
96.25365699808553
 21
51.6823634630974
 72
     1
 10
96.25365699808553
 20
51.6823634630974
 11
96.26077803556099
 21
51.68782299444479
 72
     1
 10
96.26077803556099
 20
51.68782299444479
 11
96.2678732101925
 21
51.69331609504539
 72
     1
 10
96.2678732101925
 20
51.69331609504539
 11
96.2749423637328
 21
51.6988426423838
 72
     1
 10
96.2749423637328
 20
51.6988426423838
 11
96.28198533851499
 21
51.70440251319864
 72
     1
 10
96.28198533851499
 20
51.70440251319864
 11
96.289001977456
 21
51.7099955834853
 72
     1
 10
96.289001977456
 20
51.7099955834853
 11
96.2959921240602
 21
51.71562172849869
 72
     1
 10
96.2959921240602
 20
51.71562172849869
 11
96.30295562242283
 21
51.72128082275606
 72
     1
 10
96.30295562242283
 20
51.72128082275606
 11
96.30989231723345
 21
51.72697274003976
 72
     1
 10
96.30989231723345
 20
51.72697274003976
 11
96.31680205377943
 21
51.73269735340008
 72
     1
 10
96.31680205377943
 20
51.73269735340008
 11
96.32368467794943
 21
51.73845453515807
 72
     1
 10
96.32368467794943
 20
51.73845453515807
 11
96.3305400362368
 21
51.74424415690839
 72
     1
 10
96.3305400362368
 20
51.74424415690839
 11
96.337367975743
 21
51.75006608952219
 72
     1
 10
96.337367975743
 20
51.75006608952219
 11
96.34416834418107
 21
51.75592020314993
 72
     1
 10
96.34416834418107
 20
51.75592020314993
 11
96.35094098987894
 21
51.76180636722438
 72
     1
 10
96.35094098987894
 20
51.76180636722438
 11
96.35768576178283
 21
51.76772445046343
 72
     1
 10
96.35768576178283
 20
51.76772445046343
 11
96.36440250946073
 21
51.77367432087308
 72
     1
 10
96.36440250946073
 20
51.77367432087308
 11
96.37109108310558
 21
51.77965584575035
 72
     1
 10
96.37109108310558
 20
51.77965584575035
 11
96.37775133353875
 21
51.78566889168626
 72
     1
 10
96.37775133353875
 20
51.78566889168626
 11
96.38438311221331
 21
51.79171332456882
 72
     1
 10
96.38438311221331
 20
51.79171332456882
 11
96.39098627121733
 21
51.79778900958598
 72
     1
 10
96.39098627121733
 20
51.79778900958598
 11
96.39756066327722
 21
51.80389581122864
 72
     1
 10
96.39756066327722
 20
51.80389581122864
 11
96.40410614176099
 21
51.81003359329374
 72
     1
 10
96.40410614176099
 20
51.81003359329374
 11
96.4106225606815
 21
51.81620221888721
 72
     1
 10
96.4106225606815
 20
51.81620221888721
 11
96.4171097746998
 21
51.82240155042706
 72
     1
 10
96.4171097746998
 20
51.82240155042706
 11
96.42356763912822
 21
51.82863144964647
 72
     1
 10
96.42356763912822
 20
51.82863144964647
 11
96.42999600993379
 21
51.83489177759684
 72
     1
 10
96.42999600993379
 20
51.83489177759684
 11
96.43639474374126
 21
51.84118239465092
 72
     1
 10
96.43639474374126
 20
51.84118239465092
 11
96.44276369783647
 21
51.84750316050589
 72
     1
 10
96.44276369783647
 20
51.84750316050589
 11
96.44910273016939
 21
51.85385393418649
 72
     1
 10
96.44910273016939
 20
51.85385393418649
 11
96.45541169935737
 21
51.86023457404822
 72
     1
 10
96.45541169935737
 20
51.86023457404822
 11
96.46169046468829
 21
51.86664493778044
 72
     1
 10
96.46169046468829
 20
51.86664493778044
 11
96.46793888612366
 21
51.87308488240955
 72
     1
 10
96.46793888612366
 20
51.87308488240955
 11
96.47415682430177
 21
51.87955426430221
 72
     1
 10
96.47415682430177
 20
51.87955426430221
 11
96.48034414054082
 21
51.88605293916853
 72
     1
 10
96.48034414054082
 20
51.88605293916853
 11
96.48650069684194
 21
51.89258076206526
 72
     1
 10
96.48650069684194
 20
51.89258076206526
 11
96.49262635589236
 21
51.89913758739907
 72
     1
 10
96.49262635589236
 20
51.89913758739907
 11
96.49872098106837
 21
51.90572326892978
 72
     1
 10
96.49872098106837
 20
51.90572326892978
 11
96.50478443643851
 21
51.91233765977358
 72
     1
 10
96.50478443643851
 20
51.91233765977358
 11
96.51081658676642
 21
51.91898061240637
 72
     1
 10
96.51081658676642
 20
51.91898061240637
 11
96.51681729751402
 21
51.92565197866701
 72
     1
 10
96.51681729751402
 20
51.92565197866701
 11
96.52278643484442
 21
51.93235160976065
 72
     1
 10
96.52278643484442
 20
51.93235160976065
 11
96.52872386562493
 21
51.93907935626203
 72
     1
 10
96.52872386562493
 20
51.93907935626203
 11
96.53462945743001
 21
51.9458350681188
 72
     1
 10
96.53462945743001
 20
51.9458350681188
 11
96.54050307854428
 21
51.9526185946549
 72
     1
 10
96.54050307854428
 20
51.9526185946549
 11
96.54634459796539
 21
51.95942978457392
 72
     1
 10
96.54634459796539
 20
51.95942978457392
 11
96.55215388540695
 21
51.96626848596244
 72
     1
 10
96.55215388540695
 20
51.96626848596244
 11
96.55793081130152
 21
51.97313454629342
 72
     1
 10
96.55793081130152
 20
51.97313454629342
 11
96.56367524680337
 21
51.98002781242967
 72
     1
 10
96.56367524680337
 20
51.98002781242967
 11
96.56938706379145
 21
51.98694813062717
 72
     1
 10
96.56938706379145
 20
51.98694813062717
 11
96.57506613487223
 21
51.99389534653856
 72
     1
 10
96.57506613487223
 20
51.99389534653856
 11
96.58071233338251
 21
52.00086930521658
 72
     1
 10
96.58071233338251
 20
52.00086930521658
 11
96.58632553339226
 21
52.00786985111748
 72
     1
 10
96.58632553339226
 20
52.00786985111748
 11
96.59190560970742
 21
52.01489682810455
 72
     1
 10
96.59190560970742
 20
52.01489682810455
 11
96.59745243787276
 21
52.02195007945157
 72
     1
 10
96.59745243787276
 20
52.02195007945157
 11
96.60296589417455
 21
52.02902944784631
 72
     1
 10
96.60296589417455
 20
52.02902944784631
 11
96.60844585564337
 21
52.03613477539401
 72
     1
 10
96.60844585564337
 20
52.03613477539401
 11
96.61389220005688
 21
52.04326590362098
 72
     1
 10
96.61389220005688
 20
52.04326590362098
 11
96.6193048059425
 21
52.05042267347805
 72
     1
 10
96.6193048059425
 20
52.05042267347805
 11
96.62468355258015
 21
52.05760492534414
 72
     1
 10
96.62468355258015
 20
52.05760492534414
 11
96.6300283200049
 21
52.06481249902988
 72
     1
 10
96.6300283200049
 20
52.06481249902988
 11
96.63533898900971
 21
52.07204523378109
 72
     1
 10
96.63533898900971
 20
52.07204523378109
 11
96.64061544114806
 21
52.07930296828243
 72
     1
 10
96.64061544114806
 20
52.07930296828243
 11
96.64585755873652
 21
52.08658554066096
 72
     1
 10
96.64585755873652
 20
52.08658554066096
 11
96.65106522485753
 21
52.09389278848981
 72
     1
 10
96.65106522485753
 20
52.09389278848981
 11
96.65623832336186
 21
52.10122454879171
 72
     1
 10
96.65623832336186
 20
52.10122454879171
 11
96.66137673887128
 21
52.10858065804271
 72
     1
 10
96.66137673887128
 20
52.10858065804271
 11
96.66648035678111
 21
52.11596095217578
 72
     1
 10
96.66648035678111
 20
52.11596095217578
 11
96.67154906326276
 21
52.12336526658447
 72
     1
 10
96.67154906326276
 20
52.12336526658447
 11
96.67658274526632
 21
52.13079343612663
 72
     1
 10
96.67658274526632
 20
52.13079343612663
 11
96.68158129052303
 21
52.13824529512803
 72
     1
 10
96.68158129052303
 20
52.13824529512803
 11
96.6865445875478
 21
52.14572067738607
 72
     1
 10
96.6865445875478
 20
52.14572067738607
 11
96.69147252564171
 21
52.15321941617353
 72
     1
 10
96.69147252564171
 20
52.15321941617353
 11
96.69636499489447
 21
52.16074134424225
 72
     1
 10
96.69636499489447
 20
52.16074134424225
 11
96.70122188618684
 21
52.16828629382685
 72
     1
 10
96.70122188618684
 20
52.16828629382685
 11
96.70604309119312
 21
52.1758540966485
 72
     1
 10
96.70604309119312
 20
52.1758540966485
 11
96.71082850238356
 21
52.18344458391866
 72
     1
 10
96.71082850238356
 20
52.18344458391866
 11
96.71557801302669
 21
52.19105758634286
 72
     1
 10
96.71557801302669
 20
52.19105758634286
 11
96.72029151719177
 21
52.19869293412445
 72
     1
 10
96.72029151719177
 20
52.19869293412445
 11
96.72496890975113
 21
52.20635045696841
 72
     1
 10
96.72496890975113
 20
52.20635045696841
 11
96.72961008638252
 21
52.21402998408512
 72
     1
 10
96.72961008638252
 20
52.21402998408512
 11
96.73421494357143
 21
52.2217313441942
 72
     1
 10
96.73421494357143
 20
52.2217313441942
 11
96.7387833786134
 21
52.22945436552833
 72
     1
 10
96.7387833786134
 20
52.22945436552833
 11
96.7433152896163
 21
52.23719887583704
 72
     1
 10
96.7433152896163
 20
52.23719887583704
 11
96.74781057550265
 21
52.2449647023906
 72
     1
 10
96.74781057550265
 20
52.2449647023906
 11
96.75226913601179
 21
52.25275167198387
 72
     1
 10
96.75226913601179
 20
52.25275167198387
 11
96.75669087170219
 21
52.26055961094009
 72
     1
 10
96.75669087170219
 20
52.26055961094009
 11
96.76107568395365
 21
52.26838834511488
 72
     1
 10
96.76107568395365
 20
52.26838834511488
 11
96.76542347496948
 21
52.2762376999
 72
     1
 10
96.76542347496948
 20
52.2762376999
 11
96.7697341477787
 21
52.28410750022732
 72
     1
 10
96.7697341477787
 20
52.28410750022732
 11
96.77400760623819
 21
52.2919975705727
 72
     1
 10
96.77400760623819
 20
52.2919975705727
 11
96.77824375503484
 21
52.29990773495992
 72
     1
 10
96.77824375503484
 20
52.29990773495992
 11
96.78244249968768
 21
52.30783781696456
 72
     1
 10
96.78244249968768
 20
52.30783781696456
 11
96.78660374654997
 21
52.315787639718
 72
     1
 10
96.78660374654997
 20
52.315787639718
 11
96.79072740281134
 21
52.32375702591131
 72
     1
 10
96.79072740281134
 20
52.32375702591131
 11
96.79481337649977
 21
52.33174579779924
 72
     1
 10
96.79481337649977
 20
52.33174579779924
 11
96.79886157648376
 21
52.33975377720417
 72
     1
 10
96.79886157648376
 20
52.33975377720417
 11
96.80287191247422
 21
52.34778078552007
 72
     1
 10
96.80287191247422
 20
52.34778078552007
 11
96.80684429502661
 21
52.35582664371653
 72
     1
 10
96.80684429502661
 20
52.35582664371653
 11
96.81077863554286
 21
52.3638911723427
 72
     1
 10
96.81077863554286
 20
52.3638911723427
 11
96.8146748462734
 21
52.37197419153129
 72
     1
 10
96.8146748462734
 20
52.37197419153129
 11
96.81853284031907
 21
52.38007552100267
 72
     1
 10
96.81853284031907
 20
52.38007552100267
 11
96.82235253163306
 21
52.38819498006875
 72
     1
 10
96.82235253163306
 20
52.38819498006875
 11
96.82613383502286
 21
52.39633238763715
 72
     1
 10
96.82613383502286
 20
52.39633238763715
 11
96.82987666615217
 21
52.40448756221515
 72
     1
 10
96.82987666615217
 20
52.40448756221515
 11
96.83358094154272
 21
52.41266032191374
 72
     1
 10
96.83358094154272
 20
52.41266032191374
 11
96.83724657857617
 21
52.42085048445175
 72
     1
 10
96.83724657857617
 20
52.42085048445175
 11
96.84087349549597
 21
52.42905786715983
 72
     1
 10
96.84087349549597
 20
52.42905786715983
 11
96.84446161140917
 21
52.43728228698457
 72
     1
 10
96.84446161140917
 20
52.43728228698457
 11
96.84801084628818
 21
52.44552356049257
 72
     1
 10
96.84801084628818
 20
52.44552356049257
 11
96.85152112097263
 21
52.45378150387453
 72
     1
 10
96.85152112097263
 20
52.45378150387453
 11
96.8549923571711
 21
52.46205593294937
 72
     1
 10
96.8549923571711
 20
52.46205593294937
 11
96.85842447746283
 21
52.4703466631683
 72
     1
 10
96.85842447746283
 20
52.4703466631683
 11
96.86181740529952
 21
52.47865350961897
 72
     1
 10
96.86181740529952
 20
52.47865350961897
 11
96.86517106500696
 21
52.48697628702959
 72
     1
 10
96.86517106500696
 20
52.48697628702959
 11
96.86848538178681
 21
52.49531480977303
 72
     1
 10
96.86848538178681
 20
52.49531480977303
 11
96.87176028171817
 21
52.503668891871
 72
     1
 10
96.87176028171817
 20
52.503668891871
 11
96.8749956917593
 21
52.51203834699818
 72
     1
 10
96.8749956917593
 20
52.51203834699818
 11
96.87819153974918
 21
52.52042298848637
 72
     1
 10
96.87819153974918
 20
52.52042298848637
 11
96.9844779459635
 21
52.80126736111109
 72
     1
 10
96.9844779459635
 20
52.80126736111109
 11
96.98892879281837
 21
52.81304707948398
 72
     1
 10
96.98892879281837
 20
52.81304707948398
 11
96.99336234721295
 21
52.82481866022849
 72
     1
 10
96.99336234721295
 20
52.82481866022849
 11
96.99777860914723
 21
52.83658210334463
 72
     1
 10
96.99777860914723
 20
52.83658210334463
 11
97.00217757862123
 21
52.84833740883239
 72
     1
 10
97.00217757862123
 20
52.84833740883239
 11
97.00655925563493
 21
52.86008457669176
 72
     1
 10
97.00655925563493
 20
52.86008457669176
 11
97.01092364018831
 21
52.87182360692277
 72
     1
 10
97.01092364018831
 20
52.87182360692277
 11
97.01527073228141
 21
52.88355449952542
 72
     1
 10
97.01527073228141
 20
52.88355449952542
 11
97.01960053191422
 21
52.89527725449967
 72
     1
 10
97.01960053191422
 20
52.89527725449967
 11
97.02391303908672
 21
52.90699187184556
 72
     1
 10
97.02391303908672
 20
52.90699187184556
 11
97.02820825379894
 21
52.91869835156307
 72
     1
 10
97.02820825379894
 20
52.91869835156307
 11
97.03248617605087
 21
52.93039669365221
 72
     1
 10
97.03248617605087
 20
52.93039669365221
 11
97.03674680584248
 21
52.94208689811297
 72
     1
 10
97.03674680584248
 20
52.94208689811297
 11
97.0409901431738
 21
52.95376896494535
 72
     1
 10
97.0409901431738
 20
52.95376896494535
 11
97.04521618804483
 21
52.96544289414937
 72
     1
 10
97.04521618804483
 20
52.96544289414937
 11
97.04942494045557
 21
52.97710868572501
 72
     1
 10
97.04942494045557
 20
52.97710868572501
 11
97.053616400406
 21
52.98876633967227
 72
     1
 10
97.053616400406
 20
52.98876633967227
 11
97.05779056789613
 21
53.00041585599116
 72
     1
 10
97.05779056789613
 20
53.00041585599116
 11
97.06194744292597
 21
53.01205723468167
 72
     1
 10
97.06194744292597
 20
53.01205723468167
 11
97.06608702549552
 21
53.02369047574381
 72
     1
 10
97.06608702549552
 20
53.02369047574381
 11
97.07020931560477
 21
53.03531557917757
 72
     1
 10
97.07020931560477
 20
53.03531557917757
 11
97.07431431325372
 21
53.04693254498296
 72
     1
 10
97.07431431325372
 20
53.04693254498296
 11
97.07840201844238
 21
53.05854137315997
 72
     1
 10
97.07840201844238
 20
53.05854137315997
 11
97.08247243117073
 21
53.07014206370861
 72
     1
 10
97.08247243117073
 20
53.07014206370861
 11
97.0865255514388
 21
53.08173461662887
 72
     1
 10
97.0865255514388
 20
53.08173461662887
 11
97.09056137924657
 21
53.09331903192076
 72
     1
 10
97.09056137924657
 20
53.09331903192076
 11
97.09457991459402
 21
53.10489530958427
 72
     1
 10
97.09457991459402
 20
53.10489530958427
 11
97.09858115748119
 21
53.11646344961941
 72
     1
 10
97.09858115748119
 20
53.11646344961941
 11
97.10256510790808
 21
53.12802345202618
 72
     1
 10
97.10256510790808
 20
53.12802345202618
 11
97.10653176587465
 21
53.13957531680457
 72
     1
 10
97.10653176587465
 20
53.13957531680457
 11
97.11048113138094
 21
53.15111904395459
 72
     1
 10
97.11048113138094
 20
53.15111904395459
 11
97.11441320442694
 21
53.16265463347622
 72
     1
 10
97.11441320442694
 20
53.16265463347622
 11
97.11832798501263
 21
53.17418208536949
 72
     1
 10
97.11832798501263
 20
53.17418208536949
 11
97.12222547313802
 21
53.18570139963438
 72
     1
 10
97.12222547313802
 20
53.18570139963438
 11
97.12610566880312
 21
53.1972125762709
 72
     1
 10
97.12610566880312
 20
53.1972125762709
 11
97.12996857200793
 21
53.20871561527904
 72
     1
 10
97.12996857200793
 20
53.20871561527904
 11
97.13381418275243
 21
53.22021051665881
 72
     1
 10
97.13381418275243
 20
53.22021051665881
 11
97.13764250103664
 21
53.2316972804102
 72
     1
 10
97.13764250103664
 20
53.2316972804102
 11
97.14145352686054
 21
53.24317590653322
 72
     1
 10
97.14145352686054
 20
53.24317590653322
 11
97.14524726022415
 21
53.25464639502786
 72
     1
 10
97.14524726022415
 20
53.25464639502786
 11
97.14902370112748
 21
53.26610874589413
 72
     1
 10
97.14902370112748
 20
53.26610874589413
 11
97.15278284957049
 21
53.27756295913202
 72
     1
 10
97.15278284957049
 20
53.27756295913202
 11
97.15652470555322
 21
53.28900903474154
 72
     1
 10
97.15652470555322
 20
53.28900903474154
 11
97.16024926907566
 21
53.30044697272268
 72
     1
 10
97.16024926907566
 20
53.30044697272268
 11
97.1639565401378
 21
53.31187677307545
 72
     1
 10
97.1639565401378
 20
53.31187677307545
 11
97.16764651873964
 21
53.32329843579984
 72
     1
 10
97.16764651873964
 20
53.32329843579984
 11
97.17131920488117
 21
53.33471196089587
 72
     1
 10
97.17131920488117
 20
53.33471196089587
 11
97.17497459856241
 21
53.34611734836351
 72
     1
 10
97.17497459856241
 20
53.34611734836351
 11
97.17861269978337
 21
53.35751459820278
 72
     1
 10
97.17861269978337
 20
53.35751459820278
 11
97.18223350854402
 21
53.36890371041368
 72
     1
 10
97.18223350854402
 20
53.36890371041368
 11
97.18583702484437
 21
53.3802846849962
 72
     1
 10
97.18583702484437
 20
53.3802846849962
 11
97.18942324868445
 21
53.39165752195035
 72
     1
 10
97.18942324868445
 20
53.39165752195035
 11
97.19299218006421
 21
53.40302222127612
 72
     1
 10
97.19299218006421
 20
53.40302222127612
 11
97.19654381898367
 21
53.41437878297351
 72
     1
 10
97.19654381898367
 20
53.41437878297351
 11
97.20007816544283
 21
53.42572720704253
 72
     1
 10
97.20007816544283
 20
53.42572720704253
 11
97.2035952194417
 21
53.43706749348318
 72
     1
 10
97.2035952194417
 20
53.43706749348318
 11
97.20709498098029
 21
53.44839964229546
 72
     1
 10
97.20709498098029
 20
53.44839964229546
 11
97.21057745005857
 21
53.45972365347935
 72
     1
 10
97.21057745005857
 20
53.45972365347935
 11
97.21404262667656
 21
53.47103952703488
 72
     1
 10
97.21404262667656
 20
53.47103952703488
 11
97.21749051083424
 21
53.48234726296202
 72
     1
 10
97.21749051083424
 20
53.48234726296202
 11
97.22092110253163
 21
53.49364686126079
 72
     1
 10
97.22092110253163
 20
53.49364686126079
 11
97.22433440176871
 21
53.50493832193119
 72
     1
 10
97.22433440176871
 20
53.50493832193119
 11
97.22773040854553
 21
53.51622164497321
 72
     1
 10
97.22773040854553
 20
53.51622164497321
 11
97.23110912286204
 21
53.52749683038686
 72
     1
 10
97.23110912286204
 20
53.52749683038686
 11
97.23447054471823
 21
53.53876387817213
 72
     1
 10
97.23447054471823
 20
53.53876387817213
 11
97.23781467411413
 21
53.55002278832903
 72
     1
 10
97.23781467411413
 20
53.55002278832903
 11
97.24114151104976
 21
53.56127356085756
 72
     1
 10
97.24114151104976
 20
53.56127356085756
 11
97.24445105552508
 21
53.57251619575771
 72
     1
 10
97.24445105552508
 20
53.57251619575771
 11
97.2477433075401
 21
53.58375069302948
 72
     1
 10
97.2477433075401
 20
53.58375069302948
 11
97.25101826709482
 21
53.59497705267287
 72
     1
 10
97.25101826709482
 20
53.59497705267287
 11
97.25427593418925
 21
53.60619527468791
 72
     1
 10
97.25427593418925
 20
53.60619527468791
 11
97.25751630882337
 21
53.61740535907455
 72
     1
 10
97.25751630882337
 20
53.61740535907455
 11
97.26073939099722
 21
53.62860730583283
 72
     1
 10
97.26073939099722
 20
53.62860730583283
 11
97.26394518071076
 21
53.63980111496273
 72
     1
 10
97.26394518071076
 20
53.63980111496273
 11
97.267133677964
 21
53.65098678646426
 72
     1
 10
97.267133677964
 20
53.65098678646426
 11
97.27030488275693
 21
53.66216432033741
 72
     1
 10
97.27030488275693
 20
53.66216432033741
 11
97.2734587950896
 21
53.67333371658219
 72
     1
 10
97.2734587950896
 20
53.67333371658219
 11
97.27659541496195
 21
53.68449497519859
 72
     1
 10
97.27659541496195
 20
53.68449497519859
 11
97.27971474237401
 21
53.69564809618662
 72
     1
 10
97.27971474237401
 20
53.69564809618662
 11
97.28281677732576
 21
53.70679307954627
 72
     1
 10
97.28281677732576
 20
53.70679307954627
 11
97.28590151981723
 21
53.71792992527755
 72
     1
 10
97.28590151981723
 20
53.71792992527755
 11
97.28896896984838
 21
53.72905863338045
 72
     1
 10
97.28896896984838
 20
53.72905863338045
 11
97.29201912741927
 21
53.74017920385498
 72
     1
 10
97.29201912741927
 20
53.74017920385498
 11
97.29505199252985
 21
53.75129163670113
 72
     1
 10
97.29505199252985
 20
53.75129163670113
 11
97.29806756518013
 21
53.76239593191891
 72
     1
 10
97.29806756518013
 20
53.76239593191891
 11
97.30106584537012
 21
53.77349208950832
 72
     1
 10
97.30106584537012
 20
53.77349208950832
 11
97.30404683309979
 21
53.78458010946935
 72
     1
 10
97.30404683309979
 20
53.78458010946935
 11
97.30701052836918
 21
53.795659991802
 72
     1
 10
97.30701052836918
 20
53.795659991802
 11
97.30995693117828
 21
53.80673173650628
 72
     1
 10
97.30995693117828
 20
53.80673173650628
 11
97.31288604152707
 21
53.81779534358218
 72
     1
 10
97.31288604152707
 20
53.81779534358218
 11
97.31579785941557
 21
53.82885081302971
 72
     1
 10
97.31579785941557
 20
53.82885081302971
 11
97.31869238484379
 21
53.83989814484887
 72
     1
 10
97.31869238484379
 20
53.83989814484887
 11
97.32156961781169
 21
53.85093733903965
 72
     1
 10
97.32156961781169
 20
53.85093733903965
 11
97.3244295583193
 21
53.86196839560205
 72
     1
 10
97.3244295583193
 20
53.86196839560205
 11
97.32727220636662
 21
53.87299131453608
 72
     1
 10
97.32727220636662
 20
53.87299131453608
 11
97.33009756195364
 21
53.88400609584174
 72
     1
 10
97.33009756195364
 20
53.88400609584174
 11
97.33290562508036
 21
53.89501273951902
 72
     1
 10
97.33290562508036
 20
53.89501273951902
 11
97.33569639574678
 21
53.90601124556792
 72
     1
 10
97.33569639574678
 20
53.90601124556792
 11
97.3384698739529
 21
53.91700161398845
 72
     1
 10
97.3384698739529
 20
53.91700161398845
 11
97.34122605969874
 21
53.92798384478061
 72
     1
 10
97.34122605969874
 20
53.92798384478061
 11
97.34396495298428
 21
53.93895793794439
 72
     1
 10
97.34396495298428
 20
53.93895793794439
 11
97.34668655380952
 21
53.94992389347981
 72
     1
 10
97.34668655380952
 20
53.94992389347981
 11
97.34939086217447
 21
53.96088171138683
 72
     1
 10
97.34939086217447
 20
53.96088171138683
 11
97.35207787807913
 21
53.97183139166549
 72
     1
 10
97.35207787807913
 20
53.97183139166549
 11
97.35474760152347
 21
53.98277293431578
 72
     1
 10
97.35474760152347
 20
53.98277293431578
 11
97.35740003250751
 21
53.99370633933768
 72
     1
 10
97.35740003250751
 20
53.99370633933768
 11
97.36003517103129
 21
54.00463160673122
 72
     1
 10
97.36003517103129
 20
54.00463160673122
 11
97.36265301709474
 21
54.01554873649637
 72
     1
 10
97.36265301709474
 20
54.01554873649637
 11
97.36525357069792
 21
54.02645772863315
 72
     1
 10
97.36525357069792
 20
54.02645772863315
 11
97.36783683184078
 21
54.03735858314156
 72
     1
 10
97.36783683184078
 20
54.03735858314156
 11
97.37040280052335
 21
54.0482513000216
 72
     1
 10
97.37040280052335
 20
54.0482513000216
 11
97.37295147674561
 21
54.05913587927326
 72
     1
 10
97.37295147674561
 20
54.05913587927326
 11
97.3754828605076
 21
54.07001232089655
 72
     1
 10
97.3754828605076
 20
54.07001232089655
 11
97.3779969518093
 21
54.08088062489145
 72
     1
 10
97.3779969518093
 20
54.08088062489145
 11
97.38049375065067
 21
54.09174079125799
 72
     1
 10
97.38049375065067
 20
54.09174079125799
 11
97.38297325703175
 21
54.10259281999615
 72
     1
 10
97.38297325703175
 20
54.10259281999615
 11
97.38543547095256
 21
54.11343671110594
 72
     1
 10
97.38543547095256
 20
54.11343671110594
 11
97.38788039241305
 21
54.12427246458736
 72
     1
 10
97.38788039241305
 20
54.12427246458736
 11
97.39030802141326
 21
54.13510008044039
 72
     1
 10
97.39030802141326
 20
54.13510008044039
 11
97.39271835795316
 21
54.14591955866504
 72
     1
 10
97.39271835795316
 20
54.14591955866504
 11
97.39511140203277
 21
54.15673089926133
 72
     1
 10
97.39511140203277
 20
54.15673089926133
 11
97.39748715365207
 21
54.16753410222924
 72
     1
 10
97.39748715365207
 20
54.16753410222924
 11
97.39984561281109
 21
54.17832916756878
 72
     1
 10
97.39984561281109
 20
54.17832916756878
 11
97.40218677950982
 21
54.18911609527995
 72
     1
 10
97.40218677950982
 20
54.18911609527995
 11
97.40451065374825
 21
54.19989488536273
 72
     1
 10
97.40451065374825
 20
54.19989488536273
 11
97.40681723552638
 21
54.21066553781714
 72
     1
 10
97.40681723552638
 20
54.21066553781714
 11
97.40910652484419
 21
54.22142805264318
 72
     1
 10
97.40910652484419
 20
54.22142805264318
 11
97.41137852170172
 21
54.23218242984085
 72
     1
 10
97.41137852170172
 20
54.23218242984085
 11
97.41363322609898
 21
54.24292866941013
 72
     1
 10
97.41363322609898
 20
54.24292866941013
 11
97.41587063803593
 21
54.25366677135104
 72
     1
 10
97.41587063803593
 20
54.25366677135104
 11
97.41809075751257
 21
54.26439673566358
 72
     1
 10
97.41809075751257
 20
54.26439673566358
 11
97.42029358452893
 21
54.27511856234775
 72
     1
 10
97.42029358452893
 20
54.27511856234775
 11
97.42247911908498
 21
54.28583225140354
 72
     1
 10
97.42247911908498
 20
54.28583225140354
 11
97.42464736118073
 21
54.29653780283095
 72
     1
 10
97.42464736118073
 20
54.29653780283095
 11
97.42679831081618
 21
54.30723521663
 72
     1
 10
97.42679831081618
 20
54.30723521663
 11
97.42893196799133
 21
54.31792449280066
 72
     1
 10
97.42893196799133
 20
54.31792449280066
 11
97.43104833270621
 21
54.32860563134295
 72
     1
 10
97.43104833270621
 20
54.32860563134295
 11
97.43314740496078
 21
54.33927863225687
 72
     1
 10
97.43314740496078
 20
54.33927863225687
 11
97.43522918475506
 21
54.34994349554241
 72
     1
 10
97.43522918475506
 20
54.34994349554241
 11
97.43729367208904
 21
54.36060022119958
 72
     1
 10
97.43729367208904
 20
54.36060022119958
 11
97.43934086696272
 21
54.37124880922837
 72
     1
 10
97.43934086696272
 20
54.37124880922837
 11
97.4413707693761
 21
54.38188925962879
 72
     1
 10
97.4413707693761
 20
54.38188925962879
 11
97.44338337932919
 21
54.39252157240082
 72
     1
 10
97.44338337932919
 20
54.39252157240082
 11
97.44537869682198
 21
54.40314574754449
 72
     1
 10
97.44537869682198
 20
54.40314574754449
 11
97.44735672185448
 21
54.41376178505978
 72
     1
 10
97.44735672185448
 20
54.41376178505978
 11
97.44931745442668
 21
54.4243696849467
 72
     1
 10
97.44931745442668
 20
54.4243696849467
 11
97.45126089453856
 21
54.43496944720524
 72
     1
 10
97.45126089453856
 20
54.43496944720524
 11
97.45318704219017
 21
54.44556107183541
 72
     1
 10
97.45318704219017
 20
54.44556107183541
 11
97.45509589738148
 21
54.4561445588372
 72
     1
 10
97.45509589738148
 20
54.4561445588372
 11
97.45698746011249
 21
54.46671990821063
 72
     1
 10
97.45698746011249
 20
54.46671990821063
 11
97.4588617303832
 21
54.47728711995567
 72
     1
 10
97.4588617303832
 20
54.47728711995567
 11
97.46071870819364
 21
54.48784619407233
 72
     1
 10
97.46071870819364
 20
54.48784619407233
 11
97.46255839354376
 21
54.49839713056063
 72
     1
 10
97.46255839354376
 20
54.49839713056063
 11
97.46438078643358
 21
54.50893992942055
 72
     1
 10
97.46438078643358
 20
54.50893992942055
 11
97.46618588686312
 21
54.5194745906521
 72
     1
 10
97.46618588686312
 20
54.5194745906521
 11
97.46797369483235
 21
54.53000111425526
 72
     1
 10
97.46797369483235
 20
54.53000111425526
 11
97.4697442103413
 21
54.54051950023006
 72
     1
 10
97.4697442103413
 20
54.54051950023006
 11
97.47149743338994
 21
54.55102974857648
 72
     1
 10
97.47149743338994
 20
54.55102974857648
 11
97.4732333639783
 21
54.56153185929453
 72
     1
 10
97.4732333639783
 20
54.56153185929453
 11
97.47495200210635
 21
54.5720258323842
 72
     1
 10
97.47495200210635
 20
54.5720258323842
 11
97.4766533477741
 21
54.58251166784549
 72
     1
 10
97.4766533477741
 20
54.58251166784549
 11
97.47833740098156
 21
54.59298936567841
 72
     1
 10
97.47833740098156
 20
54.59298936567841
 11
97.48000416172873
 21
54.60345892588296
 72
     1
 10
97.48000416172873
 20
54.60345892588296
 11
97.4816536300156
 21
54.61392034845913
 72
     1
 10
97.4816536300156
 20
54.61392034845913
 11
97.48328580584216
 21
54.62437363340693
 72
     1
 10
97.48328580584216
 20
54.62437363340693
 11
97.48490068920842
 21
54.63481878072635
 72
     1
 10
97.48490068920842
 20
54.63481878072635
 11
97.4864982801144
 21
54.6452557904174
 72
     1
 10
97.4864982801144
 20
54.6452557904174
 11
97.48807857856008
 21
54.65568466248008
 72
     1
 10
97.48807857856008
 20
54.65568466248008
 11
97.48964158454547
 21
54.66610539691438
 72
     1
 10
97.48964158454547
 20
54.66610539691438
 11
97.49118729807054
 21
54.6765179937203
 72
     1
 10
97.49118729807054
 20
54.6765179937203
 11
97.49271571913533
 21
54.68692245289785
 72
     1
 10
97.49271571913533
 20
54.68692245289785
 11
97.49422684773984
 21
54.69731877444701
 72
     1
 10
97.49422684773984
 20
54.69731877444701
 11
97.49572068388403
 21
54.70770695836782
 72
     1
 10
97.49572068388403
 20
54.70770695836782
 11
97.49719722756792
 21
54.71808700466024
 72
     1
 10
97.49719722756792
 20
54.71808700466024
 11
97.49865647879153
 21
54.72845891332429
 72
     1
 10
97.49865647879153
 20
54.72845891332429
 11
97.50009843755484
 21
54.73882268435996
 72
     1
 10
97.50009843755484
 20
54.73882268435996
 11
97.50152310385786
 21
54.74917831776726
 72
     1
 10
97.50152310385786
 20
54.74917831776726
 11
97.50293047770057
 21
54.75952581354618
 72
     1
 10
97.50293047770057
 20
54.75952581354618
 11
97.504320559083
 21
54.76986517169674
 72
     1
 10
97.504320559083
 20
54.76986517169674
 11
97.50569334800512
 21
54.78019639221891
 72
     1
 10
97.50569334800512
 20
54.78019639221891
 11
97.50704884446695
 21
54.79051947511271
 72
     1
 10
97.50704884446695
 20
54.79051947511271
 11
97.50838704846848
 21
54.80083442037814
 72
     1
 10
97.50838704846848
 20
54.80083442037814
 11
97.5097079600097
 21
54.81114122801519
 72
     1
 10
97.5097079600097
 20
54.81114122801519
 11
97.51101157909063
 21
54.82143989802386
 72
     1
 10
97.51101157909063
 20
54.82143989802386
 11
97.51229790571128
 21
54.83173043040416
 72
     1
 10
97.51229790571128
 20
54.83173043040416
 11
97.51356693987162
 21
54.84201282515609
 72
     1
 10
97.51356693987162
 20
54.84201282515609
 11
97.51481868157168
 21
54.85228708227964
 72
     1
 10
97.51481868157168
 20
54.85228708227964
 11
97.51605313081143
 21
54.86255320177482
 72
     1
 10
97.51605313081143
 20
54.86255320177482
 11
97.51727028759089
 21
54.87281118364162
 72
     1
 10
97.51727028759089
 20
54.87281118364162
 11
97.51847015191004
 21
54.88306102788005
 72
     1
 10
97.51847015191004
 20
54.88306102788005
 11
97.5196527237689
 21
54.89330273449011
 72
     1
 10
97.5196527237689
 20
54.89330273449011
 11
97.52081800316748
 21
54.90353630347178
 72
     1
 10
97.52081800316748
 20
54.90353630347178
 11
97.52196599010574
 21
54.91376173482509
 72
     1
 10
97.52196599010574
 20
54.91376173482509
 11
97.5230966845837
 21
54.92397902855001
 72
     1
 10
97.5230966845837
 20
54.92397902855001
 11
97.52421008660139
 21
54.93418818464657
 72
     1
 10
97.52421008660139
 20
54.93418818464657
 11
97.52530619615877
 21
54.94438920311475
 72
     1
 10
97.52530619615877
 20
54.94438920311475
 11
97.52638501325586
 21
54.95458208395456
 72
     1
 10
97.52638501325586
 20
54.95458208395456
 11
97.52744653789264
 21
54.96476682716599
 72
     1
 10
97.52744653789264
 20
54.96476682716599
 11
97.52849077006914
 21
54.97494343274904
 72
     1
 10
97.52849077006914
 20
54.97494343274904
 11
97.52951770978532
 21
54.98511190070372
 72
     1
 10
97.52951770978532
 20
54.98511190070372
 11
97.53052735704122
 21
54.99527223103003
 72
     1
 10
97.53052735704122
 20
54.99527223103003
 11
97.53151971183684
 21
55.00542442372796
 72
     1
 10
97.53151971183684
 20
55.00542442372796
 11
97.53249477417214
 21
55.01556847879751
 72
     1
 10
97.53249477417214
 20
55.01556847879751
 11
97.53345254404715
 21
55.02570439623869
 72
     1
 10
97.53345254404715
 20
55.02570439623869
 11
97.53439302146187
 21
55.0358321760515
 72
     1
 10
97.53439302146187
 20
55.0358321760515
 11
97.53531620641627
 21
55.04595181823593
 72
     1
 10
97.53531620641627
 20
55.04595181823593
 11
97.5362220989104
 21
55.05606332279199
 72
     1
 10
97.5362220989104
 20
55.05606332279199
 11
97.53711069894422
 21
55.06616668971967
 72
     1
 10
97.53711069894422
 20
55.06616668971967
 11
97.53798200651775
 21
55.07626191901898
 72
     1
 10
97.53798200651775
 20
55.07626191901898
 11
97.53883602163097
 21
55.0863490106899
 72
     1
 10
97.53883602163097
 20
55.0863490106899
 11
97.5396727442839
 21
55.09642796473246
 72
     1
 10
97.5396727442839
 20
55.09642796473246
 11
97.54049217447655
 21
55.10649878114665
 72
     1
 10
97.54049217447655
 20
55.10649878114665
 11
97.54129431220889
 21
55.11656145993246
 72
     1
 10
97.54129431220889
 20
55.11656145993246
 11
97.54207915748093
 21
55.12661600108989
 72
     1
 10
97.54207915748093
 20
55.12661600108989
 11
97.54284671029268
 21
55.13666240461895
 72
     1
 10
97.54284671029268
 20
55.13666240461895
 11
97.54359697064413
 21
55.14670067051964
 72
     1
 10
97.54359697064413
 20
55.14670067051964
 11
97.5443299385353
 21
55.15673079879194
 72
     1
 10
97.5443299385353
 20
55.15673079879194
 11
97.54504561396615
 21
55.16675278943588
 72
     1
 10
97.54504561396615
 20
55.16675278943588
 11
97.54574399693672
 21
55.17676664245143
 72
     1
 10
97.54574399693672
 20
55.17676664245143
 11
97.54642508744699
 21
55.18677235783862
 72
     1
 10
97.54642508744699
 20
55.18677235783862
 11
97.54708888549698
 21
55.19676993559743
 72
     1
 10
97.54708888549698
 20
55.19676993559743
 11
97.54773539108663
 21
55.20675937572787
 72
     1
 10
97.54773539108663
 20
55.20675937572787
 11
97.54836460421602
 21
55.21674067822993
 72
     1
 10
97.54836460421602
 20
55.21674067822993
 11
97.5489765248851
 21
55.22671384310361
 72
     1
 10
97.5489765248851
 20
55.22671384310361
 11
97.5495711530939
 21
55.23667887034892
 72
     1
 10
97.5495711530939
 20
55.23667887034892
 11
97.55014848884238
 21
55.24663575996586
 72
     1
 10
97.55014848884238
 20
55.24663575996586
 11
97.55070853213059
 21
55.25658451195442
 72
     1
 10
97.55070853213059
 20
55.25658451195442
 11
97.55125128295848
 21
55.2665251263146
 72
     1
 10
97.55125128295848
 20
55.2665251263146
 11
97.55177674132608
 21
55.27645760304642
 72
     1
 10
97.55177674132608
 20
55.27645760304642
 11
97.55228490723337
 21
55.28638194214985
 72
     1
 10
97.55228490723337
 20
55.28638194214985
 11
97.55277578068038
 21
55.29629814362491
 72
     1
 10
97.55277578068038
 20
55.29629814362491
 11
97.5532493616671
 21
55.3062062074716
 72
     1
 10
97.5532493616671
 20
55.3062062074716
 11
97.5537056501935
 21
55.31610613368991
 72
     1
 10
97.5537056501935
 20
55.31610613368991
 11
97.55414464625962
 21
55.32599792227985
 72
     1
 10
97.55414464625962
 20
55.32599792227985
 11
97.55456634986544
 21
55.33588157324142
 72
     1
 10
97.55456634986544
 20
55.33588157324142
 11
97.55497076101096
 21
55.34575708657461
 72
     1
 10
97.55497076101096
 20
55.34575708657461
 11
97.5553578796962
 21
55.35562446227942
 72
     1
 10
97.5553578796962
 20
55.35562446227942
 11
97.55572770592113
 21
55.36548370035586
 72
     1
 10
97.55572770592113
 20
55.36548370035586
 11
97.55608023968577
 21
55.37533480080393
 72
     1
 10
97.55608023968577
 20
55.37533480080393
 11
97.55641548099011
 21
55.38517776362362
 72
     1
 10
97.55641548099011
 20
55.38517776362362
 11
97.55673342983417
 21
55.39501258881493
 72
     1
 10
97.55673342983417
 20
55.39501258881493
 11
97.5570340862179
 21
55.40483927637787
 72
     1
 10
97.5570340862179
 20
55.40483927637787
 11
97.55731745014135
 21
55.41465782631244
 72
     1
 10
97.55731745014135
 20
55.41465782631244
 11
97.55758352160451
 21
55.42446823861862
 72
     1
 10
97.55758352160451
 20
55.42446823861862
 11
97.55783230060737
 21
55.43427051329644
 72
     1
 10
97.55783230060737
 20
55.43427051329644
 11
97.55806378714993
 21
55.44406465034588
 72
     1
 10
97.55806378714993
 20
55.44406465034588
 11
97.55827798123218
 21
55.45385064976694
 72
     1
 10
97.55827798123218
 20
55.45385064976694
 11
97.55847488285414
 21
55.46362851155963
 72
     1
 10
97.55847488285414
 20
55.46362851155963
 11
97.55865449201583
 21
55.47339823572395
 72
     1
 10
97.55865449201583
 20
55.47339823572395
 11
97.55881680871721
 21
55.48315982225989
 72
     1
 10
97.55881680871721
 20
55.48315982225989
 11
97.55896183295829
 21
55.49291327116745
 72
     1
 10
97.55896183295829
 20
55.49291327116745
 11
97.55908956473908
 21
55.50265858244665
 72
     1
 10
97.55908956473908
 20
55.50265858244665
 11
97.55920000405956
 21
55.51239575609747
 72
     1
 10
97.55920000405956
 20
55.51239575609747
 11
97.55929315091974
 21
55.52212479211991
 72
     1
 10
97.55929315091974
 20
55.52212479211991
 11
97.55936900531964
 21
55.53184569051398
 72
     1
 10
97.55936900531964
 20
55.53184569051398
 11
97.55942756725923
 21
55.54155845127968
 72
     1
 10
97.55942756725923
 20
55.54155845127968
 11
97.55946883673855
 21
55.55126307441699
 72
     1
 10
97.55946883673855
 20
55.55126307441699
 11
97.55959543515453
 21
55.58890723443893
 72
     1
 10
97.55959543515453
 20
55.58890723443893
 11
97.55959756384219
 21
55.59628604038215
 72
     1
 10
97.55959756384219
 20
55.59628604038215
 11
97.55955432005554
 21
55.60366471991536
 72
     1
 10
97.55955432005554
 20
55.60366471991536
 11
97.55946570542966
 21
55.61104299404467
 72
     1
 10
97.55946570542966
 20
55.61104299404467
 11
97.55933172331514
 21
55.61842058379145
 72
     1
 10
97.55933172331514
 20
55.61842058379145
 11
97.55915237877795
 21
55.62579721020303
 72
     1
 10
97.55915237877795
 20
55.62579721020303
 11
97.55892767859928
 21
55.6331725943631
 72
     1
 10
97.55892767859928
 20
55.6331725943631
 11
97.5586576312752
 21
55.64054645740237
 72
     1
 10
97.5586576312752
 20
55.64054645740237
 11
97.55834224701641
 21
55.647918520509
 72
     1
 10
97.55834224701641
 20
55.647918520509
 11
97.55798153774789
 21
55.65528850493929
 72
     1
 10
97.55798153774789
 20
55.65528850493929
 11
97.55757551710832
 21
55.66265613202805
 72
     1
 10
97.55757551710832
 20
55.66265613202805
 11
97.55712420044969
 21
55.67002112319931
 72
     1
 10
97.55712420044969
 20
55.67002112319931
 11
97.55662760483663
 21
55.67738319997669
 72
     1
 10
97.55662760483663
 20
55.67738319997669
 11
97.55608574904586
 21
55.68474208399405
 72
     1
 10
97.55608574904586
 20
55.68474208399405
 11
97.55549865356537
 21
55.69209749700596
 72
     1
 10
97.55549865356537
 20
55.69209749700596
 11
97.55486634059372
 21
55.69944916089823
 72
     1
 10
97.55486634059372
 20
55.69944916089823
 11
97.55418883403918
 21
55.70679679769842
 72
     1
 10
97.55418883403918
 20
55.70679679769842
 11
97.55346615951883
 21
55.71414012958637
 72
     1
 10
97.55346615951883
 20
55.71414012958637
 11
97.5526983443576
 21
55.72147887890469
 72
     1
 10
97.5526983443576
 20
55.72147887890469
 11
97.55188541758719
 21
55.72881276816926
 72
     1
 10
97.55188541758719
 20
55.72881276816926
 11
97.55102740994504
 21
55.73614152007971
 72
     1
 10
97.55102740994504
 20
55.73614152007971
 11
97.5501243538731
 21
55.74346485752994
 72
     1
 10
97.5501243538731
 20
55.74346485752994
 11
97.54917628351669
 21
55.75078250361856
 72
     1
 10
97.54917628351669
 20
55.75078250361856
 11
97.54818323472311
 21
55.75809418165937
 72
     1
 10
97.54818323472311
 20
55.75809418165937
 11
97.54714524504035
 21
55.76539961519185
 72
     1
 10
97.54714524504035
 20
55.76539961519185
 11
97.54606235371566
 21
55.77269852799157
 72
     1
 10
97.54606235371566
 20
55.77269852799157
 11
97.54493460169404
 21
55.77999064408066
 72
     1
 10
97.54493460169404
 20
55.77999064408066
 11
97.54376203161671
 21
55.78727568773823
 72
     1
 10
97.54376203161671
 20
55.78727568773823
 11
97.5425446878195
 21
55.79455338351082
 72
     1
 10
97.5425446878195
 20
55.79455338351082
 11
97.5412826163312
 21
55.80182345622279
 72
     1
 10
97.5412826163312
 20
55.80182345622279
 11
97.53997586487175
 21
55.80908563098674
 72
     1
 10
97.53997586487175
 20
55.80908563098674
 11
97.5386244828505
 21
55.81633963321391
 72
     1
 10
97.5386244828505
 20
55.81633963321391
 11
97.5372285213643
 21
55.8235851886245
 72
     1
 10
97.5372285213643
 20
55.8235851886245
 11
97.53578803319562
 21
55.83082202325815
 72
     1
 10
97.53578803319562
 20
55.83082202325815
 11
97.53430307281046
 21
55.83804986348422
 72
     1
 10
97.53430307281046
 20
55.83804986348422
 11
97.53277369635643
 21
55.84526843601213
 72
     1
 10
97.53277369635643
 20
55.84526843601213
 11
97.53119996166048
 21
55.85247746790176
 72
     1
 10
97.53119996166048
 20
55.85247746790176
 11
97.5295819282268
 21
55.85967668657371
 72
     1
 10
97.5295819282268
 20
55.85967668657371
 11
97.52791965723459
 21
55.86686581981962
 72
     1
 10
97.52791965723459
 20
55.86686581981962
 11
97.52621321153565
 21
55.87404459581247
 72
     1
 10
97.52621321153565
 20
55.87404459581247
 11
97.5244626556521
 21
55.88121274311688
 72
     1
 10
97.5244626556521
 20
55.88121274311688
 11
97.5226680557739
 21
55.8883699906993
 72
     1
 10
97.5226680557739
 20
55.8883699906993
 11
97.52082947975633
 21
55.89551606793836
 72
     1
 10
97.52082947975633
 20
55.89551606793836
 11
97.51894699711747
 21
55.90265070463501
 72
     1
 10
97.51894699711747
 20
55.90265070463501
 11
97.5170206790355
 21
55.90977363102282
 72
     1
 10
97.5170206790355
 20
55.90977363102282
 11
97.51505059834611
 21
55.91688457777808
 72
     1
 10
97.51505059834611
 20
55.91688457777808
 11
97.51303682953964
 21
55.9239832760301
 72
     1
 10
97.51303682953964
 20
55.9239832760301
 11
97.51097944875838
 21
55.93106945737126
 72
     1
 10
97.51097944875838
 20
55.93106945737126
 11
97.50887853379353
 21
55.93814285386726
 72
     1
 10
97.50887853379353
 20
55.93814285386726
 11
97.50673416408246
 21
55.94520319806716
 72
     1
 10
97.50673416408246
 20
55.94520319806716
 11
97.5045464207055
 21
55.95225022301359
 72
     1
 10
97.5045464207055
 20
55.95225022301359
 11
97.50231538638303
 21
55.95928366225274
 72
     1
 10
97.50231538638303
 20
55.95928366225274
 11
97.50004114547231
 21
55.96630324984454
 72
     1
 10
97.50004114547231
 20
55.96630324984454
 11
97.49772378396422
 21
55.97330872037263
 72
     1
 10
97.49772378396422
 20
55.97330872037263
 11
97.4953633894801
 21
55.98029980895441
 72
     1
 10
97.4953633894801
 20
55.98029980895441
 11
97.49296005126843
 21
55.98727625125111
 72
     1
 10
97.49296005126843
 20
55.98727625125111
 11
97.49051386020135
 21
55.99423778347774
 72
     1
 10
97.49051386020135
 20
55.99423778347774
 11
97.48802490877138
 21
56.00118414241305
 72
     1
 10
97.48802490877138
 20
56.00118414241305
 11
97.48549329108779
 21
56.00811506540953
 72
     1
 10
97.48549329108779
 20
56.00811506540953
 11
97.48291910287314
 21
56.01503029040331
 72
     1
 10
97.48291910287314
 20
56.01503029040331
 11
97.48030244145959
 21
56.02192955592405
 72
     1
 10
97.48030244145959
 20
56.02192955592405
 11
97.47764340578523
 21
56.0288126011049
 72
     1
 10
97.47764340578523
 20
56.0288126011049
 11
97.47494209639041
 21
56.03567916569226
 72
     1
 10
97.47494209639041
 20
56.03567916569226
 11
97.47219861541382
 21
56.0425289900557
 72
     1
 10
97.47219861541382
 20
56.0425289900557
 11
97.46941306658874
 21
56.04936181519777
 72
     1
 10
97.46941306658874
 20
56.04936181519777
 11
97.46658555523905
 21
56.05617738276374
 72
     1
 10
97.46658555523905
 20
56.05617738276374
 11
97.46371618827526
 21
56.06297543505143
 72
     1
 10
97.46371618827526
 20
56.06297543505143
 11
97.46080507419049
 21
56.0697557150209
 72
     1
 10
97.46080507419049
 20
56.0697557150209
 11
97.45785232305636
 21
56.07651796630422
 72
     1
 10
97.45785232305636
 20
56.07651796630422
 11
97.45485804651878
 21
56.08326193321514
 72
     1
 10
97.45485804651878
 20
56.08326193321514
 11
97.45182235779383
 21
56.08998736075874
 72
     1
 10
97.45182235779383
 20
56.08998736075874
 11
97.44874537166336
 21
56.09669399464109
 72
     1
 10
97.44874537166336
 20
56.09669399464109
 11
97.44562720447077
 21
56.10338158127888
 72
     1
 10
97.44562720447077
 20
56.10338158127888
 11
97.44246797411647
 21
56.11004986780898
 72
     1
 10
97.44246797411647
 20
56.11004986780898
 11
97.43926780005359
 21
56.11669860209801
 72
     1
 10
97.43926780005359
 20
56.11669860209801
 11
97.4360268032833
 21
56.12332753275189
 72
     1
 10
97.4360268032833
 20
56.12332753275189
 11
97.43274510635035
 21
56.12993640912533
 72
     1
 10
97.43274510635035
 20
56.12993640912533
 11
97.4294228333384
 21
56.13652498133128
 72
     1
 10
97.4294228333384
 20
56.13652498133128
 11
97.42606010986532
 21
56.14309300025044
 72
     1
 10
97.42606010986532
 20
56.14309300025044
 11
97.4226570630784
 21
56.14964021754064
 72
     1
 10
97.4226570630784
 20
56.14964021754064
 11
97.41921382164966
 21
56.15616638564623
 72
     1
 10
97.41921382164966
 20
56.15616638564623
 11
97.41573051577087
 21
56.16267125780745
 72
     1
 10
97.41573051577087
 20
56.16267125780745
 11
97.41220727714868
 21
56.16915458806974
 72
     1
 10
97.41220727714868
 20
56.16915458806974
 11
97.40864423899963
 21
56.1756161312931
 72
     1
 10
97.40864423899963
 20
56.1756161312931
 11
97.40504153604509
 21
56.18205564316128
 72
     1
 10
97.40504153604509
 20
56.18205564316128
 11
97.40139930450624
 21
56.18847288019106
 72
     1
 10
97.40139930450624
 20
56.18847288019106
 11
97.39771768209881
 21
56.19486759974144
 72
     1
 10
97.39771768209881
 20
56.19486759974144
 11
97.39399680802798
 21
56.20123956002286
 72
     1
 10
97.39399680802798
 20
56.20123956002286
 11
97.39023682298303
 21
56.20758852010627
 72
     1
 10
97.39023682298303
 20
56.20758852010627
 11
97.38643786913207
 21
56.21391423993229
 72
     1
 10
97.38643786913207
 20
56.21391423993229
 11
97.38260009011667
 21
56.22021648032027
 72
     1
 10
97.38260009011667
 20
56.22021648032027
 11
97.3787236310464
 21
56.22649500297736
 72
     1
 10
97.3787236310464
 20
56.22649500297736
 11
97.37480863849335
 21
56.23274957050744
 72
     1
 10
97.37480863849335
 20
56.23274957050744
 11
97.37085526048658
 21
56.23897994642023
 72
     1
 10
97.37085526048658
 20
56.23897994642023
 11
97.36686364650656
 21
56.24518589514009
 72
     1
 10
97.36686364650656
 20
56.24518589514009
 11
97.36283394747949
 21
56.25136718201502
 72
     1
 10
97.36283394747949
 20
56.25136718201502
 11
97.35876631577158
 21
56.2575235733255
 72
     1
 10
97.35876631577158
 20
56.2575235733255
 11
97.35466090518331
 21
56.26365483629333
 72
     1
 10
97.35466090518331
 20
56.26365483629333
 11
97.35051787094363
 21
56.26976073909045
 72
     1
 10
97.35051787094363
 20
56.26976073909045
 11
97.34633736970406
 21
56.27584105084767
 72
     1
 10
97.34633736970406
 20
56.27584105084767
 11
97.34211955953278
 21
56.28189554166341
 72
     1
 10
97.34211955953278
 20
56.28189554166341
 11
97.33786459990861
 21
56.28792398261243
 72
     1
 10
97.33786459990861
 20
56.28792398261243
 11
97.3335726517151
 21
56.29392614575443
 72
     1
 10
97.3335726517151
 20
56.29392614575443
 11
97.32924387723432
 21
56.29990180414271
 72
     1
 10
97.32924387723432
 20
56.29990180414271
 11
97.32487844014075
 21
56.30585073183273
 72
     1
 10
97.32487844014075
 20
56.30585073183273
 11
97.32047650549517
 21
56.31177270389067
 72
     1
 10
97.32047650549517
 20
56.31177270389067
 11
97.31603823973832
 21
56.31766749640191
 72
     1
 10
97.31603823973832
 20
56.31766749640191
 11
97.31156381068467
 21
56.32353488647951
 72
     1
 10
97.31156381068467
 20
56.32353488647951
 11
97.30705338751605
 21
56.32937465227267
 72
     1
 10
97.30705338751605
 20
56.32937465227267
 11
97.30250714077523
 21
56.33518657297504
 72
     1
 10
97.30250714077523
 20
56.33518657297504
 11
97.29792524235955
 21
56.34097042883315
 72
     1
 10
97.29792524235955
 20
56.34097042883315
 11
97.29330786551434
 21
56.34672600115466
 72
     1
 10
97.29330786551434
 20
56.34672600115466
 11
97.28865518482638
 21
56.35245307231669
 72
     1
 10
97.28865518482638
 20
56.35245307231669
 11
97.28396737621735
 21
56.35815142577397
 72
     1
 10
97.28396737621735
 20
56.35815142577397
 11
97.27924461693713
 21
56.36382084606709
 72
     1
 10
97.27924461693713
 20
56.36382084606709
 11
97.27448708555713
 21
56.36946111883064
 72
     1
 10
97.27448708555713
 20
56.36946111883064
 11
97.26969496196348
 21
56.37507203080127
 72
     1
 10
97.26969496196348
 20
56.37507203080127
 11
97.26486842735031
 21
56.38065336982581
 72
     1
 10
97.26486842735031
 20
56.38065336982581
 11
97.26000766421286
 21
56.38620492486928
 72
     1
 10
97.26000766421286
 20
56.38620492486928
 11
97.25511285634055
 21
56.3917264860228
 72
     1
 10
97.25511285634055
 20
56.3917264860228
 11
97.25018418881008
 21
56.39721784451165
 72
     1
 10
97.25018418881008
 20
56.39721784451165
 11
97.2452218479784
 21
56.40267879270306
 72
     1
 10
97.2452218479784
 20
56.40267879270306
 11
97.24022602147568
 21
56.4081091241141
 72
     1
 10
97.24022602147568
 20
56.4081091241141
 11
97.23519689819823
 21
56.4135086334195
 72
     1
 10
97.23519689819823
 20
56.4135086334195
 11
97.23013466830129
 21
56.41887711645939
 72
     1
 10
97.23013466830129
 20
56.41887711645939
 11
97.22503952319195
 21
56.42421437024703
 72
     1
 10
97.22503952319195
 20
56.42421437024703
 11
97.2199116555218
 21
56.42952019297648
 72
     1
 10
97.2199116555218
 20
56.42952019297648
 11
97.2147512591797
 21
56.43479438403024
 72
     1
 10
97.2147512591797
 20
56.43479438403024
 11
97.20955852928451
 21
56.44003674398682
 72
     1
 10
97.20955852928451
 20
56.44003674398682
 11
97.20433366217755
 21
56.44524707462831
 72
     1
 10
97.20433366217755
 20
56.44524707462831
 11
97.19907685541534
 21
56.45042517894784
 72
     1
 10
97.19907685541534
 20
56.45042517894784
 11
97.19378830776208
 21
56.45557086115704
 72
     1
 10
97.19378830776208
 20
56.45557086115704
 11
97.18846821918204
 21
56.46068392669344
 72
     1
 10
97.18846821918204
 20
56.46068392669344
 11
97.18311679083216
 21
56.46576418222786
 72
     1
 10
97.18311679083216
 20
56.46576418222786
 11
97.17773422505431
 21
56.47081143567168
 72
     1
 10
97.17773422505431
 20
56.47081143567168
 11
97.17232072536771
 21
56.4758254961841
 72
     1
 10
97.17232072536771
 20
56.4758254961841
 11
97.16687649646123
 21
56.48080617417939
 72
     1
 10
97.16687649646123
 20
56.48080617417939
 11
97.16140174418562
 21
56.48575328133405
 72
     1
 10
97.16140174418562
 20
56.48575328133405
 11
97.15589667554575
 21
56.49066663059389
 72
     1
 10
97.15589667554575
 20
56.49066663059389
 11
97.15036149869275
 21
56.49554603618116
 72
     1
 10
97.15036149869275
 20
56.49554603618116
 11
97.14479642291622
 21
56.50039131360154
 72
     1
 10
97.14479642291622
 20
56.50039131360154
 11
97.13920165863621
 21
56.50520227965111
 72
     1
 10
97.13920165863621
 20
56.50520227965111
 11
97.13357741739536
 21
56.50997875242332
 72
     1
 10
97.13357741739536
 20
56.50997875242332
 11
97.12792391185081
 21
56.51472055131581
 72
     1
 10
97.12792391185081
 20
56.51472055131581
 11
97.12224135576626
 21
56.51942749703728
 72
     1
 10
97.12224135576626
 20
56.51942749703728
 11
97.1165299640038
 21
56.52409941161427
 72
     1
 10
97.1165299640038
 20
56.52409941161427
 11
97.11078995251584
 21
56.52873611839786
 72
     1
 10
97.11078995251584
 20
56.52873611839786
 11
97.1050215383369
 21
56.53333744207036
 72
     1
 10
97.1050215383369
 20
56.53333744207036
 11
97.09922493957544
 21
56.53790320865197
 72
     1
 10
97.09922493957544
 20
56.53790320865197
 11
97.09340037540562
 21
56.5424332455073
 72
     1
 10
97.09340037540562
 20
56.5424332455073
 11
97.08754806605899
 21
56.54692738135195
 72
     1
 10
97.08754806605899
 20
56.54692738135195
 11
97.08166823281613
 21
56.55138544625897
 72
     1
 10
97.08166823281613
 20
56.55138544625897
 11
97.07576109799837
 21
56.55580727166527
 72
     1
 10
97.07576109799837
 20
56.55580727166527
 11
97.06982688495931
 21
56.56019269037801
 72
     1
 10
97.06982688495931
 20
56.56019269037801
 11
97.06386581807641
 21
56.56454153658092
 72
     1
 10
97.06386581807641
 20
56.56454153658092
 11
97.05787812274248
 21
56.56885364584056
 72
     1
 10
97.05787812274248
 20
56.56885364584056
 11
97.0518640253572
 21
56.57312885511255
 72
     1
 10
97.0518640253572
 20
56.57312885511255
 11
97.04582375331852
 21
56.57736700274773
 72
     1
 10
97.04582375331852
 20
56.57736700274773
 11
97.03975753501403
 21
56.58156792849825
 72
     1
 10
97.03975753501403
 20
56.58156792849825
 11
97.03366559981247
 21
56.58573147352369
 72
     1
 10
97.03366559981247
 20
56.58573147352369
 11
97.02754817805486
 21
56.58985748039699
 72
     1
 10
97.02754817805486
 20
56.58985748039699
 11
97.02140550104595
 21
56.59394579311046
 72
     1
 10
97.02140550104595
 20
56.59394579311046
 11
97.01523780104536
 21
56.59799625708163
 72
     1
 10
97.01523780104536
 20
56.59799625708163
 11
97.0090453112589
 21
56.60200871915916
 72
     1
 10
97.0090453112589
 20
56.60200871915916
 11
97.00282826582968
 21
56.60598302762857
 72
     1
 10
97.00282826582968
 20
56.60598302762857
 11
96.99658689982927
 21
56.60991903221798
 72
     1
 10
96.99658689982927
 20
56.60991903221798
 11
96.99032144924884
 21
56.61381658410387
 72
     1
 10
96.99032144924884
 20
56.61381658410387
 11
96.9840321509902
 21
56.61767553591658
 72
     1
 10
96.9840321509902
 20
56.61767553591658
 11
96.97771924285686
 21
56.62149574174599
 72
     1
 10
96.97771924285686
 20
56.62149574174599
 11
96.97138296354507
 21
56.62527705714699
 72
     1
 10
96.97138296354507
 20
56.62527705714699
 11
96.96502355263472
 21
56.62901933914495
 72
     1
 10
96.96502355263472
 20
56.62901933914495
 11
96.95864125058034
 21
56.63272244624113
 72
     1
 10
96.95864125058034
 20
56.63272244624113
 11
96.95223629870202
 21
56.63638623841801
 72
     1
 10
96.95223629870202
 20
56.63638623841801
 11
96.94580893917623
 21
56.64001057714461
 72
     1
 10
96.94580893917623
 20
56.64001057714461
 11
96.93935941502669
 21
56.6435953253817
 72
     1
 10
96.93935941502669
 20
56.6435953253817
 11
96.93288797011517
 21
56.64714034758704
 72
     1
 10
96.93288797011517
 20
56.64714034758704
 11
96.92639484913234
 21
56.65064550972042
 72
     1
 10
96.92639484913234
 20
56.65064550972042
 11
96.9198802975884
 21
56.65411067924879
 72
     1
 10
96.9198802975884
 20
56.65411067924879
 11
96.91334456180388
 21
56.65753572515125
 72
     1
 10
96.91334456180388
 20
56.65753572515125
 11
96.90678788890033
 21
56.66092051792402
 72
     1
 10
96.90678788890033
 20
56.66092051792402
 11
96.90021052679087
 21
56.66426492958531
 72
     1
 10
96.90021052679087
 20
56.66426492958531
 11
96.89361272417099
 21
56.66756883368016
 72
     1
 10
96.89361272417099
 20
56.66756883368016
 11
96.88699473050899
 21
56.67083210528528
 72
     1
 10
96.88699473050899
 20
56.67083210528528
 11
96.88035679603664
 21
56.67405462101367
 72
     1
 10
96.88035679603664
 20
56.67405462101367
 11
96.87369917173967
 21
56.67723625901939
 72
     1
 10
96.87369917173967
 20
56.67723625901939
 11
96.86702210934833
 21
56.68037689900211
 72
     1
 10
96.86702210934833
 20
56.68037689900211
 11
96.86032586132778
 21
56.68347642221162
 72
     1
 10
96.86032586132778
 20
56.68347642221162
 11
96.85361068086867
 21
56.68653471145245
 72
     1
 10
96.85361068086867
 20
56.68653471145245
 11
96.84687682187746
 21
56.68955165108815
 72
     1
 10
96.84687682187746
 20
56.68955165108815
 11
96.84012453896688
 21
56.69252712704579
 72
     1
 10
96.84012453896688
 20
56.69252712704579
 11
96.83335408744627
 21
56.69546102682016
 72
     1
 10
96.83335408744627
 20
56.69546102682016
 11
96.82656572331196
 21
56.69835323947812
 72
     1
 10
96.82656572331196
 20
56.69835323947812
 11
96.81975970323754
 21
56.70120365566275
 72
     1
 10
96.81975970323754
 20
56.70120365566275
 11
96.8129362845642
 21
56.70401216759746
 72
     1
 10
96.8129362845642
 20
56.70401216759746
 11
96.80609572529102
 21
56.70677866909013
 72
     1
 10
96.80609572529102
 20
56.70677866909013
 11
96.79923828406511
 21
56.70950305553706
 72
     1
 10
96.79923828406511
 20
56.70950305553706
 11
96.79236422017196
 21
56.71218522392698
 72
     1
 10
96.79236422017196
 20
56.71218522392698
 11
96.78547379352555
 21
56.7148250728449
 72
     1
 10
96.78547379352555
 20
56.7148250728449
 11
96.77856726465856
 21
56.71742250247596
 72
     1
 10
96.77856726465856
 20
56.71742250247596
 11
96.7716448947125
 21
56.71997741460924
 72
     1
 10
96.7716448947125
 20
56.71997741460924
 11
96.76470694542783
 21
56.7224897126414
 72
     1
 10
96.76470694542783
 20
56.7224897126414
 11
96.75775367913411
 21
56.72495930158042
 72
     1
 10
96.75775367913411
 20
56.72495930158042
 11
96.75078535874005
 21
56.72738608804909
 72
     1
 10
96.75078535874005
 20
56.72738608804909
 11
96.74380224772351
 21
56.72976998028864
 72
     1
 10
96.74380224772351
 20
56.72976998028864
 11
96.73680461012167
 21
56.73211088816215
 72
     1
 10
96.73680461012167
 20
56.73211088816215
 11
96.72979271052093
 21
56.73440872315798
 72
     1
 10
96.72979271052093
 20
56.73440872315798
 11
96.72276681404695
 21
56.73666339839311
 72
     1
 10
96.72276681404695
 20
56.73666339839311
 11
96.71572718635463
 21
56.7388748286164
 72
     1
 10
96.71572718635463
 20
56.7388748286164
 11
96.70867409361806
 21
56.7410429302119
 72
     1
 10
96.70867409361806
 20
56.7410429302119
 11
96.70160780252046
 21
56.74316762120188
 72
     1
 10
96.70160780252046
 20
56.74316762120188
 11
96.69452858024407
 21
56.74524882125004
 72
     1
 10
96.69452858024407
 20
56.74524882125004
 11
96.68743669446009
 21
56.74728645166452
 72
     1
 10
96.68743669446009
 20
56.74728645166452
 11
96.68033241331854
 21
56.74928043540083
 72
     1
 10
96.68033241331854
 20
56.74928043540083
 11
96.67321600543808
 21
56.75123069706482
 72
     1
 10
96.67321600543808
 20
56.75123069706482
 11
96.66608773989594
 21
56.75313716291549
 72
     1
 10
96.66608773989594
 20
56.75313716291549
 11
96.65894788621769
 21
56.7549997608678
 72
     1
 10
96.65894788621769
 20
56.7549997608678
 11
96.65179671436701
 21
56.75681842049542
 72
     1
 10
96.65179671436701
 20
56.75681842049542
 11
96.6446344947356
 21
56.75859307303332
 72
     1
 10
96.6446344947356
 20
56.75859307303332
 11
96.63746149813281
 21
56.76032365138044
 72
     1
 10
96.63746149813281
 20
56.76032365138044
 11
96.63027799577556
 21
56.76201009010219
 72
     1
 10
96.63027799577556
 20
56.76201009010219
 11
96.62308425927792
 21
56.76365232543295
 72
     1
 10
96.62308425927792
 20
56.76365232543295
 11
96.61588056064099
 21
56.76525029527846
 72
     1
 10
96.61588056064099
 20
56.76525029527846
 11
96.60866717224248
 21
56.76680393921816
 72
     1
 10
96.60866717224248
 20
56.76680393921816
 11
96.60144436682654
 21
56.7683131985075
 72
     1
 10
96.60144436682654
 20
56.7683131985075
 11
96.59421241749335
 21
56.76977801608016
 72
     1
 10
96.59421241749335
 20
56.76977801608016
 11
96.58697159768884
 21
56.77119833655018
 72
     1
 10
96.58697159768884
 20
56.77119833655018
 11
96.57972218119434
 21
56.77257410621409
 72
     1
 10
96.57972218119434
 20
56.77257410621409
 11
96.5724644421162
 21
56.7739052730529
 72
     1
 10
96.5724644421162
 20
56.7739052730529
 11
96.56519865487552
 21
56.7751917867341
 72
     1
 10
96.56519865487552
 20
56.7751917867341
 11
96.55792509419761
 21
56.77643359861357
 72
     1
 10
96.55792509419761
 20
56.77643359861357
 11
96.55064403510181
 21
56.77763066173738
 72
     1
 10
96.55064403510181
 20
56.77763066173738
 11
96.5433557528909
 21
56.77878293084358
 72
     1
 10
96.5433557528909
 20
56.77878293084358
 11
96.5360605231408
 21
56.77989036236394
 72
     1
 10
96.5360605231408
 20
56.77989036236394
 11
96.52875862169014
 21
56.78095291442558
 72
     1
 10
96.52875862169014
 20
56.78095291442558
 11
96.52145032462977
 21
56.78197054685252
 72
     1
 10
96.52145032462977
 20
56.78197054685252
 11
96.5141359082924
 21
56.78294322116725
 72
     1
 10
96.5141359082924
 20
56.78294322116725
 11
96.50681564924209
 21
56.78387090059216
 72
     1
 10
96.50681564924209
 20
56.78387090059216
 11
96.49948982426385
 21
56.78475355005092
 72
     1
 10
96.49948982426385
 20
56.78475355005092
 11
96.4921587103531
 21
56.78559113616985
 72
     1
 10
96.4921587103531
 20
56.78559113616985
 11
96.48482258470527
 21
56.78638362727911
 72
     1
 10
96.48482258470527
 20
56.78638362727911
 11
96.47748172470529
 21
56.78713099341399
 72
     1
 10
96.47748172470529
 20
56.78713099341399
 11
96.47013640791707
 21
56.78783320631594
 72
     1
 10
96.47013640791707
 20
56.78783320631594
 11
96.46278691207306
 21
56.78849023943372
 72
     1
 10
96.46278691207306
 20
56.78849023943372
 11
96.4554335150637
 21
56.78910206792438
 72
     1
 10
96.4554335150637
 20
56.78910206792438
 11
96.448076494927
 21
56.78966866865417
 72
     1
 10
96.448076494927
 20
56.78966866865417
 11
96.44071612983788
 21
56.79019002019947
 72
     1
 10
96.44071612983788
 20
56.79019002019947
 11
96.43335269809776
 21
56.79066610284754
 72
     1
 10
96.43335269809776
 20
56.79066610284754
 11
96.42598647812407
 21
56.7910968985973
 72
     1
 10
96.42598647812407
 20
56.7910968985973
 11
96.41861774843959
 21
56.79148239116002
 72
     1
 10
96.41861774843959
 20
56.79148239116002
 11
96.41124678766201
 21
56.7918225659599
 72
     1
 10
96.41124678766201
 20
56.7918225659599
 11
96.40387387449341
 21
56.79211741013467
 72
     1
 10
96.40387387449341
 20
56.79211741013467
 11
96.39649928770969
 21
56.79236691253601
 72
     1
 10
96.39649928770969
 20
56.79236691253601
 11
96.38912330615
 21
56.79257106373004
 72
     1
 10
96.38912330615
 20
56.79257106373004
 11
96.38174620870623
 21
56.79272985599764
 72
     1
 10
96.38174620870623
 20
56.79272985599764
 11
96.3743682743125
 21
56.79284328333474
 72
     1
 10
96.3743682743125
 20
56.79284328333474
 11
96.36698978193455
 21
56.79291134145255
 72
     1
 10
96.36698978193455
 20
56.79291134145255
 11
96.3596110105592
 21
56.79293402777777
 72
     1
 10
96.3596110105592
 20
56.79293402777777
 11
93.26364461263017
 21
56.79293402777777
 97
        0
 92
        1
 93
      773
 72
     1
 10
94.26364461263017
 20
55.6929340277778
 11
93.44756835937497
 21
52.41793402777777
 72
     1
 10
93.44756835937497
 20
52.41793402777777
 11
94.93285608584073
 21
52.41793402777777
 72
     1
 10
94.93285608584073
 20
52.41793402777777
 11
94.93683657181731
 21
52.41794334798687
 72
     1
 10
94.93683657181731
 20
52.41794334798687
 11
94.94081697050223
 21
52.41797130840979
 72
     1
 10
94.94081697050223
 20
52.41797130840979
 11
94.94479719460571
 21
52.41801790843336
 72
     1
 10
94.94479719460571
 20
52.41801790843336
 11
94.94877715684183
 21
52.41808314703564
 72
     1
 10
94.94877715684183
 20
52.41808314703564
 11
94.95275676993039
 21
52.41816702278595
 72
     1
 10
94.95275676993039
 20
52.41816702278595
 11
94.95673594659885
 21
52.41826953384491
 72
     1
 10
94.95673594659885
 20
52.41826953384491
 11
94.96071459958428
 21
52.41839067796447
 72
     1
 10
94.96071459958428
 20
52.41839067796447
 11
94.96469264163518
 21
52.41853045248794
 72
     1
 10
94.96469264163518
 20
52.41853045248794
 11
94.96866998551347
 21
52.41868885435008
 72
     1
 10
94.96866998551347
 20
52.41868885435008
 11
94.97264654399639
 21
52.41886588007715
 72
     1
 10
94.97264654399639
 20
52.41886588007715
 11
94.97662222987839
 21
52.41906152578699
 72
     1
 10
94.97662222987839
 20
52.41906152578699
 11
94.98059695597307
 21
52.41927578718913
 72
     1
 10
94.98059695597307
 20
52.41927578718913
 11
94.98457063511505
 21
52.41950865958481
 72
     1
 10
94.98457063511505
 20
52.41950865958481
 11
94.98854318016195
 21
52.41976013786718
 72
     1
 10
94.98854318016195
 20
52.41976013786718
 11
94.99251450399623
 21
52.42003021652133
 72
     1
 10
94.99251450399623
 20
52.42003021652133
 11
94.99648451952713
 21
52.42031888962448
 72
     1
 10
94.99648451952713
 20
52.42031888962448
 11
95.00045313969261
 21
52.42062615084605
 72
     1
 10
95.00045313969261
 20
52.42062615084605
 11
95.00442027746121
 21
52.42095199344782
 72
     1
 10
95.00442027746121
 20
52.42095199344782
 11
95.00838584583397
 21
52.42129641028409
 72
     1
 10
95.00838584583397
 20
52.42129641028409
 11
95.01234975784635
 21
52.42165939380186
 72
     1
 10
95.01234975784635
 20
52.42165939380186
 11
95.01631192657017
 21
52.42204093604091
 72
     1
 10
95.01631192657017
 20
52.42204093604091
 11
95.02027226511542
 21
52.42244102863406
 72
     1
 10
95.02027226511542
 20
52.42244102863406
 11
95.02423068663228
 21
52.42285966280733
 72
     1
 10
95.02423068663228
 20
52.42285966280733
 11
95.02818710431292
 21
52.42329682938011
 72
     1
 10
95.02818710431292
 20
52.42329682938011
 11
95.03214143139351
 21
52.42375251876536
 72
     1
 10
95.03214143139351
 20
52.42375251876536
 11
95.03609358115602
 21
52.42422672096988
 72
     1
 10
95.03609358115602
 20
52.42422672096988
 11
95.04004346693021
 21
52.42471942559445
 72
     1
 10
95.04004346693021
 20
52.42471942559445
 11
95.04399100209544
 21
52.4252306218341
 72
     1
 10
95.04399100209544
 20
52.4252306218341
 11
95.04793610008264
 21
52.42576029847836
 72
     1
 10
95.04793610008264
 20
52.42576029847836
 11
95.05187867437621
 21
52.42630844391145
 72
     1
 10
95.05187867437621
 20
52.42630844391145
 11
95.05581863851586
 21
52.42687504611262
 72
     1
 10
95.05581863851586
 20
52.42687504611262
 11
95.05975590609857
 21
52.42746009265633
 72
     1
 10
95.05975590609857
 20
52.42746009265633
 11
95.06369039078042
 21
52.42806357071255
 72
     1
 10
95.06369039078042
 20
52.42806357071255
 11
95.06762200627857
 21
52.42868546704707
 72
     1
 10
95.06762200627857
 20
52.42868546704707
 11
95.07155066637304
 21
52.42932576802178
 72
     1
 10
95.07155066637304
 20
52.42932576802178
 11
95.07547628490872
 21
52.42998445959493
 72
     1
 10
95.07547628490872
 20
52.42998445959493
 11
95.07939877579715
 21
52.43066152732147
 72
     1
 10
95.07939877579715
 20
52.43066152732147
 11
95.08331805301847
 21
52.43135695635338
 72
     1
 10
95.08331805301847
 20
52.43135695635338
 11
95.08723403062335
 21
52.43207073143997
 72
     1
 10
95.08723403062335
 20
52.43207073143997
 11
95.09114662273475
 21
52.43280283692821
 72
     1
 10
95.09114662273475
 20
52.43280283692821
 11
95.09505574354992
 21
52.4335532567631
 72
     1
 10
95.09505574354992
 20
52.4335532567631
 11
95.0989613073422
 21
52.43432197448802
 72
     1
 10
95.0989613073422
 20
52.43432197448802
 11
95.10286322846294
 21
52.43510897324505
 72
     1
 10
95.10286322846294
 20
52.43510897324505
 11
95.10676142134342
 21
52.43591423577538
 72
     1
 10
95.10676142134342
 20
52.43591423577538
 11
95.11065580049662
 21
52.43673774441969
 72
     1
 10
95.11065580049662
 20
52.43673774441969
 11
95.11454628051918
 21
52.43757948111851
 72
     1
 10
95.11454628051918
 20
52.43757948111851
 11
95.11843277609326
 21
52.43843942741263
 72
     1
 10
95.11843277609326
 20
52.43843942741263
 11
95.12231520198839
 21
52.43931756444353
 72
     1
 10
95.12231520198839
 20
52.43931756444353
 11
95.12619347306331
 21
52.44021387295372
 72
     1
 10
95.12619347306331
 20
52.44021387295372
 11
95.13006750426796
 21
52.44112833328727
 72
     1
 10
95.13006750426796
 20
52.44112833328727
 11
95.13393721064516
 21
52.44206092539013
 72
     1
 10
95.13393721064516
 20
52.44206092539013
 11
95.13780250733265
 21
52.44301162881066
 72
     1
 10
95.13780250733265
 20
52.44301162881066
 11
95.14166330956483
 21
52.44398042270002
 72
     1
 10
95.14166330956483
 20
52.44398042270002
 11
95.1455195326747
 21
52.44496728581264
 72
     1
 10
95.1455195326747
 20
52.44496728581264
 11
95.14937109209565
 21
52.44597219650674
 72
     1
 10
95.14937109209565
 20
52.44597219650674
 11
95.15321790336333
 21
52.44699513274469
 72
     1
 10
95.15321790336333
 20
52.44699513274469
 11
95.15705988211757
 21
52.44803607209361
 72
     1
 10
95.15705988211757
 20
52.44803607209361
 11
95.16089694410412
 21
52.44909499172581
 72
     1
 10
95.16089694410412
 20
52.44909499172581
 11
95.1647290051766
 21
52.45017186841928
 72
     1
 10
95.1647290051766
 20
52.45017186841928
 11
95.16855598129827
 21
52.45126667855821
 72
     1
 10
95.16855598129827
 20
52.45126667855821
 11
95.17237778854391
 21
52.45237939813352
 72
     1
 10
95.17237778854391
 20
52.45237939813352
 11
95.17619434310166
 21
52.45351000274338
 72
     1
 10
95.17619434310166
 20
52.45351000274338
 11
95.18000556127484
 21
52.45465846759375
 72
     1
 10
95.18000556127484
 20
52.45465846759375
 11
95.18381135948381
 21
52.45582476749888
 72
     1
 10
95.18381135948381
 20
52.45582476749888
 11
95.18761165426778
 21
52.45700887688195
 72
     1
 10
95.18761165426778
 20
52.45700887688195
 11
95.19140636228664
 21
52.45821076977555
 72
     1
 10
95.19140636228664
 20
52.45821076977555
 11
95.19519540032283
 21
52.45943041982227
 72
     1
 10
95.19519540032283
 20
52.45943041982227
 11
95.1989786852831
 21
52.46066780027532
 72
     1
 10
95.1989786852831
 20
52.46066780027532
 11
95.20275613420036
 21
52.46192288399906
 72
     1
 10
95.20275613420036
 20
52.46192288399906
 11
95.20652766423554
 21
52.46319564346962
 72
     1
 10
95.20652766423554
 20
52.46319564346962
 11
95.21029319267933
 21
52.46448605077551
 72
     1
 10
95.21029319267933
 20
52.46448605077551
 11
95.21405263695407
 21
52.46579407761822
 72
     1
 10
95.21405263695407
 20
52.46579407761822
 11
95.2178059146155
 21
52.46711969531285
 72
     1
 10
95.2178059146155
 20
52.46711969531285
 11
95.22155294335461
 21
52.46846287478873
 72
     1
 10
95.22155294335461
 20
52.46846287478873
 11
95.22529364099941
 21
52.46982358659007
 72
     1
 10
95.22529364099941
 20
52.46982358659007
 11
95.22902792551676
 21
52.47120180087659
 72
     1
 10
95.22902792551676
 20
52.47120180087659
 11
95.23275571501418
 21
52.47259748742417
 72
     1
 10
95.23275571501418
 20
52.47259748742417
 11
95.23647692774158
 21
52.47401061562555
 72
     1
 10
95.23647692774158
 20
52.47401061562555
 11
95.24019148209314
 21
52.47544115449097
 72
     1
 10
95.24019148209314
 20
52.47544115449097
 11
95.24389929660903
 21
52.47688907264883
 72
     1
 10
95.24389929660903
 20
52.47688907264883
 11
95.24760028997724
 21
52.47835433834644
 72
     1
 10
95.24760028997724
 20
52.47835433834644
 11
95.25129438103534
 21
52.47983691945066
 72
     1
 10
95.25129438103534
 20
52.47983691945066
 11
95.25498148877226
 21
52.48133678344863
 72
     1
 10
95.25498148877226
 20
52.48133678344863
 11
95.25866153233011
 21
52.48285389744848
 72
     1
 10
95.25866153233011
 20
52.48285389744848
 11
95.26233443100585
 21
52.48438822818004
 72
     1
 10
95.26233443100585
 20
52.48438822818004
 11
95.2660001042532
 21
52.48593974199558
 72
     1
 10
95.2660001042532
 20
52.48593974199558
 11
95.26965847168428
 21
52.48750840487057
 72
     1
 10
95.26965847168428
 20
52.48750840487057
 11
95.27330945307143
 21
52.48909418240437
 72
     1
 10
95.27330945307143
 20
52.48909418240437
 11
95.27695296834902
 21
52.49069703982102
 72
     1
 10
95.27695296834902
 20
52.49069703982102
 11
95.28058893761508
 21
52.49231694197004
 72
     1
 10
95.28058893761508
 20
52.49231694197004
 11
95.28421728113317
 21
52.49395385332711
 72
     1
 10
95.28421728113317
 20
52.49395385332711
 11
95.28783791933405
 21
52.49560773799493
 72
     1
 10
95.28783791933405
 20
52.49560773799493
 11
95.29145077281748
 21
52.49727855970397
 72
     1
 10
95.29145077281748
 20
52.49727855970397
 11
95.29505576235393
 21
52.49896628181327
 72
     1
 10
95.29505576235393
 20
52.49896628181327
 11
95.29865280888633
 21
52.50067086731123
 72
     1
 10
95.29865280888633
 20
52.50067086731123
 11
95.3022418335318
 21
52.50239227881648
 72
     1
 10
95.3022418335318
 20
52.50239227881648
 11
95.30582275758336
 21
52.50413047857861
 72
     1
 10
95.30582275758336
 20
52.50413047857861
 11
95.30939550251169
 21
52.50588542847908
 72
     1
 10
95.30939550251169
 20
52.50588542847908
 11
95.31295998996686
 21
52.507657090032
 72
     1
 10
95.31295998996686
 20
52.507657090032
 11
95.31651614177997
 21
52.50944542438501
 72
     1
 10
95.31651614177997
 20
52.50944542438501
 11
95.32006387996499
 21
52.51125039232011
 72
     1
 10
95.32006387996499
 20
52.51125039232011
 11
95.32360312672034
 21
52.51307195425451
 72
     1
 10
95.32360312672034
 20
52.51307195425451
 11
95.32713380443067
 21
52.51491007024156
 72
     1
 10
95.32713380443067
 20
52.51491007024156
 11
95.3306558356686
 21
52.51676469997152
 72
     1
 10
95.3306558356686
 20
52.51676469997152
 11
95.33416914319628
 21
52.51863580277257
 72
     1
 10
95.33416914319628
 20
52.51863580277257
 11
95.33767364996721
 21
52.52052333761159
 72
     1
 10
95.33767364996721
 20
52.52052333761159
 11
95.34116927912794
 21
52.52242726309512
 72
     1
 10
95.34116927912794
 20
52.52242726309512
 11
95.34465595401963
 21
52.52434753747026
 72
     1
 10
95.34465595401963
 20
52.52434753747026
 11
95.34813359817983
 21
52.52628411862558
 72
     1
 10
95.34813359817983
 20
52.52628411862558
 11
95.35160213534414
 21
52.52823696409205
 72
     1
 10
95.35160213534414
 20
52.52823696409205
 11
95.35506148944789
 21
52.53020603104394
 72
     1
 10
95.35506148944789
 20
52.53020603104394
 11
95.35851158462776
 21
52.53219127629981
 72
     1
 10
95.35851158462776
 20
52.53219127629981
 11
95.3619523452235
 21
52.53419265632342
 72
     1
 10
95.3619523452235
 20
52.53419265632342
 11
95.36538369577957
 21
52.5362101272247
 72
     1
 10
95.36538369577957
 20
52.5362101272247
 11
95.36880556104677
 21
52.53824364476071
 72
     1
 10
95.36880556104677
 20
52.53824364476071
 11
95.37221786598393
 21
52.5402931643366
 72
     1
 10
95.37221786598393
 20
52.5402931643366
 11
95.37562053575952
 21
52.54235864100662
 72
     1
 10
95.37562053575952
 20
52.54235864100662
 11
95.37901349575334
 21
52.54444002947504
 72
     1
 10
95.37901349575334
 20
52.54444002947504
 11
95.38239667155808
 21
52.54653728409723
 72
     1
 10
95.38239667155808
 20
52.54653728409723
 11
95.38576998898105
 21
52.54865035888058
 72
     1
 10
95.38576998898105
 20
52.54865035888058
 11
95.3891333740457
 21
52.55077920748558
 72
     1
 10
95.3891333740457
 20
52.55077920748558
 11
95.39248675299332
 21
52.55292378322679
 72
     1
 10
95.39248675299332
 20
52.55292378322679
 11
95.39583005228465
 21
52.55508403907385
 72
     1
 10
95.39583005228465
 20
52.55508403907385
 11
95.39916319860144
 21
52.55725992765257
 72
     1
 10
95.39916319860144
 20
52.55725992765257
 11
95.40248611884812
 21
52.55945140124592
 72
     1
 10
95.40248611884812
 20
52.55945140124592
 11
95.40579874015336
 21
52.56165841179509
 72
     1
 10
95.40579874015336
 20
52.56165841179509
 11
95.4091009898717
 21
52.56388091090055
 72
     1
 10
95.4091009898717
 20
52.56388091090055
 11
95.41239279558513
 21
52.56611884982313
 72
     1
 10
95.41239279558513
 20
52.56611884982313
 11
95.41567408510467
 21
52.56837217948502
 72
     1
 10
95.41567408510467
 20
52.56837217948502
 11
95.41894478647193
 21
52.57064085047093
 72
     1
 10
95.41894478647193
 20
52.57064085047093
 11
95.42220482796075
 21
52.57292481302912
 72
     1
 10
95.42220482796075
 20
52.57292481302912
 11
95.42545413807876
 21
52.57522401707251
 72
     1
 10
95.42545413807876
 20
52.57522401707251
 11
95.42869264556889
 21
52.57753841217977
 72
     1
 10
95.42869264556889
 20
52.57753841217977
 11
95.43192027941097
 21
52.57986794759645
 72
     1
 10
95.43192027941097
 20
52.57986794759645
 11
95.43513696882331
 21
52.58221257223607
 72
     1
 10
95.43513696882331
 20
52.58221257223607
 11
95.43834264326422
 21
52.58457223468121
 72
     1
 10
95.43834264326422
 20
52.58457223468121
 11
95.44153723243356
 21
52.58694688318472
 72
     1
 10
95.44153723243356
 20
52.58694688318472
 11
95.44472066627432
 21
52.58933646567078
 72
     1
 10
95.44472066627432
 20
52.58933646567078
 11
95.44789287497407
 21
52.59174092973608
 72
     1
 10
95.44789287497407
 20
52.59174092973608
 11
95.4510537889666
 21
52.59416022265096
 72
     1
 10
95.4510537889666
 20
52.59416022265096
 11
95.45420333893337
 21
52.59659429136054
 72
     1
 10
95.45420333893337
 20
52.59659429136054
 11
95.45734145580504
 21
52.59904308248594
 72
     1
 10
95.45734145580504
 20
52.59904308248594
 11
95.46046807076301
 21
52.60150654232541
 72
     1
 10
95.46046807076301
 20
52.60150654232541
 11
95.46358311524094
 21
52.60398461685551
 72
     1
 10
95.46358311524094
 20
52.60398461685551
 11
95.46668652092617
 21
52.60647725173229
 72
     1
 10
95.46668652092617
 20
52.60647725173229
 11
95.46977821976134
 21
52.60898439229253
 72
     1
 10
95.46977821976134
 20
52.60898439229253
 11
95.47285814394577
 21
52.61150598355486
 72
     1
 10
95.47285814394577
 20
52.61150598355486
 11
95.47592622593703
 21
52.61404197022104
 72
     1
 10
95.47592622593703
 20
52.61404197022104
 11
95.47898239845237
 21
52.61659229667711
 72
     1
 10
95.47898239845237
 20
52.61659229667711
 11
95.48202659447024
 21
52.61915690699468
 72
     1
 10
95.48202659447024
 20
52.61915690699468
 11
95.48505874723169
 21
52.62173574493207
 72
     1
 10
95.48505874723169
 20
52.62173574493207
 11
95.48807879024191
 21
52.62432875393562
 72
     1
 10
95.48807879024191
 20
52.62432875393562
 11
95.49108665727167
 21
52.6269358771409
 72
     1
 10
95.49108665727167
 20
52.6269358771409
 11
95.49408228235869
 21
52.62955705737394
 72
     1
 10
95.49408228235869
 20
52.62955705737394
 11
95.49706559980925
 21
52.63219223715251
 72
     1
 10
95.49706559980925
 20
52.63219223715251
 11
95.50003654419943
 21
52.63484135868737
 72
     1
 10
95.50003654419943
 20
52.63484135868737
 11
95.50299505037677
 21
52.63750436388355
 72
     1
 10
95.50299505037677
 20
52.63750436388355
 11
95.50594105346146
 21
52.64018119434159
 72
     1
 10
95.50594105346146
 20
52.64018119434159
 11
95.50887448884795
 21
52.64287179135886
 72
     1
 10
95.50887448884795
 20
52.64287179135886
 11
95.5117952922063
 21
52.64557609593083
 72
     1
 10
95.5117952922063
 20
52.64557609593083
 11
95.51470339948357
 21
52.64829404875236
 72
     1
 10
95.51470339948357
 20
52.64829404875236
 11
95.51759874690524
 21
52.65102559021901
 72
     1
 10
95.51759874690524
 20
52.65102559021901
 11
95.5204812709766
 21
52.65377066042832
 72
     1
 10
95.5204812709766
 20
52.65377066042832
 11
95.52335090848422
 21
52.65652919918118
 72
     1
 10
95.52335090848422
 20
52.65652919918118
 11
95.52620759649719
 21
52.6593011459831
 72
     1
 10
95.52620759649719
 20
52.6593011459831
 11
95.52905127236863
 21
52.66208644004555
 72
     1
 10
95.52905127236863
 20
52.66208644004555
 11
95.531881873737
 21
52.6648850202873
 72
     1
 10
95.531881873737
 20
52.6648850202873
 11
95.53469933852749
 21
52.66769682533575
 72
     1
 10
95.53469933852749
 20
52.66769682533575
 11
95.53750360495334
 21
52.67052179352829
 72
     1
 10
95.53750360495334
 20
52.67052179352829
 11
95.54029461151731
 21
52.67335986291365
 72
     1
 10
95.54029461151731
 20
52.67335986291365
 11
95.54307229701284
 21
52.67621097125323
 72
     1
 10
95.54307229701284
 20
52.67621097125323
 11
95.54583660052559
 21
52.6790750560225
 72
     1
 10
95.54583660052559
 20
52.6790750560225
 11
95.54858746143464
 21
52.68195205441235
 72
     1
 10
95.54858746143464
 20
52.68195205441235
 11
95.55132481941386
 21
52.68484190333049
 72
     1
 10
95.55132481941386
 20
52.68484190333049
 11
95.55404861443327
 21
52.68774453940281
 72
     1
 10
95.55404861443327
 20
52.68774453940281
 11
95.55675878676031
 21
52.69065989897479
 72
     1
 10
95.55675878676031
 20
52.69065989897479
 11
95.55945527696116
 21
52.69358791811285
 72
     1
 10
95.55945527696116
 20
52.69358791811285
 11
95.56213802590203
 21
52.69652853260584
 72
     1
 10
95.56213802590203
 20
52.69652853260584
 11
95.56480697475051
 21
52.69948167796635
 72
     1
 10
95.56480697475051
 20
52.69948167796635
 11
95.56746206497681
 21
52.70244728943219
 72
     1
 10
95.56746206497681
 20
52.70244728943219
 11
95.57010323835506
 21
52.70542530196779
 72
     1
 10
95.57010323835506
 20
52.70542530196779
 11
95.57273043696458
 21
52.70841565026561
 72
     1
 10
95.57273043696458
 20
52.70841565026561
 11
95.57534360319113
 21
52.71141826874761
 72
     1
 10
95.57534360319113
 20
52.71141826874761
 11
95.57794267972827
 21
52.71443309156666
 72
     1
 10
95.57794267972827
 20
52.71443309156666
 11
95.58052760957847
 21
52.71746005260798
 72
     1
 10
95.58052760957847
 20
52.71746005260798
 11
95.58309833605448
 21
52.7204990854906
 72
     1
 10
95.58309833605448
 20
52.7204990854906
 11
95.58565480278051
 21
52.72355012356883
 72
     1
 10
95.58565480278051
 20
52.72355012356883
 11
95.5881969536935
 21
52.72661309993369
 72
     1
 10
95.5881969536935
 20
52.72661309993369
 11
95.59072473304433
 21
52.72968794741442
 72
     1
 10
95.59072473304433
 20
52.72968794741442
 11
95.59323808539901
 21
52.73277459857989
 72
     1
 10
95.59323808539901
 20
52.73277459857989
 11
95.59573695563999
 21
52.73587298574014
 72
     1
 10
95.59573695563999
 20
52.73587298574014
 11
95.5982212889673
 21
52.73898304094786
 72
     1
 10
95.5982212889673
 20
52.73898304094786
 11
95.60069103089971
 21
52.74210469599981
 72
     1
 10
95.60069103089971
 20
52.74210469599981
 11
95.60314612727605
 21
52.74523788243841
 72
     1
 10
95.60314612727605
 20
52.74523788243841
 11
95.60558652425628
 21
52.74838253155318
 72
     1
 10
95.60558652425628
 20
52.74838253155318
 11
95.60801216832273
 21
52.75153857438226
 72
     1
 10
95.60801216832273
 20
52.75153857438226
 11
95.61042300628125
 21
52.75470594171395
 72
     1
 10
95.61042300628125
 20
52.75470594171395
 11
95.61281898526242
 21
52.75788456408818
 72
     1
 10
95.61281898526242
 20
52.75788456408818
 11
95.61520005272263
 21
52.76107437179807
 72
     1
 10
95.61520005272263
 20
52.76107437179807
 11
95.6175661564453
 21
52.76427529489143
 72
     1
 10
95.6175661564453
 20
52.76427529489143
 11
95.61991724454202
 21
52.76748726317235
 72
     1
 10
95.61991724454202
 20
52.76748726317235
 11
95.62225326545364
 21
52.77071020620266
 72
     1
 10
95.62225326545364
 20
52.77071020620266
 11
95.62457416795145
 21
52.77394405330352
 72
     1
 10
95.62457416795145
 20
52.77394405330352
 11
95.62687990113828
 21
52.777188733557
 72
     1
 10
95.62687990113828
 20
52.777188733557
 11
95.62917041444962
 21
52.78044417580755
 72
     1
 10
95.62917041444962
 20
52.78044417580755
 11
95.63144565765474
 21
52.78371030866365
 72
     1
 10
95.63144565765474
 20
52.78371030866365
 11
95.63370558085778
 21
52.78698706049931
 72
     1
 10
95.63370558085778
 20
52.78698706049931
 11
95.63595013449883
 21
52.79027435945569
 72
     1
 10
95.63595013449883
 20
52.79027435945569
 11
95.63817926935504
 21
52.79357213344262
 72
     1
 10
95.63817926935504
 20
52.79357213344262
 11
95.64039293654172
 21
52.79688031014025
 72
     1
 10
95.64039293654172
 20
52.79688031014025
 11
95.64259108751334
 21
52.80019881700059
 72
     1
 10
95.64259108751334
 20
52.80019881700059
 11
95.64477367406467
 21
52.80352758124909
 72
     1
 10
95.64477367406467
 20
52.80352758124909
 11
95.64694064833179
 21
52.80686652988626
 72
     1
 10
95.64694064833179
 20
52.80686652988626
 11
95.64909196279318
 21
52.81021558968931
 72
     1
 10
95.64909196279318
 20
52.81021558968931
 11
95.6512275702707
 21
52.81357468721365
 72
     1
 10
95.6512275702707
 20
52.81357468721365
 11
95.65334742393071
 21
52.81694374879461
 72
     1
 10
95.65334742393071
 20
52.81694374879461
 11
95.655451477285
 21
52.820322700549
 72
     1
 10
95.655451477285
 20
52.820322700549
 11
95.65753968419187
 21
52.82371146837671
 72
     1
 10
95.65753968419187
 20
52.82371146837671
 11
95.65961199885719
 21
52.82710997796242
 72
     1
 10
95.65961199885719
 20
52.82710997796242
 11
95.66166837583525
 21
52.83051815477711
 72
     1
 10
95.66166837583525
 20
52.83051815477711
 11
95.66370877002993
 21
52.8339359240798
 72
     1
 10
95.66370877002993
 20
52.8339359240798
 11
95.66573313669558
 21
52.83736321091915
 72
     1
 10
95.66573313669558
 20
52.83736321091915
 11
95.66774143143802
 21
52.84079994013508
 72
     1
 10
95.66774143143802
 20
52.84079994013508
 11
95.66973361021553
 21
52.84424603636045
 72
     1
 10
95.66973361021553
 20
52.84424603636045
 11
95.67170962933986
 21
52.84770142402269
 72
     1
 10
95.67170962933986
 20
52.84770142402269
 11
95.67366944547707
 21
52.85116602734551
 72
     1
 10
95.67366944547707
 20
52.85116602734551
 11
95.6756130156486
 21
52.85463977035047
 72
     1
 10
95.6756130156486
 20
52.85463977035047
 11
95.67754029723211
 21
52.85812257685872
 72
     1
 10
95.67754029723211
 20
52.85812257685872
 11
95.67945124796255
 21
52.86161437049266
 72
     1
 10
95.67945124796255
 20
52.86161437049266
 11
95.68134582593291
 21
52.86511507467758
 72
     1
 10
95.68134582593291
 20
52.86511507467758
 11
95.6832239895953
 21
52.86862461264339
 72
     1
 10
95.6832239895953
 20
52.86862461264339
 11
95.68508569776176
 21
52.87214290742624
 72
     1
 10
95.68508569776176
 20
52.87214290742624
 11
95.68693090960522
 21
52.87566988187027
 72
     1
 10
95.68693090960522
 20
52.87566988187027
 11
95.68875958466036
 21
52.87920545862928
 72
     1
 10
95.68875958466036
 20
52.87920545862928
 11
95.69057168282451
 21
52.88274956016841
 72
     1
 10
95.69057168282451
 20
52.88274956016841
 11
95.69236716435853
 21
52.88630210876584
 72
     1
 10
95.69236716435853
 20
52.88630210876584
 11
95.69414598988767
 21
52.88986302651453
 72
     1
 10
95.69414598988767
 20
52.88986302651453
 11
95.69590812040248
 21
52.89343223532391
 72
     1
 10
95.69590812040248
 20
52.89343223532391
 11
95.69765351725961
 21
52.89700965692155
 72
     1
 10
95.69765351725961
 20
52.89700965692155
 11
95.69938214218264
 21
52.90059521285495
 72
     1
 10
95.69938214218264
 20
52.90059521285495
 11
95.70109395726303
 21
52.90418882449322
 72
     1
 10
95.70109395726303
 20
52.90418882449322
 11
95.70278892496083
 21
52.90779041302879
 72
     1
 10
95.70278892496083
 20
52.90779041302879
 11
95.70446700810554
 21
52.91139989947918
 72
     1
 10
95.70446700810554
 20
52.91139989947918
 11
95.70612816989699
 21
52.9150172046887
 72
     1
 10
95.70612816989699
 20
52.9150172046887
 11
95.70777237390604
 21
52.91864224933018
 72
     1
 10
95.70777237390604
 20
52.91864224933018
 11
95.70939958407546
 21
52.92227495390675
 72
     1
 10
95.70939958407546
 20
52.92227495390675
 11
95.71100976472069
 21
52.92591523875355
 72
     1
 10
95.71100976472069
 20
52.92591523875355
 11
95.71260288053061
 21
52.92956302403949
 72
     1
 10
95.71260288053061
 20
52.92956302403949
 11
95.71417889656836
 21
52.93321822976898
 72
     1
 10
95.71417889656836
 20
52.93321822976898
 11
95.71573777827206
 21
52.93688077578371
 72
     1
 10
95.71573777827206
 20
52.93688077578371
 11
95.71727949145557
 21
52.94055058176439
 72
     1
 10
95.71727949145557
 20
52.94055058176439
 11
95.7188040023093
 21
52.94422756723255
 72
     1
 10
95.7188040023093
 20
52.94422756723255
 11
95.72031127740082
 21
52.94791165155223
 72
     1
 10
95.72031127740082
 20
52.94791165155223
 11
95.72180128367579
 21
52.95160275393184
 72
     1
 10
95.72180128367579
 20
52.95160275393184
 11
95.72327398845847
 21
52.95530079342583
 72
     1
 10
95.72327398845847
 20
52.95530079342583
 11
95.72472935945262
 21
52.95900568893658
 72
     1
 10
95.72472935945262
 20
52.95900568893658
 11
95.84281127929685
 21
53.26168402777778
 72
     1
 10
95.84281127929685
 20
53.26168402777778
 11
95.8453774653933
 21
53.26827466140558
 72
     1
 10
95.8453774653933
 20
53.26827466140558
 11
95.8479365453733
 21
53.27486377229415
 72
     1
 10
95.8479365453733
 20
53.27486377229415
 11
95.85048851923686
 21
53.28145136044349
 72
     1
 10
95.85048851923686
 20
53.28145136044349
 11
95.85303338698398
 21
53.28803742585359
 72
     1
 10
95.85303338698398
 20
53.28803742585359
 11
95.85557114861464
 21
53.29462196852445
 72
     1
 10
95.85557114861464
 20
53.29462196852445
 11
95.85810180412888
 21
53.30120498845606
 72
     1
 10
95.85810180412888
 20
53.30120498845606
 11
95.86062535352667
 21
53.30778648564845
 72
     1
 10
95.86062535352667
 20
53.30778648564845
 11
95.86314179680801
 21
53.3143664601016
 72
     1
 10
95.86314179680801
 20
53.3143664601016
 11
95.8656511339729
 21
53.3209449118155
 72
     1
 10
95.8656511339729
 20
53.3209449118155
 11
95.86815336502137
 21
53.32752184079017
 72
     1
 10
95.86815336502137
 20
53.32752184079017
 11
95.8706484899534
 21
53.3340972470256
 72
     1
 10
95.8706484899534
 20
53.3340972470256
 11
95.87313650876897
 21
53.3406711305218
 72
     1
 10
95.87313650876897
 20
53.3406711305218
 11
95.87561742146809
 21
53.34724349127875
 72
     1
 10
95.87561742146809
 20
53.34724349127875
 11
95.87809122805078
 21
53.35381432929647
 72
     1
 10
95.87809122805078
 20
53.35381432929647
 11
95.88055792851702
 21
53.36038364457495
 72
     1
 10
95.88055792851702
 20
53.36038364457495
 11
95.88301752286682
 21
53.3669514371142
 72
     1
 10
95.88301752286682
 20
53.3669514371142
 11
95.88547001110018
 21
53.3735177069142
 72
     1
 10
95.88547001110018
 20
53.3735177069142
 11
95.8879153932171
 21
53.38008245397496
 72
     1
 10
95.8879153932171
 20
53.38008245397496
 11
95.89035366921757
 21
53.3866456782965
 72
     1
 10
95.89035366921757
 20
53.3866456782965
 11
95.89278483910161
 21
53.39320737987879
 72
     1
 10
95.89278483910161
 20
53.39320737987879
 11
95.89520890286919
 21
53.39976755872184
 72
     1
 10
95.89520890286919
 20
53.39976755872184
 11
95.89762586052034
 21
53.40632621482565
 72
     1
 10
95.89762586052034
 20
53.40632621482565
 11
95.90003571205504
 21
53.41288334819023
 72
     1
 10
95.90003571205504
 20
53.41288334819023
 11
95.9024384574733
 21
53.41943895881558
 72
     1
 10
95.9024384574733
 20
53.41943895881558
 11
95.9048340967751
 21
53.42599304670169
 72
     1
 10
95.9048340967751
 20
53.42599304670169
 11
95.90722262996049
 21
53.43254561184855
 72
     1
 10
95.90722262996049
 20
53.43254561184855
 11
95.90960405702943
 21
53.43909665425618
 72
     1
 10
95.90960405702943
 20
53.43909665425618
 11
95.91197837798191
 21
53.44564617392457
 72
     1
 10
95.91197837798191
 20
53.44564617392457
 11
95.91434559281795
 21
53.45219417085372
 72
     1
 10
95.91434559281795
 20
53.45219417085372
 11
95.91670570153755
 21
53.45874064504363
 72
     1
 10
95.91670570153755
 20
53.45874064504363
 11
95.91905870414071
 21
53.46528559649431
 72
     1
 10
95.91905870414071
 20
53.46528559649431
 11
95.92140460062744
 21
53.47182902520576
 72
     1
 10
95.92140460062744
 20
53.47182902520576
 11
95.92374339099773
 21
53.47837093117796
 72
     1
 10
95.92374339099773
 20
53.47837093117796
 11
95.92607507525156
 21
53.48491131441092
 72
     1
 10
95.92607507525156
 20
53.48491131441092
 11
95.92839965338895
 21
53.49145017490465
 72
     1
 10
95.92839965338895
 20
53.49145017490465
 11
95.9307171254099
 21
53.49798751265914
 72
     1
 10
95.9307171254099
 20
53.49798751265914
 11
95.9330274913144
 21
53.50452332767439
 72
     1
 10
95.9330274913144
 20
53.50452332767439
 11
95.93533075110247
 21
53.51105761995041
 72
     1
 10
95.93533075110247
 20
53.51105761995041
 11
95.93762690477409
 21
53.51759038948718
 72
     1
 10
95.93762690477409
 20
53.51759038948718
 11
95.93991595232926
 21
53.52412163628472
 72
     1
 10
95.93991595232926
 20
53.52412163628472
 11
95.94219789376798
 21
53.53065136034301
 72
     1
 10
95.94219789376798
 20
53.53065136034301
 11
95.94447272909028
 21
53.53717956166208
 72
     1
 10
95.94447272909028
 20
53.53717956166208
 11
95.94674045829613
 21
53.5437062402419
 72
     1
 10
95.94674045829613
 20
53.5437062402419
 11
95.94900108138553
 21
53.55023139608249
 72
     1
 10
95.94900108138553
 20
53.55023139608249
 11
95.95125459835849
 21
53.55675502918385
 72
     1
 10
95.95125459835849
 20
53.55675502918385
 11
95.95350100921502
 21
53.56327713954596
 72
     1
 10
95.95350100921502
 20
53.56327713954596
 11
95.9557403139551
 21
53.56979772716883
 72
     1
 10
95.9557403139551
 20
53.56979772716883
 11
95.95797251257873
 21
53.57631679205247
 72
     1
 10
95.95797251257873
 20
53.57631679205247
 11
95.96019760508592
 21
53.58283433419686
 72
     1
 10
95.96019760508592
 20
53.58283433419686
 11
95.96241559147668
 21
53.58935035360202
 72
     1
 10
95.96241559147668
 20
53.58935035360202
 11
95.96462647175099
 21
53.59586485026794
 72
     1
 10
95.96462647175099
 20
53.59586485026794
 11
95.96683024590885
 21
53.60237782419463
 72
     1
 10
95.96683024590885
 20
53.60237782419463
 11
95.96902691395027
 21
53.60888927538208
 72
     1
 10
95.96902691395027
 20
53.60888927538208
 11
95.97121647587525
 21
53.61539920383029
 72
     1
 10
95.97121647587525
 20
53.61539920383029
 11
95.97339893168379
 21
53.62190760953926
 72
     1
 10
95.97339893168379
 20
53.62190760953926
 11
95.97557428137588
 21
53.62841449250899
 72
     1
 10
95.97557428137588
 20
53.62841449250899
 11
95.97774252495154
 21
53.63491985273949
 72
     1
 10
95.97774252495154
 20
53.63491985273949
 11
95.97990366241075
 21
53.64142369023075
 72
     1
 10
95.97990366241075
 20
53.64142369023075
 11
95.98205769375352
 21
53.64792600498278
 72
     1
 10
95.98205769375352
 20
53.64792600498278
 11
95.98420461897985
 21
53.65442679699556
 72
     1
 10
95.98420461897985
 20
53.65442679699556
 11
95.98634443808973
 21
53.6609260662691
 72
     1
 10
95.98634443808973
 20
53.6609260662691
 11
95.98847715108317
 21
53.66742381280341
 72
     1
 10
95.98847715108317
 20
53.66742381280341
 11
95.99060275796018
 21
53.67392003659848
 72
     1
 10
95.99060275796018
 20
53.67392003659848
 11
95.99272125872072
 21
53.68041473765432
 72
     1
 10
95.99272125872072
 20
53.68041473765432
 11
95.99483265336482
 21
53.68690791597091
 72
     1
 10
95.99483265336482
 20
53.68690791597091
 11
95.9969369418925
 21
53.69339957154827
 72
     1
 10
95.9969369418925
 20
53.69339957154827
 11
95.99903412430373
 21
53.69988970438639
 72
     1
 10
95.99903412430373
 20
53.69988970438639
 11
96.00112420059851
 21
53.70637831448527
 72
     1
 10
96.00112420059851
 20
53.70637831448527
 11
96.00320717077685
 21
53.71286540184491
 72
     1
 10
96.00320717077685
 20
53.71286540184491
 11
96.00528303483875
 21
53.71935096646531
 72
     1
 10
96.00528303483875
 20
53.71935096646531
 11
96.0073517927842
 21
53.72583500834649
 72
     1
 10
96.0073517927842
 20
53.72583500834649
 11
96.00941344461322
 21
53.73231752748842
 72
     1
 10
96.00941344461322
 20
53.73231752748842
 11
96.01146799032578
 21
53.73879852389111
 72
     1
 10
96.01146799032578
 20
53.73879852389111
 11
96.01351542992191
 21
53.74527799755457
 72
     1
 10
96.01351542992191
 20
53.74527799755457
 11
96.0155557634016
 21
53.75175594847879
 72
     1
 10
96.0155557634016
 20
53.75175594847879
 11
96.01758899076484
 21
53.75823237666377
 72
     1
 10
96.01758899076484
 20
53.75823237666377
 11
96.01961511201164
 21
53.76470728210951
 72
     1
 10
96.01961511201164
 20
53.76470728210951
 11
96.021634127142
 21
53.77118066481601
 72
     1
 10
96.021634127142
 20
53.77118066481601
 11
96.02364603615591
 21
53.77765252478329
 72
     1
 10
96.02364603615591
 20
53.77765252478329
 11
96.02565083905338
 21
53.78412286201132
 72
     1
 10
96.02565083905338
 20
53.78412286201132
 11
96.0276485358344
 21
53.79059167650011
 72
     1
 10
96.0276485358344
 20
53.79059167650011
 11
96.02963912649899
 21
53.79705896824966
 72
     1
 10
96.02963912649899
 20
53.79705896824966
 11
96.03162261104714
 21
53.80352473725998
 72
     1
 10
96.03162261104714
 20
53.80352473725998
 11
96.03359898947883
 21
53.80998898353106
 72
     1
 10
96.03359898947883
 20
53.80998898353106
 11
96.03556826179408
 21
53.8164517070629
 72
     1
 10
96.03556826179408
 20
53.8164517070629
 11
96.03753042799289
 21
53.8229129078555
 72
     1
 10
96.03753042799289
 20
53.8229129078555
 11
96.03948548807526
 21
53.82937258590886
 72
     1
 10
96.03948548807526
 20
53.82937258590886
 11
96.0414334420412
 21
53.83583074122299
 72
     1
 10
96.0414334420412
 20
53.83583074122299
 11
96.04337428989069
 21
53.84228737379788
 72
     1
 10
96.04337428989069
 20
53.84228737379788
 11
96.04530803162373
 21
53.84874248363353
 72
     1
 10
96.04530803162373
 20
53.84874248363353
 11
96.04723466724033
 21
53.85519607072995
 72
     1
 10
96.04723466724033
 20
53.85519607072995
 11
96.04915419674049
 21
53.86164813508712
 72
     1
 10
96.04915419674049
 20
53.86164813508712
 11
96.0510666201242
 21
53.86809867670506
 72
     1
 10
96.0510666201242
 20
53.86809867670506
 11
96.05297193739148
 21
53.87454769558376
 72
     1
 10
96.05297193739148
 20
53.87454769558376
 11
96.0548701485423
 21
53.88099519172323
 72
     1
 10
96.0548701485423
 20
53.88099519172323
 11
96.0567612535767
 21
53.88744116512346
 72
     1
 10
96.0567612535767
 20
53.88744116512346
 11
96.05864525249464
 21
53.89388561578444
 72
     1
 10
96.05864525249464
 20
53.89388561578444
 11
96.06052214529615
 21
53.90032854370619
 72
     1
 10
96.06052214529615
 20
53.90032854370619
 11
96.06239193198121
 21
53.90676994888871
 72
     1
 10
96.06239193198121
 20
53.90676994888871
 11
96.06425461254983
 21
53.91320983133198
 72
     1
 10
96.06425461254983
 20
53.91320983133198
 11
96.066110187002
 21
53.91964819103602
 72
     1
 10
96.066110187002
 20
53.91964819103602
 11
96.06795865533773
 21
53.92608502800082
 72
     1
 10
96.06795865533773
 20
53.92608502800082
 11
96.06980001755703
 21
53.93252034222638
 72
     1
 10
96.06980001755703
 20
53.93252034222638
 11
96.07163427365987
 21
53.93895413371271
 72
     1
 10
96.07163427365987
 20
53.93895413371271
 11
96.07346142364626
 21
53.94538640245979
 72
     1
 10
96.07346142364626
 20
53.94538640245979
 11
96.07528146751623
 21
53.95181714846764
 72
     1
 10
96.07528146751623
 20
53.95181714846764
 11
96.07709440526976
 21
53.95824637173625
 72
     1
 10
96.07709440526976
 20
53.95824637173625
 11
96.07890023690683
 21
53.96467407226562
 72
     1
 10
96.07890023690683
 20
53.96467407226562
 11
96.08069896242746
 21
53.97110025005576
 72
     1
 10
96.08069896242746
 20
53.97110025005576
 11
96.08249058183165
 21
53.97752490510666
 72
     1
 10
96.08249058183165
 20
53.97752490510666
 11
96.0842750951194
 21
53.98394803741832
 72
     1
 10
96.0842750951194
 20
53.98394803741832
 11
96.0860525022907
 21
53.99036964699074
 72
     1
 10
96.0860525022907
 20
53.99036964699074
 11
96.08782280334556
 21
53.99678973382393
 72
     1
 10
96.08782280334556
 20
53.99678973382393
 11
96.08958599828398
 21
54.00320829791788
 72
     1
 10
96.08958599828398
 20
54.00320829791788
 11
96.09134208710596
 21
54.00962533927259
 72
     1
 10
96.09134208710596
 20
54.00962533927259
 11
96.09309106981149
 21
54.01604085788806
 72
     1
 10
96.09309106981149
 20
54.01604085788806
 11
96.09483294640059
 21
54.02245485376429
 72
     1
 10
96.09483294640059
 20
54.02245485376429
 11
96.09656771687322
 21
54.02886732690128
 72
     1
 10
96.09656771687322
 20
54.02886732690128
 11
96.09829538122942
 21
54.03527827729904
 72
     1
 10
96.09829538122942
 20
54.03527827729904
 11
96.10001593946919
 21
54.04168770495757
 72
     1
 10
96.10001593946919
 20
54.04168770495757
 11
96.10172939159251
 21
54.04809560987685
 72
     1
 10
96.10172939159251
 20
54.04809560987685
 11
96.10343573759938
 21
54.0545019920569
 72
     1
 10
96.10343573759938
 20
54.0545019920569
 11
96.10513497748981
 21
54.06090685149771
 72
     1
 10
96.10513497748981
 20
54.06090685149771
 11
96.10682711126381
 21
54.06731018819927
 72
     1
 10
96.10682711126381
 20
54.06731018819927
 11
96.10851213892136
 21
54.0737120021616
 72
     1
 10
96.10851213892136
 20
54.0737120021616
 11
96.11019006046246
 21
54.08011229338469
 72
     1
 10
96.11019006046246
 20
54.08011229338469
 11
96.11186087588713
 21
54.08651106186855
 72
     1
 10
96.11186087588713
 20
54.08651106186855
 11
96.11352458519535
 21
54.09290830761317
 72
     1
 10
96.11352458519535
 20
54.09290830761317
 11
96.11518118838713
 21
54.09930403061855
 72
     1
 10
96.11518118838713
 20
54.09930403061855
 11
96.11683068546247
 21
54.1056982308847
 72
     1
 10
96.11683068546247
 20
54.1056982308847
 11
96.11847307642137
 21
54.1120909084116
 72
     1
 10
96.11847307642137
 20
54.1120909084116
 11
96.12010836126382
 21
54.11848206319927
 72
     1
 10
96.12010836126382
 20
54.11848206319927
 11
96.12173653998983
 21
54.1248716952477
 72
     1
 10
96.12173653998983
 20
54.1248716952477
 11
96.12335761259939
 21
54.13125980455689
 72
     1
 10
96.12335761259939
 20
54.13125980455689
 11
96.12497157909252
 21
54.13764639112685
 72
     1
 10
96.12497157909252
 20
54.13764639112685
 11
96.12657843946918
 21
54.14403145495756
 72
     1
 10
96.12657843946918
 20
54.14403145495756
 11
96.12817819372941
 21
54.15041499604904
 72
     1
 10
96.12817819372941
 20
54.15041499604904
 11
96.12977084187321
 21
54.15679701440128
 72
     1
 10
96.12977084187321
 20
54.15679701440128
 11
96.13135638390057
 21
54.16317751001429
 72
     1
 10
96.13135638390057
 20
54.16317751001429
 11
96.13293481981147
 21
54.16955648288805
 72
     1
 10
96.13293481981147
 20
54.16955648288805
 11
96.13450614960593
 21
54.17593393302258
 72
     1
 10
96.13450614960593
 20
54.17593393302258
 11
96.13607037328396
 21
54.18230986041787
 72
     1
 10
96.13607037328396
 20
54.18230986041787
 11
96.13762749084555
 21
54.18868426507393
 72
     1
 10
96.13762749084555
 20
54.18868426507393
 11
96.13917750229068
 21
54.19505714699075
 72
     1
 10
96.13917750229068
 20
54.19505714699075
 11
96.14072040761937
 21
54.20142850616833
 72
     1
 10
96.14072040761937
 20
54.20142850616833
 11
96.14225620683163
 21
54.20779834260667
 72
     1
 10
96.14225620683163
 20
54.20779834260667
 11
96.14378489992744
 21
54.21416665630576
 72
     1
 10
96.14378489992744
 20
54.21416665630576
 11
96.1453064869068
 21
54.22053344726563
 72
     1
 10
96.1453064869068
 20
54.22053344726563
 11
96.14682096776973
 21
54.22689871548626
 72
     1
 10
96.14682096776973
 20
54.22689871548626
 11
96.14832834251621
 21
54.23326246096764
 72
     1
 10
96.14832834251621
 20
54.23326246096764
 11
96.14982861114625
 21
54.23962468370979
 72
     1
 10
96.14982861114625
 20
54.23962468370979
 11
96.15132177365984
 21
54.24598538371271
 72
     1
 10
96.15132177365984
 20
54.24598538371271
 11
96.152807830057
 21
54.25234456097638
 72
     1
 10
96.152807830057
 20
54.25234456097638
 11
96.15428678033771
 21
54.25870221550082
 72
     1
 10
96.15428678033771
 20
54.25870221550082
 11
96.15575862450198
 21
54.26505834728602
 72
     1
 10
96.15575862450198
 20
54.26505834728602
 11
96.15722336254981
 21
54.27141295633199
 72
     1
 10
96.15722336254981
 20
54.27141295633199
 11
96.1586809944812
 21
54.27776604263871
 72
     1
 10
96.1586809944812
 20
54.27776604263871
 11
96.16013152029615
 21
54.28411760620619
 72
     1
 10
96.16013152029615
 20
54.28411760620619
 11
96.16157493999464
 21
54.29046764703445
 72
     1
 10
96.16157493999464
 20
54.29046764703445
 11
96.1630112535767
 21
54.29681616512347
 72
     1
 10
96.1630112535767
 20
54.29681616512347
 11
96.16444046104232
 21
54.30316316047325
 72
     1
 10
96.16444046104232
 20
54.30316316047325
 11
96.16586256239148
 21
54.30950863308378
 72
     1
 10
96.16586256239148
 20
54.30950863308378
 11
96.1672775576242
 21
54.31585258295508
 72
     1
 10
96.1672775576242
 20
54.31585258295508
 11
96.1686854467405
 21
54.32219501008714
 72
     1
 10
96.1686854467405
 20
54.32219501008714
 11
96.17008622974035
 21
54.32853591447996
 72
     1
 10
96.17008622974035
 20
54.32853591447996
 11
96.17147990662374
 21
54.33487529613355
 72
     1
 10
96.17147990662374
 20
54.33487529613355
 11
96.1728664773907
 21
54.3412131550479
 72
     1
 10
96.1728664773907
 20
54.3412131550479
 11
96.17424594204121
 21
54.34754949122301
 72
     1
 10
96.17424594204121
 20
54.34754949122301
 11
96.17561830057528
 21
54.35388430465888
 72
     1
 10
96.17561830057528
 20
54.35388430465888
 11
96.17698355299291
 21
54.36021759535551
 72
     1
 10
96.17698355299291
 20
54.36021759535551
 11
96.1783416992941
 21
54.36654936331291
 72
     1
 10
96.1783416992941
 20
54.36654936331291
 11
96.17969273947884
 21
54.37287960853107
 72
     1
 10
96.17969273947884
 20
54.37287960853107
 11
96.18103667354714
 21
54.37920833100999
 72
     1
 10
96.18103667354714
 20
54.37920833100999
 11
96.182373501499
 21
54.38553553074968
 72
     1
 10
96.182373501499
 20
54.38553553074968
 11
96.18370322333442
 21
54.39186120775013
 72
     1
 10
96.18370322333442
 20
54.39186120775013
 11
96.1850258390534
 21
54.39818536201133
 72
     1
 10
96.1850258390534
 20
54.39818536201133
 11
96.18634134865592
 21
54.4045079935333
 72
     1
 10
96.18634134865592
 20
54.4045079935333
 11
96.18764975214201
 21
54.41082910231604
 72
     1
 10
96.18764975214201
 20
54.41082910231604
 11
96.18895104951166
 21
54.41714868835953
 72
     1
 10
96.18895104951166
 20
54.41714868835953
 11
96.19024524076485
 21
54.42346675166379
 72
     1
 10
96.19024524076485
 20
54.42346675166379
 11
96.1915323259016
 21
54.42978329222881
 72
     1
 10
96.1915323259016
 20
54.42978329222881
 11
96.19281230492192
 21
54.43609831005459
 72
     1
 10
96.19281230492192
 20
54.43609831005459
 11
96.19408517782578
 21
54.44241180514113
 72
     1
 10
96.19408517782578
 20
54.44241180514113
 11
96.19535094461322
 21
54.44872377748844
 72
     1
 10
96.19535094461322
 20
54.44872377748844
 11
96.19660960528422
 21
54.4550342270965
 72
     1
 10
96.19660960528422
 20
54.4550342270965
 11
96.19786115983877
 21
54.46134315396534
 72
     1
 10
96.19786115983877
 20
54.46134315396534
 11
96.19910560827687
 21
54.46765055809493
 72
     1
 10
96.19910560827687
 20
54.46765055809493
 11
96.20034295059853
 21
54.47395643948529
 72
     1
 10
96.20034295059853
 20
54.47395643948529
 11
96.20157318680374
 21
54.48026079813641
 72
     1
 10
96.20157318680374
 20
54.48026079813641
 11
96.20279631689252
 21
54.48656363404828
 72
     1
 10
96.20279631689252
 20
54.48656363404828
 11
96.20401234086485
 21
54.49286494722092
 72
     1
 10
96.20401234086485
 20
54.49286494722092
 11
96.20522125872074
 21
54.49916473765433
 72
     1
 10
96.20522125872074
 20
54.49916473765433
 11
96.20642307046019
 21
54.5054630053485
 72
     1
 10
96.20642307046019
 20
54.5054630053485
 11
96.2076177760832
 21
54.51175975030343
 72
     1
 10
96.2076177760832
 20
54.51175975030343
 11
96.20880537558976
 21
54.51805497251912
 72
     1
 10
96.20880537558976
 20
54.51805497251912
 11
96.20998586897989
 21
54.52434867199557
 72
     1
 10
96.20998586897989
 20
54.52434867199557
 11
96.21115925625357
 21
54.53064084873279
 72
     1
 10
96.21115925625357
 20
54.53064084873279
 11
96.21232553741079
 21
54.53693150273077
 72
     1
 10
96.21232553741079
 20
54.53693150273077
 11
96.21348471245157
 21
54.54322063398951
 72
     1
 10
96.21348471245157
 20
54.54322063398951
 11
96.21463678137593
 21
54.54950824250901
 72
     1
 10
96.21463678137593
 20
54.54950824250901
 11
96.21578174418384
 21
54.55579432828927
 72
     1
 10
96.21578174418384
 20
54.55579432828927
 11
96.2169196008753
 21
54.5620788913303
 72
     1
 10
96.2169196008753
 20
54.5620788913303
 11
96.21805035145032
 21
54.5683619316321
 72
     1
 10
96.21805035145032
 20
54.5683619316321
 11
96.2191739959089
 21
54.57464344919465
 72
     1
 10
96.2191739959089
 20
54.57464344919465
 11
96.22029053425103
 21
54.58092344401796
 72
     1
 10
96.22029053425103
 20
54.58092344401796
 11
96.22139996647672
 21
54.58720191610203
 72
     1
 10
96.22139996647672
 20
54.58720191610203
 11
96.22250229258597
 21
54.59347886544688
 72
     1
 10
96.22250229258597
 20
54.59347886544688
 11
96.22359751257878
 21
54.59975429205248
 72
     1
 10
96.22359751257878
 20
54.59975429205248
 11
96.22468562645514
 21
54.60602819591884
 72
     1
 10
96.22468562645514
 20
54.60602819591884
 11
96.22576663421506
 21
54.61230057704596
 72
     1
 10
96.22576663421506
 20
54.61230057704596
 11
96.22684053585854
 21
54.61857143543385
 72
     1
 10
96.22684053585854
 20
54.61857143543385
 11
96.22790733138558
 21
54.6248407710825
 72
     1
 10
96.22790733138558
 20
54.6248407710825
 11
96.22896702079618
 21
54.63110858399192
 72
     1
 10
96.22896702079618
 20
54.63110858399192
 11
96.23001960409032
 21
54.63737487416209
 72
     1
 10
96.23001960409032
 20
54.63737487416209
 11
96.23106508126801
 21
54.64363964159303
 72
     1
 10
96.23106508126801
 20
54.64363964159303
 11
96.23210345232928
 21
54.64990288628473
 72
     1
 10
96.23210345232928
 20
54.64990288628473
 11
96.23313471727411
 21
54.65616460823719
 72
     1
 10
96.23313471727411
 20
54.65616460823719
 11
96.23415887610248
 21
54.66242480745041
 72
     1
 10
96.23415887610248
 20
54.66242480745041
 11
96.23517592881441
 21
54.6686834839244
 72
     1
 10
96.23517592881441
 20
54.6686834839244
 11
96.23618587540992
 21
54.67494063765915
 72
     1
 10
96.23618587540992
 20
54.67494063765915
 11
96.23718871588896
 21
54.68119626865466
 72
     1
 10
96.23718871588896
 20
54.68119626865466
 11
96.23818445025157
 21
54.68745037691093
 72
     1
 10
96.23818445025157
 20
54.68745037691093
 11
96.23917307849774
 21
54.69370296242797
 72
     1
 10
96.23917307849774
 20
54.69370296242797
 11
96.24015460062746
 21
54.69995402520577
 72
     1
 10
96.24015460062746
 20
54.69995402520577
 11
96.24112901664074
 21
54.70620356524433
 72
     1
 10
96.24112901664074
 20
54.70620356524433
 11
96.24209632653759
 21
54.71245158254365
 72
     1
 10
96.24209632653759
 20
54.71245158254365
 11
96.24305653031799
 21
54.71869807710374
 72
     1
 10
96.24305653031799
 20
54.71869807710374
 11
96.24400962798194
 21
54.72494304892459
 72
     1
 10
96.24400962798194
 20
54.72494304892459
 11
96.24495561952945
 21
54.7311864980062
 72
     1
 10
96.24495561952945
 20
54.7311864980062
 11
96.24589450496052
 21
54.73742842434856
 72
     1
 10
96.24589450496052
 20
54.73742842434856
 11
96.24682628427513
 21
54.7436688279517
 72
     1
 10
96.24682628427513
 20
54.7436688279517
 11
96.24775095747331
 21
54.7499077088156
 72
     1
 10
96.24775095747331
 20
54.7499077088156
 11
96.24866852455506
 21
54.75614506694026
 72
     1
 10
96.24866852455506
 20
54.75614506694026
 11
96.24957898552034
 21
54.76238090232567
 72
     1
 10
96.24957898552034
 20
54.76238090232567
 11
96.25048234036919
 21
54.76861521497186
 72
     1
 10
96.25048234036919
 20
54.76861521497186
 11
96.2513785891016
 21
54.77484800487881
 72
     1
 10
96.2513785891016
 20
54.77484800487881
 11
96.25226773171758
 21
54.78107927204651
 72
     1
 10
96.25226773171758
 20
54.78107927204651
 11
96.2531497682171
 21
54.78730901647499
 72
     1
 10
96.2531497682171
 20
54.78730901647499
 11
96.25402469860018
 21
54.79353723816422
 72
     1
 10
96.25402469860018
 20
54.79353723816422
 11
96.25489252286683
 21
54.79976393711421
 72
     1
 10
96.25489252286683
 20
54.79976393711421
 11
96.25575324101703
 21
54.80598911332497
 72
     1
 10
96.25575324101703
 20
54.80598911332497
 11
96.25660685305078
 21
54.81221276679649
 72
     1
 10
96.25660685305078
 20
54.81221276679649
 11
96.25745335896809
 21
54.81843489752877
 72
     1
 10
96.25745335896809
 20
54.81843489752877
 11
96.25829275876896
 21
54.82465550552182
 72
     1
 10
96.25829275876896
 20
54.82465550552182
 11
96.25912505245338
 21
54.83087459077562
 72
     1
 10
96.25912505245338
 20
54.83087459077562
 11
96.25995024002137
 21
54.83709215329019
 72
     1
 10
96.25995024002137
 20
54.83709215329019
 11
96.26076832147291
 21
54.84330819306552
 72
     1
 10
96.26076832147291
 20
54.84330819306552
 11
96.26157929680801
 21
54.84952271010161
 72
     1
 10
96.26157929680801
 20
54.84952271010161
 11
96.26238316602667
 21
54.85573570439846
 72
     1
 10
96.26238316602667
 20
54.85573570439846
 11
96.26317992912888
 21
54.86194717595608
 72
     1
 10
96.26317992912888
 20
54.86194717595608
 11
96.26396958611465
 21
54.86815712477446
 72
     1
 10
96.26396958611465
 20
54.86815712477446
 11
96.26475213698399
 21
54.8743655508536
 72
     1
 10
96.26475213698399
 20
54.8743655508536
 11
96.26552758173686
 21
54.88057245419351
 72
     1
 10
96.26552758173686
 20
54.88057245419351
 11
96.26629592037331
 21
54.88677783479417
 72
     1
 10
96.26629592037331
 20
54.88677783479417
 11
96.26705715289332
 21
54.8929816926556
 72
     1
 10
96.26705715289332
 20
54.8929816926556
 11
96.26781127929686
 21
54.89918402777779
 72
     1
 10
96.26781127929686
 20
54.89918402777779
 11
96.32984293000467
 21
55.41296791733603
 72
     1
 10
96.32984293000467
 20
55.41296791733603
 11
96.33003544851645
 21
55.41460797158915
 72
     1
 10
96.33003544851645
 20
55.41460797158915
 11
96.33021712990264
 21
55.41624926169283
 72
     1
 10
96.33021712990264
 20
55.41624926169283
 11
96.33038796623653
 21
55.4178917160385
 72
     1
 10
96.33038796623653
 20
55.4178917160385
 11
96.33054795006466
 21
55.41953526296673
 72
     1
 10
96.33054795006466
 20
55.41953526296673
 11
96.330697074407
 21
55.42117983077046
 72
     1
 10
96.330697074407
 20
55.42117983077046
 11
96.33083533275733
 21
55.42282534769809
 72
     1
 10
96.33083533275733
 20
55.42282534769809
 11
96.33096271908354
 21
55.42447174195659
 72
     1
 10
96.33096271908354
 20
55.42447174195659
 11
96.33107922782781
 21
55.42611894171469
 72
     1
 10
96.33107922782781
 20
55.42611894171469
 11
96.33118485390695
 21
55.42776687510592
 72
     1
 10
96.33118485390695
 20
55.42776687510592
 11
96.33127959271252
 21
55.42941547023187
 72
     1
 10
96.33127959271252
 20
55.42941547023187
 11
96.33136344011113
 21
55.43106465516519
 72
     1
 10
96.33136344011113
 20
55.43106465516519
 11
96.33143639244457
 21
55.43271435795285
 72
     1
 10
96.33143639244457
 20
55.43271435795285
 11
96.33149844652998
 21
55.43436450661919
 72
     1
 10
96.33149844652998
 20
55.43436450661919
 11
96.33154959965994
 21
55.43601502916913
 72
     1
 10
96.33154959965994
 20
55.43601502916913
 11
96.33158984960268
 21
55.43766585359125
 72
     1
 10
96.33158984960268
 20
55.43766585359125
 11
96.33161919460213
 21
55.43931690786096
 72
     1
 10
96.33161919460213
 20
55.43931690786096
 11
96.33163763337798
 21
55.44096811994368
 72
     1
 10
96.33163763337798
 20
55.44096811994368
 11
96.33164516512574
 21
55.44261941779789
 72
     1
 10
96.33164516512574
 20
55.44261941779789
 11
96.33164178951682
 21
55.44427072937837
 72
     1
 10
96.33164178951682
 20
55.44427072937837
 11
96.33162750669848
 21
55.44592198263928
 72
     1
 10
96.33162750669848
 20
55.44592198263928
 11
96.3316023172939
 21
55.44757310553732
 72
     1
 10
96.3316023172939
 20
55.44757310553732
 11
96.33156622240205
 21
55.4492240260349
 72
     1
 10
96.33156622240205
 20
55.4492240260349
 11
96.33151922359775
 21
55.45087467210325
 72
     1
 10
96.33151922359775
 20
55.45087467210325
 11
96.33146132293152
 21
55.45252497172557
 72
     1
 10
96.33146132293152
 20
55.45252497172557
 11
96.33139252292955
 21
55.45417485290016
 72
     1
 10
96.33139252292955
 20
55.45417485290016
 11
96.33131282659353
 21
55.4558242436436
 72
     1
 10
96.33131282659353
 20
55.4558242436436
 11
96.33122223740057
 21
55.45747307199388
 72
     1
 10
96.33122223740057
 20
55.45747307199388
 11
96.33112075930305
 21
55.45912126601349
 72
     1
 10
96.33112075930305
 20
55.45912126601349
 11
96.33100839672838
 21
55.46076875379262
 72
     1
 10
96.33100839672838
 20
55.46076875379262
 11
96.33088515457888
 21
55.46241546345225
 72
     1
 10
96.33088515457888
 20
55.46241546345225
 11
96.33075103823155
 21
55.46406132314735
 72
     1
 10
96.33075103823155
 20
55.46406132314735
 11
96.3306060535378
 21
55.46570626106993
 72
     1
 10
96.3306060535378
 20
55.46570626106993
 11
96.33045020682326
 21
55.46735020545223
 72
     1
 10
96.33045020682326
 20
55.46735020545223
 11
96.33028350488742
 21
55.46899308456986
 72
     1
 10
96.33028350488742
 20
55.46899308456986
 11
96.33010595500339
 21
55.47063482674488
 72
     1
 10
96.33010595500339
 20
55.47063482674488
 11
96.32991756491758
 21
55.47227536034897
 72
     1
 10
96.32991756491758
 20
55.47227536034897
 11
96.32971834284936
 21
55.47391461380651
 72
     1
 10
96.32971834284936
 20
55.47391461380651
 11
96.32950829749066
 21
55.47555251559778
 72
     1
 10
96.32950829749066
 20
55.47555251559778
 11
96.32928743800568
 21
55.477188994262
 72
     1
 10
96.32928743800568
 20
55.477188994262
 11
96.32905577403037
 21
55.47882397840048
 72
     1
 10
96.32905577403037
 20
55.47882397840048
 11
96.3288133156721
 21
55.48045739667976
 72
     1
 10
96.3288133156721
 20
55.48045739667976
 11
96.32856007350922
 21
55.48208917783466
 72
     1
 10
96.32856007350922
 20
55.48208917783466
 11
96.32829605859054
 21
55.48371925067146
 72
     1
 10
96.32829605859054
 20
55.48371925067146
 11
96.32802128243489
 21
55.48534754407095
 72
     1
 10
96.32802128243489
 20
55.48534754407095
 11
96.3277357570306
 21
55.48697398699158
 72
     1
 10
96.3277357570306
 20
55.48697398699158
 11
96.32743949483499
 21
55.48859850847251
 72
     1
 10
96.32743949483499
 20
55.48859850847251
 11
96.32713250877383
 21
55.49022103763675
 72
     1
 10
96.32713250877383
 20
55.49022103763675
 11
96.32681481224076
 21
55.49184150369422
 72
     1
 10
96.32681481224076
 20
55.49184150369422
 11
96.32648641909668
 21
55.49345983594488
 72
     1
 10
96.32648641909668
 20
55.49345983594488
 11
96.32614734366923
 21
55.49507596378173
 72
     1
 10
96.32614734366923
 20
55.49507596378173
 11
96.3257976007521
 21
55.496689816694
 72
     1
 10
96.3257976007521
 20
55.496689816694
 11
96.32543720560435
 21
55.49830132427017
 72
     1
 10
96.32543720560435
 20
55.49830132427017
 11
96.32506617394985
 21
55.49991041620101
 72
     1
 10
96.32506617394985
 20
55.49991041620101
 11
96.32468452197651
 21
55.50151702228273
 72
     1
 10
96.32468452197651
 20
55.50151702228273
 11
96.32429226633559
 21
55.50312107241994
 72
     1
 10
96.32429226633559
 20
55.50312107241994
 11
96.32388942414099
 21
55.50472249662884
 72
     1
 10
96.32388942414099
 20
55.50472249662884
 11
96.32347601296851
 21
55.50632122504011
 72
     1
 10
96.32347601296851
 20
55.50632122504011
 11
96.32305205085505
 21
55.50791718790212
 72
     1
 10
96.32305205085505
 20
55.50791718790212
 11
96.32261755629787
 21
55.50951031558386
 72
     1
 10
96.32261755629787
 20
55.50951031558386
 11
96.3221725482537
 21
55.51110053857803
 72
     1
 10
96.3221725482537
 20
55.51110053857803
 11
96.32171704613802
 21
55.51268778750405
 72
     1
 10
96.32171704613802
 20
55.51268778750405
 11
96.32125106982413
 21
55.51427199311112
 72
     1
 10
96.32125106982413
 20
55.51427199311112
 11
96.32077463964234
 21
55.51585308628118
 72
     1
 10
96.32077463964234
 20
55.51585308628118
 11
96.32028777637903
 21
55.517430998032
 72
     1
 10
96.32028777637903
 20
55.517430998032
 11
96.31979050127579
 21
55.51900565952015
 72
     1
 10
96.31979050127579
 20
55.51900565952015
 11
96.31928283602846
 21
55.52057700204399
 72
     1
 10
96.31928283602846
 20
55.52057700204399
 11
96.31876480278622
 21
55.52214495704668
 72
     1
 10
96.31876480278622
 20
55.52214495704668
 11
96.31823642415054
 21
55.52370945611921
 72
     1
 10
96.31823642415054
 20
55.52370945611921
 11
96.31769772317433
 21
55.5252704310033
 72
     1
 10
96.31769772317433
 20
55.5252704310033
 11
96.31714872336082
 21
55.52682781359449
 72
     1
 10
96.31714872336082
 20
55.52682781359449
 11
96.31658944866257
 21
55.52838153594499
 72
     1
 10
96.31658944866257
 20
55.52838153594499
 11
96.31601992348043
 21
55.52993153026674
 72
     1
 10
96.31601992348043
 20
55.52993153026674
 11
96.31544017266246
 21
55.53147772893432
 72
     1
 10
96.31544017266246
 20
55.53147772893432
 11
96.31485022150292
 21
55.53302006448792
 72
     1
 10
96.31485022150292
 20
55.53302006448792
 11
96.31425009574103
 21
55.53455846963627
 72
     1
 10
96.31425009574103
 20
55.53455846963627
 11
96.31363982155996
 21
55.53609287725958
 72
     1
 10
96.31363982155996
 20
55.53609287725958
 11
96.31301942558565
 21
55.53762322041248
 72
     1
 10
96.31301942558565
 20
55.53762322041248
 11
96.31238893488563
 21
55.5391494323269
 72
     1
 10
96.31238893488563
 20
55.5391494323269
 11
96.31174837696788
 21
55.54067144641507
 72
     1
 10
96.31174837696788
 20
55.54067144641507
 11
96.3110977797796
 21
55.5421891962723
 72
     1
 10
96.3110977797796
 20
55.5421891962723
 11
96.31043717170597
 21
55.54370261568001
 72
     1
 10
96.31043717170597
 20
55.54370261568001
 11
96.309766581569
 21
55.54521163860851
 72
     1
 10
96.309766581569
 20
55.54521163860851
 11
96.30908603862615
 21
55.54671619921995
 72
     1
 10
96.30908603862615
 20
55.54671619921995
 11
96.30839557256915
 21
55.54821623187116
 72
     1
 10
96.30839557256915
 20
55.54821623187116
 11
96.30769521352268
 21
55.54971167111652
 72
     1
 10
96.30769521352268
 20
55.54971167111652
 11
96.30698499204298
 21
55.55120245171082
 72
     1
 10
96.30698499204298
 20
55.55120245171082
 11
96.30626493911669
 21
55.55268850861211
 72
     1
 10
96.30626493911669
 20
55.55268850861211
 11
96.3055350861593
 21
55.55416977698454
 72
     1
 10
96.3055350861593
 20
55.55416977698454
 11
96.30479546501388
 21
55.55564619220114
 72
     1
 10
96.30479546501388
 20
55.55564619220114
 11
96.30404610794974
 21
55.55711768984673
 72
     1
 10
96.30404610794974
 20
55.55711768984673
 11
96.30328704766092
 21
55.55858420572066
 72
     1
 10
96.30328704766092
 20
55.55858420572066
 11
96.3025183172648
 21
55.56004567583962
 72
     1
 10
96.3025183172648
 20
55.56004567583962
 11
96.30173995030067
 21
55.56150203644047
 72
     1
 10
96.30173995030067
 20
55.56150203644047
 11
96.30095198072827
 21
55.56295322398298
 72
     1
 10
96.30095198072827
 20
55.56295322398298
 11
96.30015444292629
 21
55.56439917515261
 72
     1
 10
96.30015444292629
 20
55.56439917515261
 11
96.29934737169086
 21
55.5658398268633
 72
     1
 10
96.29934737169086
 20
55.5658398268633
 11
96.29853080223407
 21
55.56727511626018
 72
     1
 10
96.29853080223407
 20
55.56727511626018
 11
96.29770477018242
 21
55.56870498072236
 72
     1
 10
96.29770477018242
 20
55.56870498072236
 11
96.29686931157522
 21
55.57012935786561
 72
     1
 10
96.29686931157522
 20
55.57012935786561
 11
96.2960244628631
 21
55.57154818554513
 72
     1
 10
96.2960244628631
 20
55.57154818554513
 11
96.29517026090635
 21
55.57296140185824
 72
     1
 10
96.29517026090635
 20
55.57296140185824
 11
96.29430674297333
 21
55.57436894514706
 72
     1
 10
96.29430674297333
 20
55.57436894514706
 11
96.29343394673887
 21
55.57577075400124
 72
     1
 10
96.29343394673887
 20
55.57577075400124
 11
96.2925519102826
 21
55.57716676726062
 72
     1
 10
96.2925519102826
 20
55.57716676726062
 11
96.29166067208729
 21
55.57855692401789
 72
     1
 10
96.29166067208729
 20
55.57855692401789
 11
96.29076027103719
 21
55.57994116362125
 72
     1
 10
96.29076027103719
 20
55.57994116362125
 11
96.28985074641629
 21
55.58131942567709
 72
     1
 10
96.28985074641629
 20
55.58131942567709
 11
96.2889321379067
 21
55.58269165005256
 72
     1
 10
96.2889321379067
 20
55.58269165005256
 11
96.28800448558678
 21
55.58405777687827
 72
     1
 10
96.28800448558678
 20
55.58405777687827
 11
96.28706782992953
 21
55.58541774655082
 72
     1
 10
96.28706782992953
 20
55.58541774655082
 11
96.28612221180069
 21
55.58677149973548
 72
     1
 10
96.28612221180069
 20
55.58677149973548
 11
96.2851676724571
 21
55.58811897736874
 72
     1
 10
96.2851676724571
 20
55.58811897736874
 11
96.28420425354481
 21
55.58946012066085
 72
     1
 10
96.28420425354481
 20
55.58946012066085
 11
96.28323199709723
 21
55.59079487109846
 72
     1
 10
96.28323199709723
 20
55.59079487109846
 11
96.28225094553342
 21
55.59212317044713
 72
     1
 10
96.28225094553342
 20
55.59212317044713
 11
96.2812611416561
 21
55.59344496075389
 72
     1
 10
96.2812611416561
 20
55.59344496075389
 11
96.28026262864992
 21
55.59476018434971
 72
     1
 10
96.28026262864992
 20
55.59476018434971
 11
96.27925545007942
 21
55.59606878385211
 72
     1
 10
96.27925545007942
 20
55.59606878385211
 11
96.27823964988728
 21
55.5973707021676
 72
     1
 10
96.27823964988728
 20
55.5973707021676
 11
96.27721527239233
 21
55.59866588249419
 72
     1
 10
96.27721527239233
 20
55.59866588249419
 11
96.27618236228759
 21
55.59995426832385
 72
     1
 10
96.27618236228759
 20
55.59995426832385
 11
96.27514096463835
 21
55.601235803445
 72
     1
 10
96.27514096463835
 20
55.601235803445
 11
96.27409112488027
 21
55.60251043194496
 72
     1
 10
96.27409112488027
 20
55.60251043194496
 11
96.27303288881728
 21
55.60377809821237
 72
     1
 10
96.27303288881728
 20
55.60377809821237
 11
96.27196630261965
 21
55.60503874693963
 72
     1
 10
96.27196630261965
 20
55.60503874693963
 11
96.27089141282194
 21
55.60629232312533
 72
     1
 10
96.27089141282194
 20
55.60629232312533
 11
96.26980826632104
 21
55.60753877207661
 72
     1
 10
96.26980826632104
 20
55.60753877207661
 11
96.26871691037402
 21
55.60877803941156
 72
     1
 10
96.26871691037402
 20
55.60877803941156
 11
96.2676173925962
 21
55.61001007106163
 72
     1
 10
96.2676173925962
 20
55.61001007106163
 11
96.26650976095888
 21
55.61123481327393
 72
     1
 10
96.26650976095888
 20
55.61123481327393
 11
96.2653940637875
 21
55.61245221261363
 72
     1
 10
96.2653940637875
 20
55.61245221261363
 11
96.26427034975927
 21
55.61366221596625
 72
     1
 10
96.26427034975927
 20
55.61366221596625
 11
96.26313866790127
 21
55.61486477053999
 72
     1
 10
96.26313866790127
 20
55.61486477053999
 11
96.26199906758815
 21
55.61605982386804
 72
     1
 10
96.26199906758815
 20
55.61605982386804
 11
96.26085159854007
 21
55.61724732381088
 72
     1
 10
96.26085159854007
 20
55.61724732381088
 11
96.25969631082047
 21
55.61842721855852
 72
     1
 10
96.25969631082047
 20
55.61842721855852
 11
96.25853325483394
 21
55.61959945663278
 72
     1
 10
96.25853325483394
 20
55.61959945663278
 11
96.25736248132398
 21
55.62076398688954
 72
     1
 10
96.25736248132398
 20
55.62076398688954
 11
96.25618404137082
 21
55.621920758521
 72
     1
 10
96.25618404137082
 20
55.621920758521
 11
96.25499798638914
 21
55.62306972105781
 72
     1
 10
96.25499798638914
 20
55.62306972105781
 11
96.2538043681259
 21
55.62421082437137
 72
     1
 10
96.2538043681259
 20
55.62421082437137
 11
96.25260323865801
 21
55.62534401867595
 72
     1
 10
96.25260323865801
 20
55.62534401867595
 11
96.25139465039011
 21
55.62646925453089
 72
     1
 10
96.25139465039011
 20
55.62646925453089
 11
96.25017865605224
 21
55.62758648284276
 72
     1
 10
96.25017865605224
 20
55.62758648284276
 11
96.2489553086976
 21
55.62869565486749
 72
     1
 10
96.2489553086976
 20
55.62869565486749
 11
96.24772466170016
 21
55.6297967222125
 72
     1
 10
96.24772466170016
 20
55.6297967222125
 11
96.2464867687524
 21
55.63088963683882
 72
     1
 10
96.2464867687524
 20
55.63088963683882
 11
96.2452416838629
 21
55.63197435106316
 72
     1
 10
96.2452416838629
 20
55.63197435106316
 11
96.24398946135406
 21
55.63305081756005
 72
     1
 10
96.24398946135406
 20
55.63305081756005
 11
96.24273015585968
 21
55.63411898936381
 72
     1
 10
96.24273015585968
 20
55.63411898936381
 11
96.24146382232256
 21
55.6351788198707
 72
     1
 10
96.24146382232256
 20
55.6351788198707
 11
96.24019051599215
 21
55.63623026284086
 72
     1
 10
96.24019051599215
 20
55.63623026284086
 11
96.23891029242213
 21
55.63727327240042
 72
     1
 10
96.23891029242213
 20
55.63727327240042
 11
96.23762320746798
 21
55.63830780304343
 72
     1
 10
96.23762320746798
 20
55.63830780304343
 11
96.2363293172845
 21
55.63933380963388
 72
     1
 10
96.2363293172845
 20
55.63933380963388
 11
96.23502867832342
 21
55.64035124740765
 72
     1
 10
96.23502867832342
 20
55.64035124740765
 11
96.23372134733093
 21
55.64136007197447
 72
     1
 10
96.23372134733093
 20
55.64136007197447
 11
96.23240738134518
 21
55.64236023931988
 72
     1
 10
96.23240738134518
 20
55.64236023931988
 11
96.23108683769378
 21
55.64335170580712
 72
     1
 10
96.23108683769378
 20
55.64335170580712
 11
96.22975977399135
 21
55.64433442817903
 72
     1
 10
96.22975977399135
 20
55.64433442817903
 11
96.22842624813697
 21
55.64530836355997
 72
     1
 10
96.22842624813697
 20
55.64530836355997
 11
96.22708631831163
 21
55.64627346945766
 72
     1
 10
96.22708631831163
 20
55.64627346945766
 11
96.22574004297579
 21
55.64722970376505
 72
     1
 10
96.22574004297579
 20
55.64722970376505
 11
96.22438748086668
 21
55.64817702476215
 72
     1
 10
96.22438748086668
 20
55.64817702476215
 11
96.22302869099586
 21
55.64911539111786
 72
     1
 10
96.22302869099586
 20
55.64911539111786
 11
96.22166373264662
 21
55.65004476189176
 72
     1
 10
96.22166373264662
 20
55.65004476189176
 11
96.22029266537135
 21
55.65096509653591
 72
     1
 10
96.22029266537135
 20
55.65096509653591
 11
96.21891554898895
 21
55.65187635489659
 72
     1
 10
96.21891554898895
 20
55.65187635489659
 11
96.2175324435823
 21
55.6527784972161
 72
     1
 10
96.2175324435823
 20
55.6527784972161
 11
96.21614340949553
 21
55.65367148413445
 72
     1
 10
96.21614340949553
 20
55.65367148413445
 11
96.21474850733145
 21
55.65455527669111
 72
     1
 10
96.21474850733145
 20
55.65455527669111
 11
96.2133477979489
 21
55.65542983632668
 72
     1
 10
96.2133477979489
 20
55.65542983632668
 11
96.21194134246007
 21
55.6562951248846
 72
     1
 10
96.21194134246007
 20
55.6562951248846
 11
96.21052920222783
 21
55.65715110461279
 72
     1
 10
96.21052920222783
 20
55.65715110461279
 11
96.20911143886313
 21
55.65799773816532
 72
     1
 10
96.20911143886313
 20
55.65799773816532
 11
96.20768811422222
 21
55.65883498860403
 72
     1
 10
96.20768811422222
 20
55.65883498860403
 11
96.20625929040396
 21
55.65966281940012
 72
     1
 10
96.20625929040396
 20
55.65966281940012
 11
96.2048250297472
 21
55.66048119443578
 72
     1
 10
96.2048250297472
 20
55.66048119443578
 11
96.20338539482793
 21
55.66129007800576
 72
     1
 10
96.20338539482793
 20
55.66129007800576
 11
96.20194044845667
 21
55.66208943481891
 72
     1
 10
96.20194044845667
 20
55.66208943481891
 11
96.20049025367562
 21
55.6628792299997
 72
     1
 10
96.20049025367562
 20
55.6628792299997
 11
96.19903487375603
 21
55.6636594290898
 72
     1
 10
96.19903487375603
 20
55.6636594290898
 11
96.19757437219533
 21
55.66442999804956
 72
     1
 10
96.19757437219533
 20
55.66442999804956
 11
96.19610881271441
 21
55.66519090325946
 72
     1
 10
96.19610881271441
 20
55.66519090325946
 11
96.19463825925484
 21
55.6659421115216
 72
     1
 10
96.19463825925484
 20
55.6659421115216
 11
96.19316277597609
 21
55.6666835900612
 72
     1
 10
96.19316277597609
 20
55.6666835900612
 11
96.1916824272527
 21
55.66741530652792
 72
     1
 10
96.1916824272527
 20
55.66741530652792
 11
96.19019727767146
 21
55.66813722899739
 72
     1
 10
96.19019727767146
 20
55.66813722899739
 11
96.18870739202868
 21
55.6688493259725
 72
     1
 10
96.18870739202868
 20
55.6688493259725
 11
96.18721283532724
 21
55.66955156638486
 72
     1
 10
96.18721283532724
 20
55.66955156638486
 11
96.18571367277386
 21
55.67024391959609
 72
     1
 10
96.18571367277386
 20
55.67024391959609
 11
96.18420996977619
 21
55.6709263553992
 72
     1
 10
96.18420996977619
 20
55.6709263553992
 11
96.18270179193999
 21
55.67159884401987
 72
     1
 10
96.18270179193999
 20
55.67159884401987
 11
96.18118920506623
 21
55.67226135611779
 72
     1
 10
96.18118920506623
 20
55.67226135611779
 11
96.17967227514828
 21
55.67291386278792
 72
     1
 10
96.17967227514828
 20
55.67291386278792
 11
96.17815106836896
 21
55.67355633556174
 72
     1
 10
96.17815106836896
 20
55.67355633556174
 11
96.1766256510977
 21
55.67418874640851
 72
     1
 10
96.1766256510977
 20
55.67418874640851
 11
96.17509608988765
 21
55.67481106773648
 72
     1
 10
96.17509608988765
 20
55.67481106773648
 11
96.17356245147273
 21
55.67542327239413
 72
     1
 10
96.17356245147273
 20
55.67542327239413
 11
96.17202480276475
 21
55.67602533367126
 72
     1
 10
96.17202480276475
 20
55.67602533367126
 11
96.17048321085052
 21
55.6766172253003
 72
     1
 10
96.17048321085052
 20
55.6766172253003
 11
96.16893774298885
 21
55.67719892145731
 72
     1
 10
96.16893774298885
 20
55.67719892145731
 11
96.16738846660766
 21
55.67777039676321
 72
     1
 10
96.16738846660766
 20
55.67777039676321
 11
96.16583544930106
 21
55.67833162628484
 72
     1
 10
96.16583544930106
 20
55.67833162628484
 11
96.16427875882636
 21
55.67888258553607
 72
     1
 10
96.16427875882636
 20
55.67888258553607
 11
96.1627184631011
 21
55.67942325047882
 72
     1
 10
96.1627184631011
 20
55.67942325047882
 11
96.16115463020017
 21
55.67995359752418
 72
     1
 10
96.16115463020017
 20
55.67995359752418
 11
96.15958732835276
 21
55.68047360353341
 72
     1
 10
96.15958732835276
 20
55.68047360353341
 11
96.15801662593938
 21
55.68098324581891
 72
     1
 10
96.15801662593938
 20
55.68098324581891
 11
96.15644259148894
 21
55.68148250214526
 72
     1
 10
96.15644259148894
 20
55.68148250214526
 11
96.15486529367573
 21
55.68197135073019
 72
     1
 10
96.15486529367573
 20
55.68197135073019
 11
96.15328480131639
 21
55.68244977024549
 72
     1
 10
96.15328480131639
 20
55.68244977024549
 11
96.15170118336695
 21
55.68291773981797
 72
     1
 10
96.15170118336695
 20
55.68291773981797
 11
96.15011450891981
 21
55.68337523903039
 72
     1
 10
96.15011450891981
 20
55.68337523903039
 11
96.14852484720073
 21
55.68382224792228
 72
     1
 10
96.14852484720073
 20
55.68382224792228
 11
96.14693226756579
 21
55.68425874699089
 72
     1
 10
96.14693226756579
 20
55.68425874699089
 11
96.14533683949837
 21
55.68468471719201
 72
     1
 10
96.14533683949837
 20
55.68468471719201
 11
96.14373863260614
 21
55.68510013994079
 72
     1
 10
96.14373863260614
 20
55.68510013994079
 11
96.14213771661802
 21
55.68550499711255
 72
     1
 10
96.14213771661802
 20
55.68550499711255
 11
96.1405341613811
 21
55.6858992710436
 72
     1
 10
96.1405341613811
 20
55.6858992710436
 11
96.13892803685764
 21
55.68628294453197
 72
     1
 10
96.13892803685764
 20
55.68628294453197
 11
96.13731941312197
 21
55.68665600083819
 72
     1
 10
96.13731941312197
 20
55.68665600083819
 11
96.1357083603575
 21
55.68701842368603
 72
     1
 10
96.1357083603575
 20
55.68701842368603
 11
96.13409494885357
 21
55.68737019726316
 72
     1
 10
96.13409494885357
 20
55.68737019726316
 11
96.13247924900249
 21
55.6877113062219
 72
     1
 10
96.13247924900249
 20
55.6877113062219
 11
96.13086133129633
 21
55.68804173567985
 72
     1
 10
96.13086133129633
 20
55.68804173567985
 11
96.129241266324
 21
55.68836147122053
 72
     1
 10
96.129241266324
 20
55.68836147122053
 11
96.12761912476805
 21
55.68867049889408
 72
     1
 10
96.12761912476805
 20
55.68867049889408
 11
96.12599497740165
 21
55.68896880521778
 72
     1
 10
96.12599497740165
 20
55.68896880521778
 11
96.12436889508547
 21
55.68925637717668
 72
     1
 10
96.12436889508547
 20
55.68925637717668
 11
96.12274094876459
 21
55.68953320222416
 72
     1
 10
96.12274094876459
 20
55.68953320222416
 11
96.12111120946545
 21
55.68979926828252
 72
     1
 10
96.12111120946545
 20
55.68979926828252
 11
96.1194797482927
 21
55.69005456374342
 72
     1
 10
96.1194797482927
 20
55.69005456374342
 11
96.11784663642611
 21
55.69029907746846
 72
     1
 10
96.11784663642611
 20
55.69029907746846
 11
96.11621194511746
 21
55.69053279878964
 72
     1
 10
96.11621194511746
 20
55.69053279878964
 11
96.11457574568745
 21
55.69075571750983
 72
     1
 10
96.11457574568745
 20
55.69075571750983
 11
96.1129381095226
 21
55.6909678239032
 72
     1
 10
96.1129381095226
 20
55.6909678239032
 11
96.11129910807207
 21
55.69116910871566
 72
     1
 10
96.11129910807207
 20
55.69116910871566
 11
96.10965881284463
 21
55.69135956316526
 72
     1
 10
96.10965881284463
 20
55.69135956316526
 11
96.10801729540546
 21
55.6915391789426
 72
     1
 10
96.10801729540546
 20
55.6915391789426
 11
96.10637462737309
 21
55.6917079482111
 72
     1
 10
96.10637462737309
 20
55.6917079482111
 11
96.10473088041624
 21
55.69186586360748
 72
     1
 10
96.10473088041624
 20
55.69186586360748
 11
96.10308612625072
 21
55.69201291824196
 72
     1
 10
96.10308612625072
 20
55.69201291824196
 11
96.10144043663624
 21
55.69214910569864
 72
     1
 10
96.10144043663624
 20
55.69214910569864
 11
96.09979388337337
 21
55.69227442003572
 72
     1
 10
96.09979388337337
 20
55.69227442003572
 11
96.09814653830033
 21
55.69238885578581
 72
     1
 10
96.09814653830033
 20
55.69238885578581
 11
96.09649847328991
 21
55.69249240795613
 72
     1
 10
96.09649847328991
 20
55.69249240795613
 11
96.09484976024629
 21
55.69258507202877
 72
     1
 10
96.09484976024629
 20
55.69258507202877
 11
96.09320047110194
 21
55.69266684396084
 72
     1
 10
96.09320047110194
 20
55.69266684396084
 11
96.09155067781444
 21
55.69273772018467
 72
     1
 10
96.09155067781444
 20
55.69273772018467
 11
96.08990045236341
 21
55.69279769760797
 72
     1
 10
96.08990045236341
 20
55.69279769760797
 11
96.08824986674728
 21
55.69284677361397
 72
     1
 10
96.08824986674728
 20
55.69284677361397
 11
96.0865989929802
 21
55.69288494606149
 72
     1
 10
96.0865989929802
 20
55.69288494606149
 11
96.08494790308893
 21
55.6929122132851
 72
     1
 10
96.08494790308893
 20
55.6929122132851
 11
96.08329666910961
 21
55.69292857409514
 72
     1
 10
96.08329666910961
 20
55.69292857409514
 11
96.0816453630847
 21
55.6929340277778
 72
     1
 10
96.0816453630847
 20
55.6929340277778
 11
94.26364461263017
 21
55.6929340277778
 97
        0
 75
     0
 76
     1
 98
        1
 10
0.0
 20
0.0
  0
LWPOLYLINE
  5
102
102
{ACAD_REACTORS
330
103
102
}
330
42
100
AcDbEntity
  8
0
  6
Continuous
 62
     7
370
     5
100
AcDbPolyline
 90
       10
 70
   129
 43
0.0
 10
81.26364461263017
 20
51.29293402777777
 10
81.52364461263016
 20
52.39293402777779
 10
82.77364461263016
 20
52.39293402777779
 10
82.56543647631305
 20
51.52095475336449
 42
-0.3471147579641485
 10
81.25234991456458
 20
50.48448893229168
 10
81.0719418956819
 20
50.48448893229168
 10
81.12961494730408
 20
50.74293402777776
 10
81.23233101051214
 20
50.77476556742281
 42
0.1758454467432061
 10
81.83041719846335
 20
51.22815558766627
 10
81.87230647901524
 20
51.29293402777777
  0
HATCH
  5
103
330
42
100
AcDbEntity
  8
0
  6
Continuous
 62
     7
370
     0
100
AcDbHatch
 10
0.0
 20
0.0
 30
0.0
210
0.0
220
0.0
230
1.0
  2
SOLID
 70
     1
 71
     1
 91
        1
 92
        1
 93
       10
 72
     1
 10
81.26364461263017
 20
51.29293402777777
 11
81.52364461263016
 21
52.39293402777779
 72
     1
 10
81.52364461263016
 20
52.39293402777779
 11
82.77364461263016
 21
52.39293402777779
 72
     1
 10
82.77364461263016
 20
52.39293402777779
 11
82.56543647631305
 21
51.52095475336449
 72
     2
 10
81.25234991456458
 20
51.83448893229168
 40
1.35
 50
13.42943001931158
 51
89.99999999999972
 73
     0
 72
     1
 10
81.25234991456458
 20
50.48448893229168
 11
81.0719418956819
 21
50.48448893229168
 72
     1
 10
81.0719418956819
 20
50.48448893229168
 11
81.12961494730408
 21
50.74293402777776
 72
     1
 10
81.12961494730408
 20
50.74293402777776
 11
81.23233101051214
 21
50.77476556742281
 72
     2
 10
80.90671979306518
 20
51.8254688248046
 40
1.099999999999996
 50
287.2181231281097
 51
327.1110826105732
 73
     1
 72
     1
 10
81.83041719846335
 20
51.22815558766627
 11
81.87230647901524
 21
51.29293402777777
 72
     1
 10
81.87230647901524
 20
51.29293402777777
 11
81.26364461263017
 21
51.29293402777777
 97
        1
330
102
 75
     0
 76
     1
 98
        1
 10
0.0
 20
0.0
  0
ENDBLK
  5
44
330
42
100
AcDbEntity
  8
0
100
AcDbBlockEnd
  0
BLOCK
  5
46
330
45
100
AcDbEntity
  8
0
100
AcDbBlockBegin
  2
グループ-3-1
 70
     0
 10
0.0
 20
0.0
 30
0.0
  3
グループ-3-1
  1

  0
ELLIPSE
  5
104
330
45
100
AcDbEntity
  8
0
  6
Continuous
 62
     7
370
    25
100
AcDbEllipse
 10
-53.99999999999997
 20
77.5
 30
0.0
 11
7.000000000000028
 21
0.0
 31
0.0
210
0.0
220
0.0
230
1.0
 40
1.0
 41
0.0
 42
6.283185307179586
  0
POLYLINE
  5
105
330
45
100
AcDbEntity
  8
0
  6
Continuous
 62
     7
370
    25
100
AcDb2dPolyline
 66
     1
 10
0.0
 20
0.0
 30
0.0
 70
   129
  0
VERTEX
  5
106
330
105
100
AcDbEntity
  8
0
  6
Continuous
 62
     7
370
    25
100
AcDbVertex
100
AcDb2dVertex
 10
-50.0
 20
75.191
 30
0.0
  0
VERTEX
  5
107
330
105
100
AcDbEntity
  8
0
  6
Continuous
 62
     7
370
    25
100
AcDbVertex
100
AcDb2dVertex
 10
-54.0
 20
72.882
 30
0.0
  0
VERTEX
  5
108
330
105
100
AcDbEntity
  8
0
  6
Continuous
 62
     7
370
    25
100
AcDbVertex
100
AcDb2dVertex
 10
-58.0
 20
75.191
 30
0.0
  0
VERTEX
  5
109
330
105
100
AcDbEntity
  8
0
  6
Continuous
 62
     7
370
    25
100
AcDbVertex
100
AcDb2dVertex
 10
-58.0
 20
79.81
 30
0.0
  0
VERTEX
  5
10A
330
105
100
AcDbEntity
  8
0
  6
Continuous
 62
     7
370
    25
100
AcDbVertex
100
AcDb2dVertex
 10
-54.0
 20
82.119
 30
0.0
  0
VERTEX
  5
10B
330
105
100
AcDbEntity
  8
0
  6
Continuous
 62
     7
370
    25
100
AcDbVertex
100
AcDb2dVertex
 10
-50.0
 20
79.81
 30
0.0
  0
SEQEND
  5
10C
330
105
100
AcDbEntity
  8
0
  6
Continuous
 62
     7
370
    25
  0
ELLIPSE
  5
10D
330
45
100
AcDbEntity
  8
0
  6
Continuous
 62
     7
370
    13
100
AcDbEllipse
 10
-54.0
 20
77.5
 30
0.0
 11
3.5
 21
0.0
 31
0.0
210
0.0
220
0.0
230
1.0
 40
1.0
 41
0.0
 42
6.283185307179586
  0
ENDBLK
  5
47
330
45
100
AcDbEntity
  8
0
100
AcDbBlockEnd
  0
BLOCK
  5
49
330
48
100
AcDbEntity
  8
0
100
AcDbBlockBegin
  2
グループ-4-1
 70
     0
 10
0.0
 20
0.0
 30
0.0
  3
グループ-4-1
  1

  0
SPLINE
  5
10E
330
48
100
AcDbEntity
  8
0
  6
Continuous
 62
     7
370
    25
100
AcDbSpline
210
0.0
220
0.0
230
1.0
 70
    11
 71
     2
 72
    13
 73
    10
 74
     0
 42
0.000000001
 43
0.0000000000001
 12
1.0
 22
0.0
 32
0.0
 13
1.0
 23
0.0
 33
0.0
 40
0.0
 40
0.0
 40
0.0
 40
1.0
 40
2.0
 40
3.0
 40
4.0
 40
5.0
 40
6.0
 40
7.0
 40
8.0
 40
8.0
 40
8.0
 10
-61.77799999999999
 20
85.277995
 30
0.0
 10
-58.55599999999998
 20
88.5
 30
0.0
 10
-49.44299999999998
 20
88.5
 30
0.0
 10
-42.99999999999994
 20
82.05599000000001
 30
0.0
 10
-42.99999999999994
 20
72.94299000000001
 30
0.0
 10
-49.44299999999998
 20
66.5
 30
0.0
 10
-58.55599999999998
 20
66.5
 30
0.0
 10
-65.0
 20
72.94299000000001
 30
0.0
 10
-65.0
 20
82.05599000000001
 30
0.0
 10
-61.77799999999999
 20
85.277995
 30
0.0
  0
LINE
  5
10F
330
48
100
AcDbEntity
  8
0
  6
Continuous
 62
     7
370
    25
100
AcDbLine
 10
-42.99999999999994
 20
77.0
 30
0.0
 11
-47.01787997811547
 21
77.0
 31
0.0
  0
LINE
  5
110
330
48
100
AcDbEntity
  8
0
  6
Continuous
 62
     7
370
    25
100
AcDbLine
 10
-47.01787997811547
 20
78.0
 30
0.0
 11
-42.99999999999994
 21
78.0
 31
0.0
  0
LINE
  5
111
330
48
100
AcDbEntity
  8
0
  6
Continuous
 62
     7
370
    25
100
AcDbLine
 10
-65.0
 20
77.0
 30
0.0
 11
-60.98212002188447
 21
77.0
 31
0.0
  0
LINE
  5
112
330
48
100
AcDbEntity
  8
0
  6
Continuous
 62
     7
370
    25
100
AcDbLine
 10
-60.98212002188447
 20
78.0
 30
0.0
 11
-65.0
 21
78.0
 31
0.0
  0
INSERT
  5
113
330
48
100
AcDbEntity
  8
0
 62
     7
100
AcDbBlockReference
  2
グループ-3-1
 10
0.0
 20
0.0
 30
0.0
  0
ENDBLK
  5
4A
330
48
100
AcDbEntity
  8
0
100
AcDbBlockEnd
  0
BLOCK
  5
4C
330
4B
100
AcDbEntity
  8
0
100
AcDbBlockBegin
  2
グループ-5-1
 70
     0
 10
0.0
 20
0.0
 30
0.0
  3
グループ-5-1
  1

  0
POLYLINE
  5
114
330
4B
100
AcDbEntity
  8
0
  6
Continuous
 62
     7
370
    25
100
AcDb2dPolyline
 66
     1
 10
0.0
 20
0.0
 30
0.0
 70
   129
  0
VERTEX
  5
115
330
114
100
AcDbEntity
  8
0
  6
Continuous
 62
     7
370
    25
100
AcDbVertex
100
AcDb2dVertex
 10
-43.00000000000004
 20
-27.25
 30
0.0
  0
VERTEX
  5
116
330
114
100
AcDbEntity
  8
0
  6
Continuous
 62
     7
370
    25
100
AcDbVertex
100
AcDb2dVertex
 10
-65.00000000000004
 20
-27.25
 30
0.0
  0
VERTEX
  5
117
330
114
100
AcDbEntity
  8
0
  6
Continuous
 62
     7
370
    25
100
AcDbVertex
100
AcDb2dVertex
 10
-65.00000000000004
 20
-29.75
 30
0.0
  0
VERTEX
  5
118
330
114
100
AcDbEntity
  8
0
  6
Continuous
 62
     7
370
    25
100
AcDbVertex
100
AcDb2dVertex
 10
-43.00000000000004
 20
-29.75
 30
0.0
  0
SEQEND
  5
119
330
114
100
AcDbEntity
  8
0
  6
Continuous
 62
     7
370
    25
  0
POLYLINE
  5
11A
330
4B
100
AcDbEntity
  8
0
  6
Continuous
 62
     7
370
    25
100
AcDb2dPolyline
 66
     1
 10
0.0
 20
0.0
 30
0.0
 70
   129
  0
VERTEX
  5
11B
330
11A
100
AcDbEntity
  8
0
  6
Continuous
 62
     7
370
    25
100
AcDbVertex
100
AcDb2dVertex
 10
-49.50000000000004
 20
-25.09998999999999
 30
0.0
  0
VERTEX
  5
11C
330
11A
100
AcDbEntity
  8
0
  6
Continuous
 62
     7
370
    25
100
AcDbVertex
100
AcDb2dVertex
 10
-58.50000000000004
 20
-25.09998999999999
 30
0.0
  0
VERTEX
  5
11D
330
11A
100
AcDbEntity
  8
0
  6
Continuous
 62
     7
370
    25
100
AcDbVertex
100
AcDb2dVertex
 10
-60.75000000000004
 20
-26.59998999999999
 30
0.0
  0
VERTEX
  5
11E
330
11A
100
AcDbEntity
  8
0
  6
Continuous
 62
     7
370
    25
100
AcDbVertex
100
AcDb2dVertex
 10
-47.25000000000004
 20
-26.59998999999999
 30
0.0
  0
SEQEND
  5
11F
330
11A
100
AcDbEntity
  8
0
  6
Continuous
 62
     7
370
    25
  0
LINE
  5
120
330
4B
100
AcDbEntity
  8
0
  6
Continuous
 62
     7
370
    25
100
AcDbLine
 10
-58.50000000000004
 20
-27.25
 30
0.0
 11
-49.50000000000004
 21
-27.25
 31
0.0
  0
POLYLINE
  5
121
330
4B
100
AcDbEntity
  8
0
  6
Continuous
 62
     7
370
    25
100
AcDb2dPolyline
 66
     1
 10
0.0
 20
0.0
 30
0.0
 70
   129
  0
VERTEX
  5
122
330
121
100
AcDbEntity
  8
0
  6
Continuous
 62
     7
370
    25
100
AcDbVertex
100
AcDb2dVertex
 10
-47.25000000000004
 20
-26.59998999999999
 30
0.0
  0
VERTEX
  5
123
330
121
100
AcDbEntity
  8
0
  6
Continuous
 62
     7
370
    25
100
AcDbVertex
100
AcDb2dVertex
 10
-60.75000000000004
 20
-26.59998999999999
 30
0.0
  0
VERTEX
  5
124
330
121
100
AcDbEntity
  8
0
  6
Continuous
 62
     7
370
    25
100
AcDbVertex
100
AcDb2dVertex
 10
-60.75000000000004
 20
-27.25
 30
0.0
  0
VERTEX
  5
125
330
121
100
AcDbEntity
  8
0
  6
Continuous
 62
     7
370
    25
100
AcDbVertex
100
AcDb2dVertex
 10
-47.25000000000004
 20
-27.25
 30
0.0
  0
SEQEND
  5
126
330
121
100
AcDbEntity
  8
0
  6
Continuous
 62
     7
370
    25
  0
POLYLINE
  5
127
330
4B
100
AcDbEntity
  8
0
  6
Continuous
 62
     7
370
    25
100
AcDb2dPolyline
 66
     1
 10
0.0
 20
0.0
 30
0.0
 70
   129
  0
VERTEX
  5
128
330
127
100
AcDbEntity
  8
0
  6
Continuous
 62
     7
370
    25
100
AcDbVertex
100
AcDb2dVertex
 10
-58.00000000000004
 20
-23.0
 30
0.0
  0
VERTEX
  5
129
330
127
100
AcDbEntity
  8
0
  6
Continuous
 62
     7
370
    25
100
AcDbVertex
100
AcDb2dVertex
 10
-57.75000000000004
 20
-22.75
 30
0.0
  0
VERTEX
  5
12A
330
127
100
AcDbEntity
  8
0
  6
Continuous
 62
     7
370
    25
100
AcDbVertex
100
AcDb2dVertex
 10
-50.25000000000004
 20
-22.75
 30
0.0
  0
VERTEX
  5
12B
330
127
100
AcDbEntity
  8
0
  6
Continuous
 62
     7
370
    25
100
AcDbVertex
100
AcDb2dVertex
 10
-50.00000000000004
 20
-23.0
 30
0.0
  0
VERTEX
  5
12C
330
127
100
AcDbEntity
  8
0
  6
Continuous
 62
     7
370
    25
100
AcDbVertex
100
AcDb2dVertex
 10
-50.00000000000004
 20
-25.09998999999999
 30
0.0
  0
VERTEX
  5
12D
330
127
100
AcDbEntity
  8
0
  6
Continuous
 62
     7
370
    25
100
AcDbVertex
100
AcDb2dVertex
 10
-58.00000000000004
 20
-25.09998999999999
 30
0.0
  0
SEQEND
  5
12E
330
127
100
AcDbEntity
  8
0
  6
Continuous
 62
     7
370
    25
  0
LINE
  5
12F
330
4B
100
AcDbEntity
  8
0
  6
Continuous
 62
     7
370
    13
100
AcDbLine
 10
-54.00000000000004
 20
-23.25
 30
0.0
 11
-54.00000000000004
 21
-25.09998999999999
 31
0.0
  0
SPLINE
  5
130
330
4B
100
AcDbEntity
  8
0
  6
Continuous
 62
     7
370
    13
100
AcDbSpline
210
0.0
220
0.0
230
1.0
 70
     8
 71
     2
 72
     6
 73
     3
 74
     0
 42
0.000000001
 43
0.0000000000001
 12
1.0
 22
0.0
 32
0.0
 13
1.0
 23
0.0
 33
0.0
 40
0.0
 40
0.0
 40
0.0
 40
1.0
 40
1.0
 40
1.0
 10
-58.00000000000004
 20
-23.25071
 30
0.0
 10
-56.19958847736623
 20
-22.25071185185188
 30
0.0
 10
-54.00000000000004
 20
-23.25071
 30
0.0
  0
SPLINE
  5
131
330
4B
100
AcDbEntity
  8
0
  6
Continuous
 62
     7
370
    13
100
AcDbSpline
210
0.0
220
0.0
230
1.0
 70
     8
 71
     2
 72
     6
 73
     3
 74
     0
 42
0.000000001
 43
0.0000000000001
 12
1.0
 22
0.0
 32
0.0
 13
1.0
 23
0.0
 33
0.0
 40
0.0
 40
0.0
 40
0.0
 40
1.0
 40
1.0
 40
1.0
 10
-50.00000000000004
 20
-23.25071
 30
0.0
 10
-51.80041152263374
 20
-22.25071185185188
 30
0.0
 10
-54.00000000000004
 20
-23.25071
 30
0.0
  0
ENDBLK
  5
4D
330
4B
100
AcDbEntity
  8
0
100
AcDbBlockEnd
  0
BLOCK
  5
4F
330
4E
100
AcDbEntity
  8
0
100
AcDbBlockBegin
  2
グループ-6-1
 70
     0
 10
0.0
 20
0.0
 30
0.0
  3
グループ-6-1
  1

  0
POLYLINE
  5
132
330
4E
100
AcDbEntity
  8
0
  6
Continuous
 62
     7
370
    25
100
AcDb2dPolyline
 66
     1
 10
0.0
 20
0.0
 30
0.0
 70
   129
  0
VERTEX
  5
133
330
132
100
AcDbEntity
  8
0
  6
Continuous
 62
     7
370
    25
100
AcDbVertex
100
AcDb2dVertex
 10
57.00000000000006
 20
-22.80000000000001
 30
0.0
  0
VERTEX
  5
134
330
132
100
AcDbEntity
  8
0
  6
Continuous
 62
     7
370
    25
100
AcDbVertex
100
AcDb2dVertex
 10
65.00000000000006
 20
-22.80000000000001
 30
0.0
  0
VERTEX
  5
135
330
132
100
AcDbEntity
  8
0
  6
Continuous
 62
     7
370
    25
100
AcDbVertex
100
AcDb2dVertex
 10
65.50000000000006
 20
-23.30000000000001
 30
0.0
  0
VERTEX
  5
136
330
132
100
AcDbEntity
  8
0
  6
Continuous
 62
     7
370
    25
100
AcDbVertex
100
AcDb2dVertex
 10
65.50000000000006
 20
-25.14999
 30
0.0
  0
VERTEX
  5
137
330
132
100
AcDbEntity
  8
0
  6
Continuous
 62
     7
370
    25
100
AcDbVertex
100
AcDb2dVertex
 10
67.75000000000006
 20
-26.64999
 30
0.0
  0
VERTEX
  5
138
330
132
100
AcDbEntity
  8
0
  6
Continuous
 62
     7
370
    25
100
AcDbVertex
100
AcDb2dVertex
 10
67.75000000000006
 20
-27.30000000000001
 30
0.0
  0
VERTEX
  5
139
330
132
100
AcDbEntity
  8
0
  6
Continuous
 62
     7
370
    25
100
AcDbVertex
100
AcDb2dVertex
 10
54.25000000000006
 20
-27.30000000000001
 30
0.0
  0
VERTEX
  5
13A
330
132
100
AcDbEntity
  8
0
  6
Continuous
 62
     7
370
    25
100
AcDbVertex
100
AcDb2dVertex
 10
54.25000000000006
 20
-26.64999
 30
0.0
  0
VERTEX
  5
13B
330
132
100
AcDbEntity
  8
0
  6
Continuous
 62
     7
370
    25
100
AcDbVertex
100
AcDb2dVertex
 10
56.50000000000006
 20
-25.14999
 30
0.0
  0
VERTEX
  5
13C
330
132
100
AcDbEntity
  8
0
  6
Continuous
 62
     7
370
    25
100
AcDbVertex
100
AcDb2dVertex
 10
56.50000000000006
 20
-23.30000000000001
 30
0.0
  0
SEQEND
  5
13D
330
132
100
AcDbEntity
  8
0
  6
Continuous
 62
     7
370
    25
  0
LINE
  5
13E
330
4E
100
AcDbEntity
  8
0
  6
Continuous
 62
     7
370
    13
100
AcDbLine
 10
63.50000000000006
 20
-25.14999
 30
0.0
 11
63.50000000000006
 21
-23.34999000000002
 31
0.0
  0
LINE
  5
13F
330
4E
100
AcDbEntity
  8
0
  6
Continuous
 62
     7
370
    13
100
AcDbLine
 10
58.50000000000006
 20
-25.14999
 30
0.0
 11
58.50000000000006
 21
-23.34999000000002
 31
0.0
  0
SPLINE
  5
140
330
4E
100
AcDbEntity
  8
0
  6
Continuous
 62
     7
370
    13
100
AcDbSpline
210
0.0
220
0.0
230
1.0
 70
     8
 71
     2
 72
     6
 73
     3
 74
     0
 42
0.000000001
 43
0.0000000000001
 12
1.0
 22
0.0
 32
0.0
 13
1.0
 23
0.0
 33
0.0
 40
0.0
 40
0.0
 40
0.0
 40
1.0
 40
1.0
 40
1.0
 10
58.50000000000006
 20
-23.34999000000002
 30
0.0
 10
61.00000000000006
 20
-22.25227333333333
 30
0.0
 10
63.50000000000006
 20
-23.34999000000002
 30
0.0
  0
SPLINE
  5
141
330
4E
100
AcDbEntity
  8
0
  6
Continuous
 62
     7
370
    13
100
AcDbSpline
210
0.0
220
0.0
230
1.0
 70
     8
 71
     2
 72
     6
 73
     3
 74
     0
 42
0.000000001
 43
0.0000000000001
 12
1.0
 22
0.0
 32
0.0
 13
1.0
 23
0.0
 33
0.0
 40
0.0
 40
0.0
 40
0.0
 40
1.0
 40
1.0
 40
1.0
 10
57.00000000000006
 20
-22.80000000000001
 30
0.0
 10
58.04938271604945
 20
-23.02510786008231
 30
0.0
 10
58.50000000000006
 20
-23.34999000000002
 30
0.0
  0
SPLINE
  5
142
330
4E
100
AcDbEntity
  8
0
  6
Continuous
 62
     7
370
    13
100
AcDbSpline
210
0.0
220
0.0
230
1.0
 70
     8
 71
     2
 72
     6
 73
     3
 74
     0
 42
0.000000001
 43
0.0000000000001
 12
1.0
 22
0.0
 32
0.0
 13
1.0
 23
0.0
 33
0.0
 40
0.0
 40
0.0
 40
0.0
 40
1.0
 40
1.0
 40
1.0
 10
65.00000000000006
 20
-22.80000000000001
 30
0.0
 10
63.95061728395066
 20
-23.02510786008231
 30
0.0
 10
63.50000000000006
 20
-23.34999000000002
 30
0.0
  0
LINE
  5
143
330
4E
100
AcDbEntity
  8
0
  6
Continuous
 62
     7
370
    25
100
AcDbLine
 10
56.50000000000006
 20
-25.14999
 30
0.0
 11
65.50000000000006
 21
-25.14999
 31
0.0
  0
LINE
  5
144
330
4E
100
AcDbEntity
  8
0
  6
Continuous
 62
     7
370
    13
100
AcDbLine
 10
54.25000000000006
 20
-26.64999
 30
0.0
 11
67.75000000000006
 21
-26.64999
 31
0.0
  0
ENDBLK
  5
50
330
4E
100
AcDbEntity
  8
0
100
AcDbBlockEnd
  0
BLOCK
  5
52
330
51
100
AcDbEntity
  8
0
100
AcDbBlockBegin
  2
グループ-7-1
 70
     0
 10
0.0
 20
0.0
 30
0.0
  3
グループ-7-1
  1

  0
SPLINE
  5
145
330
51
100
AcDbEntity
  8
0
  6
Continuous
 62
     7
370
    25
100
AcDbSpline
210
0.0
220
0.0
230
1.0
 70
     8
 71
     2
 72
    17
 73
    14
 74
     0
 42
0.000000001
 43
0.0000000000001
 12
1.0
 22
0.0
 32
0.0
 13
1.0
 23
0.0
 33
0.0
 40
0.0
 40
0.0
 40
0.0
 40
1.0
 40
1.0
 40
2.0
 40
3.0
 40
4.0
 40
5.0
 40
6.0
 40
7.0
 40
8.0
 40
9.0
 40
9.0
 40
10.0
 40
10.0
 40
10.0
 10
66.09161248263197
 20
-1.773536672438151
 30
0.0
 10
67.19399890232417
 20
-1.265319549521193
 30
0.0
 10
67.92820323027556
 20
-0.5500000000000113
 30
0.0
 10
69.00000000000006
 20
0.4942286340599346
 30
0.0
 10
69.00000000000006
 20
2.905771365940043
 30
0.0
 10
66.85640646055107
 20
4.994228634059938
 30
0.0
 10
63.14359353944906
 20
6.199999999999989
 30
0.0
 10
58.85640646055106
 20
6.199999999999989
 30
0.0
 10
55.14359353944904
 20
4.994228634059937
 30
0.0
 10
53.00000000000006
 20
2.905771365940042
 30
0.0
 10
53.00000000000006
 20
0.4942286340599346
 30
0.0
 10
54.07179676972456
 20
-0.5500000000000113
 30
0.0
 10
54.80600109767592
 20
-1.265319549521173
 30
0.0
 10
55.90838751736813
 20
-1.773536672438144
 30
0.0
  0
LINE
  5
146
330
51
100
AcDbEntity
  8
0
  6
Continuous
 62
     7
370
    25
100
AcDbLine
 10
55.50000000000006
 20
-12.80000000000001
 30
0.0
 11
56.00000000000006
 21
0.6999999999999886
 31
0.0
  0
LINE
  5
147
330
51
100
AcDbEntity
  8
0
  6
Continuous
 62
     7
370
    25
100
AcDbLine
 10
53.79411764705894
 20
-27.30000000000001
 30
0.0
 11
55.50000000000006
 21
-12.80000000000001
 31
0.0
  0
LINE
  5
148
330
51
100
AcDbEntity
  8
0
  6
Continuous
 62
     7
370
    25
100
AcDbLine
 10
66.50000000000006
 20
-12.80000000000001
 30
0.0
 11
68.20588235294117
 21
-27.30000000000001
 31
0.0
  0
LINE
  5
149
330
51
100
AcDbEntity
  8
0
  6
Continuous
 62
     7
370
    25
100
AcDbLine
 10
66.00000000000006
 20
0.6999999999999886
 30
0.0
 11
66.50000000000006
 21
-12.80000000000001
 31
0.0
  0
SPLINE
  5
14A
330
51
100
AcDbEntity
  8
0
  6
Continuous
 62
     7
370
    25
100
AcDbSpline
210
0.0
220
0.0
230
1.0
 70
     8
 71
     2
 72
     6
 73
     3
 74
     0
 42
0.000000001
 43
0.0000000000001
 12
1.0
 22
0.0
 32
0.0
 13
1.0
 23
0.0
 33
0.0
 40
0.0
 40
0.0
 40
0.0
 40
1.0
 40
1.0
 40
1.0
 10
56.00000000000006
 20
0.6999999999999886
 30
0.0
 10
61.00000000000006
 20
4.691769547325092
 30
0.0
 10
66.00000000000006
 20
0.6999999999999886
 30
0.0
  0
LWPOLYLINE
  5
14B
330
51
100
AcDbEntity
  8
0
  6
Continuous
 62
     7
370
    25
100
AcDbPolyline
 90
        8
 70
   129
 43
0.0
 10
74.00000000000006
 20
-31.79999000000001
 42
0.4142135623730951
 10
72.00001000000006
 20
-29.80000000000001
 10
49.99999000000005
 20
-29.80000000000001
 42
0.4142135623730955
 10
48.00000000000006
 20
-31.79999000000001
 10
48.00000000000006
 20
-36.80001000000001
 42
0.4142135623730951
 10
49.99999000000005
 20
-38.80000000000001
 10
72.00001000000006
 20
-38.80000000000001
 42
0.4142135623730951
 10
74.00000000000006
 20
-36.80001000000001
  0
POLYLINE
  5
14C
330
51
100
AcDbEntity
  8
0
  6
Continuous
 62
     7
370
    25
100
AcDb2dPolyline
 66
     1
 10
0.0
 20
0.0
 30
0.0
 70
   129
  0
VERTEX
  5
14D
330
14C
100
AcDbEntity
  8
0
  6
Continuous
 62
     7
370
    25
100
AcDbVertex
100
AcDb2dVertex
 10
72.00000000000006
 20
-27.30000000000001
 30
0.0
  0
VERTEX
  5
14E
330
14C
100
AcDbEntity
  8
0
  6
Continuous
 62
     7
370
    25
100
AcDbVertex
100
AcDb2dVertex
 10
50.00000000000006
 20
-27.30000000000001
 30
0.0
  0
VERTEX
  5
14F
330
14C
100
AcDbEntity
  8
0
  6
Continuous
 62
     7
370
    25
100
AcDbVertex
100
AcDb2dVertex
 10
50.00000000000006
 20
-29.80000000000001
 30
0.0
  0
VERTEX
  5
150
330
14C
100
AcDbEntity
  8
0
  6
Continuous
 62
     7
370
    25
100
AcDbVertex
100
AcDb2dVertex
 10
72.00000000000006
 20
-29.80000000000001
 30
0.0
  0
SEQEND
  5
151
330
14C
100
AcDbEntity
  8
0
  6
Continuous
 62
     7
370
    25
  0
INSERT
  5
152
330
51
100
AcDbEntity
  8
0
 62
     7
100
AcDbBlockReference
  2
グループ-6-1
 10
0.0
 20
0.0
 30
0.0
  0
POLYLINE
  5
153
330
51
100
AcDbEntity
  8
0
  6
Continuous
 62
     7
370
    13
100
AcDb2dPolyline
 66
     1
 10
0.0
 20
0.0
 30
0.0
 70
   128
  0
VERTEX
  5
154
330
153
100
AcDbEntity
  8
0
  6
Continuous
 62
     7
370
    13
100
AcDbVertex
100
AcDb2dVertex
 10
56.00000000000006
 20
-12.80000000000001
 30
0.0
  0
VERTEX
  5
155
330
153
100
AcDbEntity
  8
0
  6
Continuous
 62
     7
370
    13
100
AcDbVertex
100
AcDb2dVertex
 10
61.00000000000006
 20
-12.30000000000001
 30
0.0
  0
VERTEX
  5
156
330
153
100
AcDbEntity
  8
0
  6
Continuous
 62
     7
370
    13
100
AcDbVertex
100
AcDb2dVertex
 10
66.00000000000006
 20
-12.80000000000001
 30
0.0
  0
SEQEND
  5
157
330
153
100
AcDbEntity
  8
0
  6
Continuous
 62
     7
370
    13
  0
ENDBLK
  5
53
330
51
100
AcDbEntity
  8
0
100
AcDbBlockEnd
  0
BLOCK
  5
55
330
54
100
AcDbEntity
  8
0
100
AcDbBlockBegin
  2
グループ-8-1
 70
     0
 10
0.0
 20
0.0
 30
0.0
  3
グループ-8-1
  1

  0
LINE
  5
158
330
54
100
AcDbEntity
  8
0
  6
Continuous
 62
     7
370
     9
100
AcDbLine
 10
-55.03382999999997
 20
-63.5
 30
0.0
 11
-52.96615999999995
 21
-63.5
 31
0.0
  0
LINE
  5
159
330
54
100
AcDbEntity
  8
0
  6
Continuous
 62
     7
370
     9
100
AcDbLine
 10
-54.0
 20
-64.53383
 30
0.0
 11
-54.0
 21
-62.46616
 31
0.0
  0
LINE
  5
15A
330
54
100
AcDbEntity
  8
0
  6
Continuous
 62
     7
370
     9
100
AcDbLine
 10
-59.0
 20
-63.5
 30
0.0
 11
-55.86089999999996
 21
-63.5
 31
0.0
  0
LINE
  5
15B
330
54
100
AcDbEntity
  8
0
  6
Continuous
 62
     7
370
     9
100
AcDbLine
 10
-52.13908999999995
 20
-63.5
 30
0.0
 11
-49.0
 21
-63.5
 31
0.0
  0
LINE
  5
15C
330
54
100
AcDbEntity
  8
0
  6
Continuous
 62
     7
370
     9
100
AcDbLine
 10
-54.0
 20
-58.5
 30
0.0
 11
-54.0
 21
-61.63909000000001
 31
0.0
  0
LINE
  5
15D
330
54
100
AcDbEntity
  8
0
  6
Continuous
 62
     7
370
     9
100
AcDbLine
 10
-54.0
 20
-65.36089999999999
 30
0.0
 11
-54.0
 21
-68.5
 31
0.0
  0
ENDBLK
  5
56
330
54
100
AcDbEntity
  8
0
100
AcDbBlockEnd
  0
BLOCK
  5
58
330
57
100
AcDbEntity
  8
0
100
AcDbBlockBegin
  2
グループ-9-1
 70
     0
 10
0.0
 20
0.0
 30
0.0
  3
グループ-9-1
  1

  0
LINE
  5
15E
330
57
100
AcDbEntity
  8
0
  6
Continuous
 62
     7
370
     9
100
AcDbLine
 10
-55.03382999999997
 20
77.5
 30
0.0
 11
-52.96615999999995
 21
77.5
 31
0.0
  0
LINE
  5
15F
330
57
100
AcDbEntity
  8
0
  6
Continuous
 62
     7
370
     9
100
AcDbLine
 10
-54.0
 20
76.46616
 30
0.0
 11
-54.0
 21
78.53383
 31
0.0
  0
LINE
  5
160
330
57
100
AcDbEntity
  8
0
  6
Continuous
 62
     7
370
     9
100
AcDbLine
 10
-59.0
 20
77.5
 30
0.0
 11
-55.86089999999996
 21
77.5
 31
0.0
  0
LINE
  5
161
330
57
100
AcDbEntity
  8
0
  6
Continuous
 62
     7
370
     9
100
AcDbLine
 10
-52.13908999999995
 20
77.5
 30
0.0
 11
-49.0
 21
77.5
 31
0.0
  0
LINE
  5
162
330
57
100
AcDbEntity
  8
0
  6
Continuous
 62
     7
370
     9
100
AcDbLine
 10
-54.0
 20
82.5
 30
0.0
 11
-54.0
 21
79.36089999999999
 31
0.0
  0
LINE
  5
163
330
57
100
AcDbEntity
  8
0
  6
Continuous
 62
     7
370
     9
100
AcDbLine
 10
-54.0
 20
75.63909
 30
0.0
 11
-54.0
 21
72.5
 31
0.0
  0
ENDBLK
  5
59
330
57
100
AcDbEntity
  8
0
100
AcDbBlockEnd
  0
BLOCK
  5
5B
330
5A
100
AcDbEntity
  8
0
100
AcDbBlockBegin
  2
グループ-10-1
 70
     0
 10
0.0
 20
0.0
 30
0.0
  3
グループ-10-1
  1

  0
LINE
  5
164
330
5A
100
AcDbEntity
  8
0
  6
Continuous
 62
     7
370
     9
100
AcDbLine
 10
59.96616000000003
 20
-63.5
 30
0.0
 11
62.03383000000002
 21
-63.5
 31
0.0
  0
LINE
  5
165
330
5A
100
AcDbEntity
  8
0
  6
Continuous
 62
     7
370
     9
100
AcDbLine
 10
61.00000000000003
 20
-64.53383
 30
0.0
 11
61.00000000000003
 21
-62.46616
 31
0.0
  0
LINE
  5
166
330
5A
100
AcDbEntity
  8
0
  6
Continuous
 62
     7
370
     9
100
AcDbLine
 10
56.00000000000003
 20
-63.5
 30
0.0
 11
59.13909000000004
 21
-63.5
 31
0.0
  0
LINE
  5
167
330
5A
100
AcDbEntity
  8
0
  6
Continuous
 62
     7
370
     9
100
AcDbLine
 10
62.86090000000002
 20
-63.5
 30
0.0
 11
66.00000000000003
 21
-63.5
 31
0.0
  0
LINE
  5
168
330
5A
100
AcDbEntity
  8
0
  6
Continuous
 62
     7
370
     9
100
AcDbLine
 10
61.00000000000003
 20
-58.5
 30
0.0
 11
61.00000000000003
 21
-61.63909000000001
 31
0.0
  0
LINE
  5
169
330
5A
100
AcDbEntity
  8
0
  6
Continuous
 62
     7
370
     9
100
AcDbLine
 10
61.00000000000003
 20
-65.36089999999999
 30
0.0
 11
61.00000000000003
 21
-68.5
 31
0.0
  0
ENDBLK
  5
5C
330
5A
100
AcDbEntity
  8
0
100
AcDbBlockEnd
  0
BLOCK
  5
5E
330
5D
100
AcDbEntity
  8
0
100
AcDbBlockBegin
  2
*D11
 70
     1
 10
0.0
 20
0.0
 30
0.0
  3
*D11
  1

  0
LINE
  5
16A
330
5D
100
AcDbEntity
  8
Dimension
  6
Continuous
 62
     0
370
    -2
100
AcDbLine
 10
191.5
 20
79.00051000000002
 30
0.0
 11
191.5
 21
37.00050999999999
 31
0.0
  0
LINE
  5
16B
330
5D
100
AcDbEntity
  8
Dimension
  6
Continuous
 62
     0
370
    -2
100
AcDbLine
 10
108.50001
 20
78.99950999999999
 30
0.0
 11
108.50001
 21
37.00050999999999
 31
0.0
  0
LINE
  5
16C
330
5D
100
AcDbEntity
  8
Dimension
  6
Continuous
 62
     0
370
    -2
100
AcDbLine
 10
189.5001220703125
 20
39.00050999999999
 30
0.0
 11
110.4998879296875
 21
39.00050999999999
 31
0.0
  0
INSERT
  5
16D
102
{ACAD_REACTORS
330
172
102
}
330
5D
100
AcDbEntity
  8
Dimension
 62
     0
370
    -2
100
AcDbBlockReference
  2
VW_FILLEDARROW
 10
191.5
 20
39.00050999999999
 30
0.0
 41
1.9998779296875
 42
1.9998779296875
 43
1.9998779296875
  0
INSERT
  5
172
330
5D
100
AcDbEntity
  8
Dimension
 62
     0
370
    -2
100
AcDbBlockReference
  2
VW_FILLEDARROW
 10
108.50001
 20
39.00050999999999
 30
0.0
 41
1.9998779296875
 42
1.9998779296875
 43
1.9998779296875
 50
180.0
  0
MTEXT
  5
173
102
{ACAD_REACTORS
330
178
102
}
330
5D
100
AcDbEntity
  8
Dimension
 62
     0
370
     9
100
AcDbMText
 10
150.000005
 20
40.70454645833333
 30
0.0
 40
3.208072916666666
 41
0.0
 71
     5
 72
     1
  1
\A1;83
  7
ＶＷゴシック Std W5
 73
     1
 44
1.0
  0
POINT
  5
178
330
5D
100
AcDbEntity
  8
Defpoints
 62
     0
100
AcDbPoint
 10
191.5
 20
79.00051000000002
 30
0.0
  0
POINT
  5
179
330
5D
100
AcDbEntity
  8
Defpoints
 62
     0
100
AcDbPoint
 10
108.50001
 20
78.99950999999999
 30
0.0
  0
POINT
  5
17A
330
5D
100
AcDbEntity
  8
Defpoints
 62
     0
100
AcDbPoint
 10
108.50001
 20
39.00050999999999
 30
0.0
  0
ENDBLK
  5
5F
330
5D
100
AcDbEntity
  8
0
100
AcDbBlockEnd
  0
BLOCK
  5
61
330
60
100
AcDbEntity
  8
0
100
AcDbBlockBegin
  2
*D12
 70
     1
 10
0.0
 20
0.0
 30
0.0
  3
*D12
  1

  0
LINE
  5
17D
330
60
100
AcDbEntity
  8
Dimension
  6
Continuous
 62
     0
370
    -2
100
AcDbLine
 10
281.0
 20
100.0
 30
0.0
 11
305.0
 21
100.0
 31
0.0
  0
LINE
  5
17E
330
60
100
AcDbEntity
  8
Dimension
  6
Continuous
 62
     0
370
    -2
100
AcDbLine
 10
265.0
 20
148.7
 30
0.0
 11
305.0
 21
148.7
 31
0.0
  0
LINE
  5
17F
330
60
100
AcDbEntity
  8
Dimension
  6
Continuous
 62
     0
370
    -2
100
AcDbLine
 10
303.0
 20
101.9998779296875
 30
0.0
 11
303.0
 21
146.7001220703125
 31
0.0
  0
INSERT
  5
180
102
{ACAD_REACTORS
330
185
102
}
330
60
100
AcDbEntity
  8
Dimension
 62
     0
370
    -2
100
AcDbBlockReference
  2
VW_FILLEDARROW
 10
303.0
 20
100.0
 30
0.0
 41
1.9998779296875
 42
1.9998779296875
 43
1.9998779296875
 50
270.0
  0
INSERT
  5
185
330
60
100
AcDbEntity
  8
Dimension
 62
     0
370
    -2
100
AcDbBlockReference
  2
VW_FILLEDARROW
 10
303.0
 20
148.7
 30
0.0
 41
1.9998779296875
 42
1.9998779296875
 43
1.9998779296875
 50
90.0
  0
MTEXT
  5
186
102
{ACAD_REACTORS
330
18B
102
}
330
60
100
AcDbEntity
  8
Dimension
 62
     0
370
     9
100
AcDbMText
 10
300.455753968254
 20
124.35
 30
0.0
 40
3.208072916666666
 41
0.0
 71
     5
 72
     1
  1
\A1;(49)
  7
ＶＷゴシック Std W5
 11
0.0
 21
1.0
 31
0.0
 73
     1
 44
1.0
  0
POINT
  5
18B
330
60
100
AcDbEntity
  8
Defpoints
 62
     0
100
AcDbPoint
 10
281.0
 20
100.0
 30
0.0
  0
POINT
  5
18C
330
60
100
AcDbEntity
  8
Defpoints
 62
     0
100
AcDbPoint
 10
265.0
 20
148.7
 30
0.0
  0
POINT
  5
18D
330
60
100
AcDbEntity
  8
Defpoints
 62
     0
100
AcDbPoint
 10
303.0
 20
148.7
 30
0.0
  0
ENDBLK
  5
62
330
60
100
AcDbEntity
  8
0
100
AcDbBlockEnd
  0
BLOCK
  5
64
330
63
100
AcDbEntity
  8
0
100
AcDbBlockBegin
  2
*D13
 70
     1
 10
0.0
 20
0.0
 30
0.0
  3
*D13
  1

  0
LINE
  5
191
330
63
100
AcDbEntity
  8
Dimension
  6
Continuous
 62
     0
370
    -2
100
AcDbLine
 10
264.8609
 20
60.0
 30
0.0
 11
305.0
 21
60.0
 31
0.0
  0
LINE
  5
192
330
63
100
AcDbEntity
  8
Dimension
  6
Continuous
 62
     0
370
    -2
100
AcDbLine
 10
265.0
 20
100.0
 30
0.0
 11
305.0
 21
100.0
 31
0.0
  0
LINE
  5
193
330
63
100
AcDbEntity
  8
Dimension
  6
Continuous
 62
     0
370
    -2
100
AcDbLine
 10
303.0
 20
61.9998779296875
 30
0.0
 11
303.0
 21
98.0001220703125
 31
0.0
  0
INSERT
  5
194
102
{ACAD_REACTORS
330
199
102
}
330
63
100
AcDbEntity
  8
Dimension
 62
     0
370
    -2
100
AcDbBlockReference
  2
VW_FILLEDARROW
 10
303.0
 20
60.0
 30
0.0
 41
1.9998779296875
 42
1.9998779296875
 43
1.9998779296875
 50
270.0
  0
INSERT
  5
199
330
63
100
AcDbEntity
  8
Dimension
 62
     0
370
    -2
100
AcDbBlockReference
  2
VW_FILLEDARROW
 10
303.0
 20
100.0
 30
0.0
 41
1.9998779296875
 42
1.9998779296875
 43
1.9998779296875
 50
90.0
  0
MTEXT
  5
19A
102
{ACAD_REACTORS
330
19F
102
}
330
63
100
AcDbEntity
  8
Dimension
 62
     0
370
     9
100
AcDbMText
 10
301.2959635416667
 20
80.0
 30
0.0
 40
3.208072916666666
 41
0.0
 71
     5
 72
     1
  1
\A1;40
  7
ＶＷゴシック Std W5
 11
0.0
 21
1.0
 31
0.0
 73
     1
 44
1.0
  0
POINT
  5
19F
330
63
100
AcDbEntity
  8
Defpoints
 62
     0
100
AcDbPoint
 10
264.8609
 20
60.0
 30
0.0
  0
POINT
  5
1A0
330
63
100
AcDbEntity
  8
Defpoints
 62
     0
100
AcDbPoint
 10
265.0
 20
100.0
 30
0.0
  0
POINT
  5
1A1
330
63
100
AcDbEntity
  8
Defpoints
 62
     0
100
AcDbPoint
 10
303.0
 20
100.0
 30
0.0
  0
ENDBLK
  5
65
330
63
100
AcDbEntity
  8
0
100
AcDbBlockEnd
  0
BLOCK
  5
67
330
66
100
AcDbEntity
  8
0
100
AcDbBlockBegin
  2
*D14
 70
     1
 10
0.0
 20
0.0
 30
0.0
  3
*D14
  1

  0
LINE
  5
1A4
330
66
100
AcDbEntity
  8
Dimension
  6
Continuous
 62
     0
370
    -2
100
AcDbLine
 10
283.8609
 20
79.0
 30
0.0
 11
295.0
 21
79.0
 31
0.0
  0
LINE
  5
1A5
330
66
100
AcDbEntity
  8
Dimension
  6
Continuous
 62
     0
370
    -2
100
AcDbLine
 10
264.8609
 20
60.0
 30
0.0
 11
295.0
 21
60.00000000000001
 31
0.0
  0
LINE
  5
1A6
330
66
100
AcDbEntity
  8
Dimension
  6
Continuous
 62
     0
370
    -2
100
AcDbLine
 10
293.0
 20
77.0001220703125
 30
0.0
 11
293.0
 21
61.99987792968751
 31
0.0
  0
INSERT
  5
1A7
102
{ACAD_REACTORS
330
1AC
102
}
330
66
100
AcDbEntity
  8
Dimension
 62
     0
370
    -2
100
AcDbBlockReference
  2
VW_FILLEDARROW
 10
293.0
 20
79.0
 30
0.0
 41
1.9998779296875
 42
1.9998779296875
 43
1.9998779296875
 50
90.0
  0
INSERT
  5
1AC
330
66
100
AcDbEntity
  8
Dimension
 62
     0
370
    -2
100
AcDbBlockReference
  2
VW_FILLEDARROW
 10
293.0
 20
60.00000000000001
 30
0.0
 41
1.9998779296875
 42
1.9998779296875
 43
1.9998779296875
 50
270.0
  0
MTEXT
  5
1AD
102
{ACAD_REACTORS
330
1B2
102
}
330
66
100
AcDbEntity
  8
Dimension
 62
     0
370
     9
100
AcDbMText
 10
291.2959635416667
 20
69.5
 30
0.0
 40
3.208072916666666
 41
0.0
 71
     5
 72
     1
  1
\A1;19
  7
ＶＷゴシック Std W5
 11
0.0
 21
1.0
 31
0.0
 73
     1
 44
1.0
  0
POINT
  5
1B2
330
66
100
AcDbEntity
  8
Defpoints
 62
     0
100
AcDbPoint
 10
283.8609
 20
79.0
 30
0.0
  0
POINT
  5
1B3
330
66
100
AcDbEntity
  8
Defpoints
 62
     0
100
AcDbPoint
 10
264.8609
 20
60.0
 30
0.0
  0
POINT
  5
1B4
330
66
100
AcDbEntity
  8
Defpoints
 62
     0
100
AcDbPoint
 10
293.0
 20
60.00000000000001
 30
0.0
  0
ENDBLK
  5
68
330
66
100
AcDbEntity
  8
0
100
AcDbBlockEnd
  0
BLOCK
  5
6A
330
69
100
AcDbEntity
  8
0
100
AcDbBlockBegin
  2
*D15
 70
     1
 10
0.0
 20
0.0
 30
0.0
  3
*D15
  1

  0
LINE
  5
1B7
330
69
100
AcDbEntity
  8
Dimension
  6
Continuous
 62
     0
370
    -2
100
AcDbLine
 10
279.99999
 20
79.00001
 30
0.0
 11
279.99999
 21
47.50001
 31
0.0
  0
LINE
  5
1B8
330
69
100
AcDbEntity
  8
Dimension
  6
Continuous
 62
     0
370
    -2
100
AcDbLine
 10
250.00001
 20
79.00001
 30
0.0
 11
250.00001
 21
47.50001
 31
0.0
  0
LINE
  5
1B9
330
69
100
AcDbEntity
  8
Dimension
  6
Continuous
 62
     0
370
    -2
100
AcDbLine
 10
278.0001120703125
 20
49.50001
 30
0.0
 11
251.9998879296875
 21
49.50001
 31
0.0
  0
INSERT
  5
1BA
102
{ACAD_REACTORS
330
1BF
102
}
330
69
100
AcDbEntity
  8
Dimension
 62
     0
370
    -2
100
AcDbBlockReference
  2
VW_FILLEDARROW
 10
279.99999
 20
49.50001
 30
0.0
 41
1.9998779296875
 42
1.9998779296875
 43
1.9998779296875
  0
INSERT
  5
1BF
330
69
100
AcDbEntity
  8
Dimension
 62
     0
370
    -2
100
AcDbBlockReference
  2
VW_FILLEDARROW
 10
250.00001
 20
49.50001
 30
0.0
 41
1.9998779296875
 42
1.9998779296875
 43
1.9998779296875
 50
180.0
  0
MTEXT
  5
1C0
102
{ACAD_REACTORS
330
1C5
102
}
330
69
100
AcDbEntity
  8
Dimension
 62
     0
370
     9
100
AcDbMText
 10
265.0
 20
51.20404645833334
 30
0.0
 40
3.208072916666666
 41
0.0
 71
     5
 72
     1
  1
\A1;30
  7
ＶＷゴシック Std W5
 73
     1
 44
1.0
  0
POINT
  5
1C5
330
69
100
AcDbEntity
  8
Defpoints
 62
     0
100
AcDbPoint
 10
279.99999
 20
79.00001
 30
0.0
  0
POINT
  5
1C6
330
69
100
AcDbEntity
  8
Defpoints
 62
     0
100
AcDbPoint
 10
250.00001
 20
79.00001
 30
0.0
  0
POINT
  5
1C7
330
69
100
AcDbEntity
  8
Defpoints
 62
     0
100
AcDbPoint
 10
250.00001
 20
49.50001
 30
0.0
  0
ENDBLK
  5
6B
330
69
100
AcDbEntity
  8
0
100
AcDbBlockEnd
  0
BLOCK
  5
6D
330
6C
100
AcDbEntity
  8
0
100
AcDbBlockBegin
  2
*D16
 70
     1
 10
0.0
 20
0.0
 30
0.0
  3
*D16
  1

  0
LINE
  5
1CA
330
6C
100
AcDbEntity
  8
Dimension
  6
Continuous
 62
     0
370
    -2
100
AcDbLine
 10
282.5
 20
79.0
 30
0.0
 11
282.5
 21
37.0005
 31
0.0
  0
LINE
  5
1CB
330
6C
100
AcDbEntity
  8
Dimension
  6
Continuous
 62
     0
370
    -2
100
AcDbLine
 10
247.5
 20
79.0
 30
0.0
 11
247.5
 21
37.0005
 31
0.0
  0
LINE
  5
1CC
330
6C
100
AcDbEntity
  8
Dimension
  6
Continuous
 62
     0
370
    -2
100
AcDbLine
 10
280.5001220703125
 20
39.0005
 30
0.0
 11
249.4998779296875
 21
39.0005
 31
0.0
  0
INSERT
  5
1CD
102
{ACAD_REACTORS
330
1D2
102
}
330
6C
100
AcDbEntity
  8
Dimension
 62
     0
370
    -2
100
AcDbBlockReference
  2
VW_FILLEDARROW
 10
282.5
 20
39.0005
 30
0.0
 41
1.9998779296875
 42
1.9998779296875
 43
1.9998779296875
  0
INSERT
  5
1D2
330
6C
100
AcDbEntity
  8
Dimension
 62
     0
370
    -2
100
AcDbBlockReference
  2
VW_FILLEDARROW
 10
247.5
 20
39.0005
 30
0.0
 41
1.9998779296875
 42
1.9998779296875
 43
1.9998779296875
 50
180.0
  0
MTEXT
  5
1D3
102
{ACAD_REACTORS
330
1D8
102
}
330
6C
100
AcDbEntity
  8
Dimension
 62
     0
370
     9
100
AcDbMText
 10
265.0
 20
40.70453645833334
 30
0.0
 40
3.208072916666666
 41
0.0
 71
     5
 72
     1
  1
\A1;35
  7
ＶＷゴシック Std W5
 73
     1
 44
1.0
  0
POINT
  5
1D8
330
6C
100
AcDbEntity
  8
Defpoints
 62
     0
100
AcDbPoint
 10
282.5
 20
79.0
 30
0.0
  0
POINT
  5
1D9
330
6C
100
AcDbEntity
  8
Defpoints
 62
     0
100
AcDbPoint
 10
247.5
 20
79.0
 30
0.0
  0
POINT
  5
1DA
330
6C
100
AcDbEntity
  8
Defpoints
 62
     0
100
AcDbPoint
 10
247.5
 20
39.0005
 30
0.0
  0
ENDBLK
  5
6E
330
6C
100
AcDbEntity
  8
0
100
AcDbBlockEnd
  0
BLOCK
  5
70
330
6F
100
AcDbEntity
  8
0
100
AcDbBlockBegin
  2
*D17
 70
     1
 10
0.0
 20
0.0
 30
0.0
  3
*D17
  1

  0
LINE
  5
1DD
330
6F
100
AcDbEntity
  8
Dimension
  6
Continuous
 62
     0
370
    -2
100
AcDbLine
 10
150.0
 20
121.36091
 30
0.0
 11
150.0
 21
159.24351
 31
0.0
  0
LINE
  5
1DE
330
6F
100
AcDbEntity
  8
Dimension
  6
Continuous
 62
     0
370
    -2
100
AcDbLine
 10
35.30722
 20
142.24351
 30
0.0
 11
35.30722
 21
159.24351
 31
0.0
  0
LINE
  5
1DF
330
6F
100
AcDbEntity
  8
Dimension
  6
Continuous
 62
     0
370
    -2
100
AcDbLine
 10
148.0001220703125
 20
157.24351
 30
0.0
 11
37.3070979296875
 21
157.24351
 31
0.0
  0
INSERT
  5
1E0
102
{ACAD_REACTORS
330
1E5
102
}
330
6F
100
AcDbEntity
  8
Dimension
 62
     0
370
    -2
100
AcDbBlockReference
  2
VW_FILLEDARROW
 10
150.0
 20
157.24351
 30
0.0
 41
1.9998779296875
 42
1.9998779296875
 43
1.9998779296875
  0
INSERT
  5
1E5
330
6F
100
AcDbEntity
  8
Dimension
 62
     0
370
    -2
100
AcDbBlockReference
  2
VW_FILLEDARROW
 10
35.30722
 20
157.24351
 30
0.0
 41
1.9998779296875
 42
1.9998779296875
 43
1.9998779296875
 50
180.0
  0
MTEXT
  5
1E6
102
{ACAD_REACTORS
330
1EB
102
}
330
6F
100
AcDbEntity
  8
Dimension
 62
     0
370
     9
100
AcDbMText
 10
92.65360999999999
 20
159.787756031746
 30
0.0
 40
3.208072916666666
 41
0.0
 71
     5
 72
     1
  1
\A1;(115)
  7
ＶＷゴシック Std W5
 73
     1
 44
1.0
  0
POINT
  5
1EB
330
6F
100
AcDbEntity
  8
Defpoints
 62
     0
100
AcDbPoint
 10
150.0
 20
121.36091
 30
0.0
  0
POINT
  5
1EC
330
6F
100
AcDbEntity
  8
Defpoints
 62
     0
100
AcDbPoint
 10
35.30722
 20
142.24351
 30
0.0
  0
POINT
  5
1ED
330
6F
100
AcDbEntity
  8
Defpoints
 62
     0
100
AcDbPoint
 10
35.30722
 20
157.24351
 30
0.0
  0
ENDBLK
  5
71
330
6F
100
AcDbEntity
  8
0
100
AcDbBlockEnd
  0
BLOCK
  5
73
330
72
100
AcDbEntity
  8
0
100
AcDbBlockBegin
  2
*D18
 70
     1
 10
0.0
 20
0.0
 30
0.0
  3
*D18
  1

  0
LINE
  5
1F0
330
72
100
AcDbEntity
  8
Dimension
  6
Continuous
 62
     0
370
    -2
100
AcDbLine
 10
173.99949
 20
60.0
 30
0.0
 11
173.99949
 21
47.5
 31
0.0
  0
LINE
  5
1F1
330
72
100
AcDbEntity
  8
Dimension
  6
Continuous
 62
     0
370
    -2
100
AcDbLine
 10
126.00051
 20
60.0
 30
0.0
 11
126.00051
 21
47.5
 31
0.0
  0
LINE
  5
1F2
330
72
100
AcDbEntity
  8
Dimension
  6
Continuous
 62
     0
370
    -2
100
AcDbLine
 10
171.9996120703125
 20
49.5
 30
0.0
 11
128.0003879296875
 21
49.5
 31
0.0
  0
INSERT
  5
1F3
102
{ACAD_REACTORS
330
1F8
102
}
330
72
100
AcDbEntity
  8
Dimension
 62
     0
370
    -2
100
AcDbBlockReference
  2
VW_FILLEDARROW
 10
173.99949
 20
49.5
 30
0.0
 41
1.9998779296875
 42
1.9998779296875
 43
1.9998779296875
  0
INSERT
  5
1F8
330
72
100
AcDbEntity
  8
Dimension
 62
     0
370
    -2
100
AcDbBlockReference
  2
VW_FILLEDARROW
 10
126.00051
 20
49.5
 30
0.0
 41
1.9998779296875
 42
1.9998779296875
 43
1.9998779296875
 50
180.0
  0
MTEXT
  5
1F9
102
{ACAD_REACTORS
330
1FE
102
}
330
72
100
AcDbEntity
  8
Dimension
 62
     0
370
     9
100
AcDbMText
 10
150.0
 20
51.20403645833333
 30
0.0
 40
3.208072916666666
 41
0.0
 71
     5
 72
     1
  1
\A1;48
  7
ＶＷゴシック Std W5
 73
     1
 44
1.0
  0
POINT
  5
1FE
330
72
100
AcDbEntity
  8
Defpoints
 62
     0
100
AcDbPoint
 10
173.99949
 20
60.0
 30
0.0
  0
POINT
  5
1FF
330
72
100
AcDbEntity
  8
Defpoints
 62
     0
100
AcDbPoint
 10
126.00051
 20
60.0
 30
0.0
  0
POINT
  5
200
330
72
100
AcDbEntity
  8
Defpoints
 62
     0
100
AcDbPoint
 10
126.00051
 20
49.5
 30
0.0
  0
ENDBLK
  5
74
330
72
100
AcDbEntity
  8
0
100
AcDbBlockEnd
  0
BLOCK
  5
76
330
75
100
AcDbEntity
  8
0
100
AcDbBlockBegin
  2
*D19
 70
     1
 10
0.0
 20
0.0
 30
0.0
  3
*D19
  1

  0
LINE
  5
203
330
75
100
AcDbEntity
  8
Dimension
  6
Continuous
 62
     0
370
    -2
100
AcDbLine
 10
232.4034350198413
 20
99.00000000000004
 30
0.0
 11
241.0
 21
99.00000000000004
 31
0.0
  0
LINE
  5
204
330
75
100
AcDbEntity
  8
Dimension
  6
Continuous
 62
     0
370
    -2
100
AcDbLine
 10
241.0
 20
99.00000000000004
 30
0.0
 11
258.470212900434
 21
84.44148924963837
 31
0.0
  0
LINE
  5
205
330
75
100
AcDbEntity
  8
Dimension
  6
Continuous
 62
     0
370
    -2
100
AcDbLine
 10
271.529787099566
 20
73.55851075036165
 30
0.0
 11
273.0661358817491
 21
72.2782200985424
 31
0.0
  0
MTEXT
  5
206
102
{ACAD_REACTORS
330
20B
102
}
330
75
100
AcDbEntity
  8
Dimension
 62
     0
370
     9
100
AcDbMText
 10
236.4517175099207
 20
101.1040364583334
 30
0.0
 40
3.208072916666666
 41
0.0
 71
     5
 72
     1
  1
\A1;%%c13
  7
ＶＷゴシック Std W5
 73
     1
 44
1.0
  0
LINE
  5
20B
330
75
100
AcDbEntity
  8
Dimension
  6
Continuous
 62
     0
370
    -2
100
AcDbLine
 10
269.9934383173829
 20
74.83880140218089
 30
0.0
 11
260.0065616826171
 21
83.16119859781912
 31
0.0
  0
INSERT
  5
20C
102
{ACAD_REACTORS
330
211
102
}
330
75
100
AcDbEntity
  8
Dimension
 62
     0
370
    -2
100
AcDbBlockReference
  2
VW_FILLEDARROW
 10
269.9934383173829
 20
74.83880140218089
 30
0.0
 41
1.9998779296875
 42
1.9998779296875
 43
1.9998779296875
 50
140.1944289077347
  0
INSERT
  5
211
330
75
100
AcDbEntity
  8
Dimension
 62
     0
370
    -2
100
AcDbBlockReference
  2
VW_FILLEDARROW
 10
260.0065616826171
 20
83.16119859781912
 30
0.0
 41
1.9998779296875
 42
1.9998779296875
 43
1.9998779296875
 50
320.1944289077347
  0
POINT
  5
212
330
75
100
AcDbEntity
  8
Defpoints
 62
     0
100
AcDbPoint
 10
260.0065616826171
 20
83.16119859781912
 30
0.0
  0
POINT
  5
213
330
75
100
AcDbEntity
  8
Defpoints
 62
     0
100
AcDbPoint
 10
269.9934383173829
 20
74.83880140218089
 30
0.0
  0
ENDBLK
  5
77
330
75
100
AcDbEntity
  8
0
100
AcDbBlockEnd
  0
BLOCK
  5
8B
330
8A
100
AcDbEntity
  8
0
100
AcDbBlockBegin
  2
VW_FILLEDARROW
 70
     0
 10
0.0
 20
0.0
 30
0.0
  3
VW_FILLEDARROW
  1

  0
POLYLINE
  5
8D
102
{ACAD_REACTORS
330
92
102
}
330
8A
100
AcDbEntity
  8
0
  6
Continuous
 62
     0
370
     5
100
AcDb2dPolyline
 66
     1
 10
0.0
 20
0.0
 30
0.0
 70
   129
  0
VERTEX
  5
8E
330
8D
100
AcDbEntity
  8
0
  6
Continuous
 62
     0
370
     5
100
AcDbVertex
100
AcDb2dVertex
 10
-0.9999389648437499
 20
0.2679328381102956
 30
0.0
  0
VERTEX
  5
8F
330
8D
100
AcDbEntity
  8
0
  6
Continuous
 62
     0
370
     5
100
AcDbVertex
100
AcDb2dVertex
 10
0.0
 20
0.0
 30
0.0
  0
VERTEX
  5
90
330
8D
100
AcDbEntity
  8
0
  6
Continuous
 62
     0
370
     5
100
AcDbVertex
100
AcDb2dVertex
 10
-0.9999389648437498
 20
-0.2679328381102958
 30
0.0
  0
SEQEND
  5
91
330
8D
100
AcDbEntity
  8
0
  6
Continuous
 62
     0
370
     5
  0
HATCH
  5
92
330
8A
100
AcDbEntity
  8
0
  6
Continuous
 62
     0
370
     0
100
AcDbHatch
 10
0.0
 20
0.0
 30
0.0
210
0.0
220
0.0
230
1.0
  2
SOLID
 70
     1
 71
     1
 91
        1
 92
        1
 93
        3
 72
     1
 10
-0.9999389648437499
 20
0.2679328381102956
 11
0.0
 21
0.0
 72
     1
 10
0.0
 20
0.0
 11
-0.9999389648437498
 21
-0.2679328381102958
 72
     1
 10
-0.9999389648437498
 20
-0.2679328381102958
 11
-0.9999389648437499
 21
0.2679328381102956
 97
        1
330
8D
 75
     0
 76
     1
 98
        1
 10
0.0
 20
0.0
  0
ENDBLK
  5
8C
330
8A
100
AcDbEntity
  8
0
100
AcDbBlockEnd
  0
ENDSEC
  0
SECTION
  2
ENTITIES
  0
POLYLINE
  5
215
330
1F
100
AcDbEntity
  8
Valve
  6
Continuous
 62
     7
370
    25
100
AcDb2dPolyline
 66
     1
 10
0.0
 20
0.0
 30
0.0
 70
   129
  0
VERTEX
  5
216
330
215
100
AcDbEntity
  8
Valve
  6
Continuous
 62
     7
370
    25
100
AcDbVertex
100
AcDb2dVertex
 10
175.200005
 20
235.0
 30
0.0
  0
VERTEX
  5
217
330
215
100
AcDbEntity
  8
Valve
  6
Continuous
 62
     7
370
    25
100
AcDbVertex
100
AcDb2dVertex
 10
191.500005
 20
235.0
 30
0.0
  0
VERTEX
  5
218
330
215
100
AcDbEntity
  8
Valve
  6
Continuous
 62
     7
370
    25
100
AcDbVertex
100
AcDb2dVertex
 10
191.500005
 20
205.0
 30
0.0
  0
VERTEX
  5
219
330
215
100
AcDbEntity
  8
Valve
  6
Continuous
 62
     7
370
    25
100
AcDbVertex
100
AcDb2dVertex
 10
175.200005
 20
205.0
 30
0.0
  0
SEQEND
  5
21A
330
215
100
AcDbEntity
  8
Valve
  6
Continuous
 62
     7
370
    25
  0
LINE
  5
21B
330
1F
100
AcDbEntity
  8
Valve
  6
Continuous
 62
     7
370
    25
100
AcDbLine
 10
175.200005
 20
205.5
 30
0.0
 11
173.999995
 21
205.5
 31
0.0
  0
LINE
  5
21C
330
1F
100
AcDbEntity
  8
Valve
  6
Continuous
 62
     7
370
    25
100
AcDbLine
 10
173.999995
 20
234.5
 30
0.0
 11
175.200005
 21
234.5
 31
0.0
  0
LINE
  5
21D
330
1F
100
AcDbEntity
  8
Valve
  6
Continuous
 62
     7
370
    15
100
AcDbLine
 10
190.500005
 20
220.0
 30
0.0
 11
175.200005
 21
220.0
 31
0.0
  0
POLYLINE
  5
21E
330
1F
100
AcDbEntity
  8
Valve
  6
Continuous
 62
     7
370
    15
100
AcDb2dPolyline
 66
     1
 10
0.0
 20
0.0
 30
0.0
 70
   129
  0
VERTEX
  5
21F
330
21E
100
AcDbEntity
  8
Valve
  6
Continuous
 62
     7
370
    15
100
AcDbVertex
100
AcDb2dVertex
 10
183.500005
 20
221.25
 30
0.0
  0
VERTEX
  5
220
330
21E
100
AcDbEntity
  8
Valve
  6
Continuous
 62
     7
370
    15
100
AcDbVertex
100
AcDb2dVertex
 10
184.000005
 20
220.0
 30
0.0
  0
VERTEX
  5
221
330
21E
100
AcDbEntity
  8
Valve
  6
Continuous
 62
     7
370
    15
100
AcDbVertex
100
AcDb2dVertex
 10
183.500005
 20
218.75
 30
0.0
  0
VERTEX
  5
222
330
21E
100
AcDbEntity
  8
Valve
  6
Continuous
 62
     7
370
    15
100
AcDbVertex
100
AcDb2dVertex
 10
183.000005
 20
220.0
 30
0.0
  0
SEQEND
  5
223
330
21E
100
AcDbEntity
  8
Valve
  6
Continuous
 62
     7
370
    15
  0
POLYLINE
  5
224
330
1F
100
AcDbEntity
  8
Valve
  6
Continuous
 62
     7
370
    15
100
AcDb2dPolyline
 66
     1
 10
0.0
 20
0.0
 30
0.0
 70
   129
  0
VERTEX
  5
225
330
224
100
AcDbEntity
  8
Valve
  6
Continuous
 62
     7
370
    15
100
AcDbVertex
100
AcDb2dVertex
 10
186.500005
 20
221.25
 30
0.0
  0
VERTEX
  5
226
330
224
100
AcDbEntity
  8
Valve
  6
Continuous
 62
     7
370
    15
100
AcDbVertex
100
AcDb2dVertex
 10
187.000005
 20
220.0
 30
0.0
  0
VERTEX
  5
227
330
224
100
AcDbEntity
  8
Valve
  6
Continuous
 62
     7
370
    15
100
AcDbVertex
100
AcDb2dVertex
 10
186.500005
 20
218.75
 30
0.0
  0
VERTEX
  5
228
330
224
100
AcDbEntity
  8
Valve
  6
Continuous
 62
     7
370
    15
100
AcDbVertex
100
AcDb2dVertex
 10
186.000005
 20
220.0
 30
0.0
  0
SEQEND
  5
229
330
224
100
AcDbEntity
  8
Valve
  6
Continuous
 62
     7
370
    15
  0
SPLINE
  5
22A
330
1F
100
AcDbEntity
  8
Valve
  6
Continuous
 62
     7
370
    15
100
AcDbSpline
210
0.0
220
0.0
230
1.0
 70
     8
 71
     2
 72
     6
 73
     3
 74
     0
 42
0.000000001
 43
0.0000000000001
 12
1.0
 22
0.0
 32
0.0
 13
1.0
 23
0.0
 33
0.0
 40
0.0
 40
0.0
 40
0.0
 40
1.0
 40
1.0
 40
1.0
 10
190.500005
 20
235.0
 30
0.0
 10
192.4958897736625
 20
228.4979423868313
 30
0.0
 10
190.500005
 20
220.0
 30
0.0
  0
SPLINE
  5
22B
330
1F
100
AcDbEntity
  8
Valve
  6
Continuous
 62
     7
370
    15
100
AcDbSpline
210
0.0
220
0.0
230
1.0
 70
     8
 71
     2
 72
     6
 73
     3
 74
     0
 42
0.000000001
 43
0.0000000000001
 12
1.0
 22
0.0
 32
0.0
 13
1.0
 23
0.0
 33
0.0
 40
0.0
 40
0.0
 40
0.0
 40
1.0
 40
1.0
 40
1.0
 10
190.500005
 20
205.0
 30
0.0
 10
192.4958897736625
 20
211.5020576131687
 30
0.0
 10
190.500005
 20
220.0
 30
0.0
  0
POLYLINE
  5
22C
330
1F
100
AcDbEntity
  8
Valve
  6
Continuous
 62
     7
370
    15
100
AcDb2dPolyline
 66
     1
 10
0.0
 20
0.0
 30
0.0
 70
   128
  0
VERTEX
  5
22D
330
22C
100
AcDbEntity
  8
Valve
  6
Continuous
 62
     7
370
    15
100
AcDbVertex
100
AcDb2dVertex
 10
187.000005
 20
235.0
 30
0.0
  0
VERTEX
  5
22E
330
22C
100
AcDbEntity
  8
Valve
  6
Continuous
 62
     7
370
    15
100
AcDbVertex
100
AcDb2dVertex
 10
186.500005
 20
234.0
 30
0.0
  0
VERTEX
  5
22F
330
22C
100
AcDbEntity
  8
Valve
  6
Continuous
 62
     7
370
    15
100
AcDbVertex
100
AcDb2dVertex
 10
186.000005
 20
235.0
 30
0.0
  0
SEQEND
  5
230
330
22C
100
AcDbEntity
  8
Valve
  6
Continuous
 62
     7
370
    15
  0
POLYLINE
  5
231
330
1F
100
AcDbEntity
  8
Valve
  6
Continuous
 62
     7
370
    15
100
AcDb2dPolyline
 66
     1
 10
0.0
 20
0.0
 30
0.0
 70
   128
  0
VERTEX
  5
232
330
231
100
AcDbEntity
  8
Valve
  6
Continuous
 62
     7
370
    15
100
AcDbVertex
100
AcDb2dVertex
 10
184.000005
 20
235.0
 30
0.0
  0
VERTEX
  5
233
330
231
100
AcDbEntity
  8
Valve
  6
Continuous
 62
     7
370
    15
100
AcDbVertex
100
AcDb2dVertex
 10
183.500005
 20
234.0
 30
0.0
  0
VERTEX
  5
234
330
231
100
AcDbEntity
  8
Valve
  6
Continuous
 62
     7
370
    15
100
AcDbVertex
100
AcDb2dVertex
 10
183.000005
 20
235.0
 30
0.0
  0
SEQEND
  5
235
330
231
100
AcDbEntity
  8
Valve
  6
Continuous
 62
     7
370
    15
  0
POLYLINE
  5
236
330
1F
100
AcDbEntity
  8
Valve
  6
Continuous
 62
     7
370
    15
100
AcDb2dPolyline
 66
     1
 10
0.0
 20
0.0
 30
0.0
 70
   128
  0
VERTEX
  5
237
330
236
100
AcDbEntity
  8
Valve
  6
Continuous
 62
     7
370
    15
100
AcDbVertex
100
AcDb2dVertex
 10
187.000005
 20
205.0
 30
0.0
  0
VERTEX
  5
238
330
236
100
AcDbEntity
  8
Valve
  6
Continuous
 62
     7
370
    15
100
AcDbVertex
100
AcDb2dVertex
 10
186.500005
 20
206.0
 30
0.0
  0
VERTEX
  5
239
330
236
100
AcDbEntity
  8
Valve
  6
Continuous
 62
     7
370
    15
100
AcDbVertex
100
AcDb2dVertex
 10
186.000005
 20
205.0
 30
0.0
  0
SEQEND
  5
23A
330
236
100
AcDbEntity
  8
Valve
  6
Continuous
 62
     7
370
    15
  0
POLYLINE
  5
23B
330
1F
100
AcDbEntity
  8
Valve
  6
Continuous
 62
     7
370
    15
100
AcDb2dPolyline
 66
     1
 10
0.0
 20
0.0
 30
0.0
 70
   128
  0
VERTEX
  5
23C
330
23B
100
AcDbEntity
  8
Valve
  6
Continuous
 62
     7
370
    15
100
AcDbVertex
100
AcDb2dVertex
 10
184.000005
 20
205.0
 30
0.0
  0
VERTEX
  5
23D
330
23B
100
AcDbEntity
  8
Valve
  6
Continuous
 62
     7
370
    15
100
AcDbVertex
100
AcDb2dVertex
 10
183.500005
 20
206.0
 30
0.0
  0
VERTEX
  5
23E
330
23B
100
AcDbEntity
  8
Valve
  6
Continuous
 62
     7
370
    15
100
AcDbVertex
100
AcDb2dVertex
 10
183.000005
 20
205.0
 30
0.0
  0
SEQEND
  5
23F
330
23B
100
AcDbEntity
  8
Valve
  6
Continuous
 62
     7
370
    15
  0
LINE
  5
240
330
1F
100
AcDbEntity
  8
Valve
  6
Continuous
 62
     7
370
    25
100
AcDbLine
 10
108.500005
 20
226.3345589338235
 30
0.0
 11
108.500005
 21
235.0
 31
0.0
  0
LINE
  5
241
330
1F
100
AcDbEntity
  8
Valve
  6
Continuous
 62
     7
370
    25
100
AcDbLine
 10
124.800005
 20
205.0
 30
0.0
 11
108.500005
 21
205.0
 31
0.0
  0
LINE
  5
242
330
1F
100
AcDbEntity
  8
Valve
  6
Continuous
 62
     7
370
    25
100
AcDbLine
 10
124.800005
 20
235.0
 30
0.0
 11
124.800005
 21
227.1285717857143
 31
0.0
  0
LINE
  5
243
330
1F
100
AcDbEntity
  8
Valve
  6
Continuous
 62
     7
370
    25
100
AcDbLine
 10
108.500005
 20
235.0
 30
0.0
 11
124.800005
 21
235.0
 31
0.0
  0
LINE
  5
244
330
1F
100
AcDbEntity
  8
Valve
  6
Continuous
 62
     7
370
    25
100
AcDbLine
 10
126.0
 20
205.5
 30
0.0
 11
124.800005
 21
205.5
 31
0.0
  0
LINE
  5
245
330
1F
100
AcDbEntity
  8
Valve
  6
Continuous
 62
     7
370
    25
100
AcDbLine
 10
124.800005
 20
234.5
 30
0.0
 11
126.0
 21
234.5
 31
0.0
  0
POLYLINE
  5
246
330
1F
100
AcDbEntity
  8
Valve
  6
Continuous
 62
     7
370
    15
100
AcDb2dPolyline
 66
     1
 10
0.0
 20
0.0
 30
0.0
 70
   128
  0
VERTEX
  5
247
330
246
100
AcDbEntity
  8
Valve
  6
Continuous
 62
     7
370
    15
100
AcDbVertex
100
AcDb2dVertex
 10
113.000005
 20
235.0
 30
0.0
  0
VERTEX
  5
248
330
246
100
AcDbEntity
  8
Valve
  6
Continuous
 62
     7
370
    15
100
AcDbVertex
100
AcDb2dVertex
 10
113.500005
 20
234.0
 30
0.0
  0
VERTEX
  5
249
330
246
100
AcDbEntity
  8
Valve
  6
Continuous
 62
     7
370
    15
100
AcDbVertex
100
AcDb2dVertex
 10
114.000005
 20
235.0
 30
0.0
  0
SEQEND
  5
24A
330
246
100
AcDbEntity
  8
Valve
  6
Continuous
 62
     7
370
    15
  0
POLYLINE
  5
24B
330
1F
100
AcDbEntity
  8
Valve
  6
Continuous
 62
     7
370
    15
100
AcDb2dPolyline
 66
     1
 10
0.0
 20
0.0
 30
0.0
 70
   128
  0
VERTEX
  5
24C
330
24B
100
AcDbEntity
  8
Valve
  6
Continuous
 62
     7
370
    15
100
AcDbVertex
100
AcDb2dVertex
 10
116.000005
 20
235.0
 30
0.0
  0
VERTEX
  5
24D
330
24B
100
AcDbEntity
  8
Valve
  6
Continuous
 62
     7
370
    15
100
AcDbVertex
100
AcDb2dVertex
 10
116.500005
 20
234.0
 30
0.0
  0
VERTEX
  5
24E
330
24B
100
AcDbEntity
  8
Valve
  6
Continuous
 62
     7
370
    15
100
AcDbVertex
100
AcDb2dVertex
 10
117.000005
 20
235.0
 30
0.0
  0
SEQEND
  5
24F
330
24B
100
AcDbEntity
  8
Valve
  6
Continuous
 62
     7
370
    15
  0
POLYLINE
  5
250
330
1F
100
AcDbEntity
  8
Valve
  6
Continuous
 62
     7
370
    15
100
AcDb2dPolyline
 66
     1
 10
0.0
 20
0.0
 30
0.0
 70
   128
  0
VERTEX
  5
251
330
250
100
AcDbEntity
  8
Valve
  6
Continuous
 62
     7
370
    15
100
AcDbVertex
100
AcDb2dVertex
 10
113.000005
 20
205.0
 30
0.0
  0
VERTEX
  5
252
330
250
100
AcDbEntity
  8
Valve
  6
Continuous
 62
     7
370
    15
100
AcDbVertex
100
AcDb2dVertex
 10
113.500005
 20
206.0
 30
0.0
  0
VERTEX
  5
253
330
250
100
AcDbEntity
  8
Valve
  6
Continuous
 62
     7
370
    15
100
AcDbVertex
100
AcDb2dVertex
 10
114.000005
 20
205.0
 30
0.0
  0
SEQEND
  5
254
330
250
100
AcDbEntity
  8
Valve
  6
Continuous
 62
     7
370
    15
  0
POLYLINE
  5
255
330
1F
100
AcDbEntity
  8
Valve
  6
Continuous
 62
     7
370
    15
100
AcDb2dPolyline
 66
     1
 10
0.0
 20
0.0
 30
0.0
 70
   128
  0
VERTEX
  5
256
330
255
100
AcDbEntity
  8
Valve
  6
Continuous
 62
     7
370
    15
100
AcDbVertex
100
AcDb2dVertex
 10
116.000005
 20
205.0
 30
0.0
  0
VERTEX
  5
257
330
255
100
AcDbEntity
  8
Valve
  6
Continuous
 62
     7
370
    15
100
AcDbVertex
100
AcDb2dVertex
 10
116.500005
 20
206.0
 30
0.0
  0
VERTEX
  5
258
330
255
100
AcDbEntity
  8
Valve
  6
Continuous
 62
     7
370
    15
100
AcDbVertex
100
AcDb2dVertex
 10
117.000005
 20
205.0
 30
0.0
  0
SEQEND
  5
259
330
255
100
AcDbEntity
  8
Valve
  6
Continuous
 62
     7
370
    15
  0
LINE
  5
25A
330
1F
100
AcDbEntity
  8
Valve
  6
Continuous
 62
     7
370
    25
100
AcDbLine
 10
126.0
 20
227.2142857142857
 30
0.0
 11
126.0
 21
237.5
 31
0.0
  0
LINE
  5
25B
330
1F
100
AcDbEntity
  8
Valve
  6
Continuous
 62
     7
370
    25
100
AcDbLine
 10
174.0
 20
202.5
 30
0.0
 11
126.0
 21
202.5
 31
0.0
  0
LINE
  5
25C
330
1F
100
AcDbEntity
  8
Valve
  6
Continuous
 62
     7
370
    25
100
AcDbLine
 10
174.0
 20
237.5
 30
0.0
 11
174.0
 21
202.5
 31
0.0
  0
LINE
  5
25D
330
1F
100
AcDbEntity
  8
Valve
  6
Continuous
 62
     7
370
    25
100
AcDbLine
 10
126.0
 20
237.5
 30
0.0
 11
174.0
 21
237.5
 31
0.0
  0
ELLIPSE
  5
25E
330
1F
100
AcDbEntity
  8
Valve
  6
Continuous
 62
     7
370
    25
100
AcDbEllipse
 10
150.000005
 20
220.0
 30
0.0
 11
7.0
 21
0.0
 31
0.0
210
0.0
220
0.0
230
1.0
 40
1.0
 41
0.0
 42
6.283185307179586
  0
ARC
  5
25F
330
1F
100
AcDbEntity
  8
Valve
  6
Continuous
 62
     7
370
    25
100
AcDbCircle
 10
162.0
 20
220.0
 30
0.0
 40
2.5
100
AcDbArc
 50
270.0
 51
90.0
  0
ARC
  5
260
330
1F
100
AcDbEntity
  8
Valve
  6
Continuous
 62
     7
370
    25
100
AcDbCircle
 10
150.0
 20
220.0
 30
0.0
 40
13.0
100
AcDbArc
 50
101.0874892109707
 51
131.4779795704697
  0
ARC
  5
261
330
1F
100
AcDbEntity
  8
Valve
  6
Continuous
 62
     7
370
    25
100
AcDbCircle
 10
150.0
 20
220.0
 30
0.0
 40
13.00000000000001
100
AcDbArc
 50
228.6730331313871
 51
349.5224595113003
  0
LINE
  5
262
330
1F
100
AcDbEntity
  8
Valve
  6
Continuous
 62
     7
370
    25
100
AcDbLine
 10
161.9921849552115
 20
217.5
 30
0.0
 11
162.7573508221731
 21
217.5
 31
0.0
  0
LINE
  5
263
330
1F
100
AcDbEntity
  8
Valve
  6
Continuous
 62
     7
370
    25
100
AcDbLine
 10
147.5
 20
232.7573508221731
 30
0.0
 11
147.5
 21
231.9921849552115
 31
0.0
  0
LINE
  5
264
330
1F
100
AcDbEntity
  8
Valve
  6
Continuous
 62
     7
370
    25
100
AcDbLine
 10
124.800005
 20
212.8714282142857
 30
0.0
 11
124.800005
 21
205.0
 31
0.0
  0
LINE
  5
265
330
1F
100
AcDbEntity
  8
Valve
  6
Continuous
 62
     7
370
    25
100
AcDbLine
 10
108.500005
 20
205.0
 30
0.0
 11
108.500005
 21
213.6654410661765
 31
0.0
  0
SPLINE
  5
266
330
1F
100
AcDbEntity
  8
Valve
  6
Continuous
 62
     7
370
    15
100
AcDbSpline
210
0.0
220
0.0
230
1.0
 70
     8
 71
     2
 72
     6
 73
     3
 74
     0
 42
0.000000001
 43
0.0000000000001
 12
1.0
 22
0.0
 32
0.0
 13
1.0
 23
0.0
 33
0.0
 40
0.0
 40
0.0
 40
0.0
 40
1.0
 40
1.0
 40
1.0
 10
109.500005
 20
235.0
 30
0.0
 10
108.5
 20
232.5
 30
0.0
 10
108.5020626131687
 20
227.9989711934156
 30
0.0
  0
SPLINE
  5
267
330
1F
100
AcDbEntity
  8
Valve
  6
Continuous
 62
     7
370
    15
100
AcDbSpline
210
0.0
220
0.0
230
1.0
 70
     8
 71
     2
 72
     6
 73
     3
 74
     0
 42
0.000000001
 43
0.0000000000001
 12
1.0
 22
0.0
 32
0.0
 13
1.0
 23
0.0
 33
0.0
 40
0.0
 40
0.0
 40
0.0
 40
1.0
 40
1.0
 40
1.0
 10
109.500005
 20
205.0
 30
0.0
 10
108.5
 20
207.5
 30
0.0
 10
108.5020626131687
 20
212.0010288065844
 30
0.0
  0
LINE
  5
268
330
1F
100
AcDbEntity
  8
Valve
  6
Continuous
 62
     7
370
    25
100
AcDbLine
 10
126.0
 20
202.5
 30
0.0
 11
126.0
 21
212.7857142857143
 31
0.0
  0
LINE
  5
269
330
1F
100
AcDbEntity
  8
Valve
  6
Continuous
 62
     7
370
    25
100
AcDbLine
 10
277.99999
 20
100.7
 30
0.0
 11
267.5
 21
100.7
 31
0.0
  0
LINE
  5
26A
330
1F
100
AcDbEntity
  8
Valve
  6
Continuous
 62
     7
370
    25
100
AcDbLine
 10
277.99999
 20
102.70001
 30
0.0
 11
277.99999
 21
100.7
 31
0.0
  0
LINE
  5
26B
330
1F
100
AcDbEntity
  8
Valve
  6
Continuous
 62
     7
370
    25
100
AcDbLine
 10
265.0
 20
103.7
 30
0.0
 11
277.0
 21
103.7
 31
0.0
  0
LINE
  5
26C
330
1F
100
AcDbEntity
  8
Valve
  6
Continuous
 62
     7
370
    25
100
AcDbLine
 10
253.0
 20
103.7
 30
0.0
 11
265.0
 21
103.7
 31
0.0
  0
LINE
  5
26D
330
1F
100
AcDbEntity
  8
Valve
  6
Continuous
 62
     7
370
    25
100
AcDbLine
 10
252.00001
 20
100.7
 30
0.0
 11
252.00001
 21
102.70001
 31
0.0
  0
SPLINE
  5
26E
330
1F
100
AcDbEntity
  8
Valve
  6
Continuous
 62
     7
370
    25
100
AcDbSpline
210
0.0
220
0.0
230
1.0
 70
    11
 71
     2
 72
    16
 73
    13
 74
     0
 42
0.000000001
 43
0.0000000000001
 12
1.0
 22
0.0
 32
0.0
 13
1.0
 23
0.0
 33
0.0
 40
0.0
 40
0.0
 40
0.0
 40
1.0
 40
1.0
 40
2.0
 40
2.0
 40
3.0
 40
3.0
 40
4.0
 40
4.0
 40
5.0
 40
5.0
 40
6.0
 40
6.0
 40
6.0
 10
267.25
 20
102.55092
 30
0.0
 10
265.0
 20
103.4490681481481
 30
0.0
 10
262.75
 20
102.55092
 30
0.0
 10
262.625
 20
102.10092
 30
0.0
 10
262.5
 20
101.65092
 30
0.0
 10
262.5
 20
100.82546
 30
0.0
 10
262.5
 20
100.0
 30
0.0
 10
265.0
 20
100.0
 30
0.0
 10
267.5
 20
100.0
 30
0.0
 10
267.5
 20
100.82546
 30
0.0
 10
267.5
 20
101.65092
 30
0.0
 10
267.375
 20
102.10092
 30
0.0
 10
267.25
 20
102.55092
 30
0.0
  0
POLYLINE
  5
26F
330
1F
100
AcDbEntity
  8
Valve
  6
Continuous
 62
     7
370
    25
100
AcDb2dPolyline
 66
     1
 10
0.0
 20
0.0
 30
0.0
 70
   129
  0
VERTEX
  5
270
330
26F
100
AcDbEntity
  8
Valve
  6
Continuous
 62
     7
370
    25
100
AcDbVertex
100
AcDb2dVertex
 10
247.5
 20
100.0
 30
0.0
  0
VERTEX
  5
271
330
26F
100
AcDbEntity
  8
Valve
  6
Continuous
 62
     7
370
    25
100
AcDbVertex
100
AcDb2dVertex
 10
282.5
 20
100.0
 30
0.0
  0
VERTEX
  5
272
330
26F
100
AcDbEntity
  8
Valve
  6
Continuous
 62
     7
370
    25
100
AcDbVertex
100
AcDb2dVertex
 10
282.5
 20
60.0
 30
0.0
  0
VERTEX
  5
273
330
26F
100
AcDbEntity
  8
Valve
  6
Continuous
 62
     7
370
    25
100
AcDbVertex
100
AcDb2dVertex
 10
247.5
 20
60.0
 30
0.0
  0
SEQEND
  5
274
330
26F
100
AcDbEntity
  8
Valve
  6
Continuous
 62
     7
370
    25
  0
INSERT
  5
275
330
1F
100
AcDbEntity
  8
Valve
 62
     7
100
AcDbBlockReference
  2
グループ-1
 10
204.0
 20
142.5
 30
0.0
  0
LINE
  5
276
330
1F
100
AcDbEntity
  8
Valve
  6
Continuous
 62
     7
370
    25
100
AcDbLine
 10
262.5
 20
100.7
 30
0.0
 11
262.5
 21
103.2
 31
0.0
  0
ARC
  5
277
330
1F
100
AcDbEntity
  8
Valve
  6
Continuous
 62
     7
370
    25
100
AcDbCircle
 10
262.0
 20
103.2
 30
0.0
 40
0.5
100
AcDbArc
 50
0.0
 51
90.0
  0
LINE
  5
278
330
1F
100
AcDbEntity
  8
Valve
  6
Continuous
 62
     7
370
    25
100
AcDbLine
 10
258.0
 20
100.0
 30
0.0
 11
258.0
 21
100.7
 31
0.0
  0
LINE
  5
279
330
1F
100
AcDbEntity
  8
Valve
  6
Continuous
 62
     7
370
    25
100
AcDbLine
 10
272.0000000000001
 20
100.0
 30
0.0
 11
272.0000000000001
 21
100.7
 31
0.0
  0
ARC
  5
27A
330
1F
100
AcDbEntity
  8
Valve
  6
Continuous
 62
     7
370
    25
100
AcDbCircle
 10
253.0
 20
102.70001
 30
0.0
 40
0.9999899999999968
100
AcDbArc
 50
90.0
 51
180.0
  0
ARC
  5
27B
330
1F
100
AcDbEntity
  8
Valve
  6
Continuous
 62
     7
370
    25
100
AcDbCircle
 10
277.0
 20
102.70001
 30
0.0
 40
0.9999899999999968
100
AcDbArc
 50
0.0
 51
90.0
  0
LINE
  5
27C
330
1F
100
AcDbEntity
  8
Valve
  6
Continuous
 62
     7
370
    25
100
AcDbLine
 10
262.5
 20
100.7
 30
0.0
 11
252.00001
 21
100.7
 31
0.0
  0
POLYLINE
  5
27D
330
1F
100
AcDbEntity
  8
Valve
  6
Continuous
 62
     7
370
    25
100
AcDb2dPolyline
 66
     1
 10
0.0
 20
0.0
 30
0.0
 70
   129
  0
VERTEX
  5
27E
330
27D
100
AcDbEntity
  8
Valve
  6
Continuous
 62
     7
370
    25
100
AcDbVertex
100
AcDb2dVertex
 10
126.0005
 20
100.0
 30
0.0
  0
VERTEX
  5
27F
330
27D
100
AcDbEntity
  8
Valve
  6
Continuous
 62
     7
370
    25
100
AcDbVertex
100
AcDb2dVertex
 10
173.99951
 20
100.0
 30
0.0
  0
VERTEX
  5
280
330
27D
100
AcDbEntity
  8
Valve
  6
Continuous
 62
     7
370
    25
100
AcDbVertex
100
AcDb2dVertex
 10
173.99951
 20
60.0
 30
0.0
  0
VERTEX
  5
281
330
27D
100
AcDbEntity
  8
Valve
  6
Continuous
 62
     7
370
    25
100
AcDbVertex
100
AcDb2dVertex
 10
126.0005
 20
60.0
 30
0.0
  0
SEQEND
  5
282
330
27D
100
AcDbEntity
  8
Valve
  6
Continuous
 62
     7
370
    25
  0
POLYLINE
  5
283
330
1F
100
AcDbEntity
  8
Valve
  6
Continuous
 62
     7
370
    25
100
AcDb2dPolyline
 66
     1
 10
0.0
 20
0.0
 30
0.0
 70
   129
  0
VERTEX
  5
284
330
283
100
AcDbEntity
  8
Valve
  6
Continuous
 62
     7
370
    25
100
AcDbVertex
100
AcDb2dVertex
 10
113.0
 20
61.99999999999999
 30
0.0
  0
VERTEX
  5
285
330
283
100
AcDbEntity
  8
Valve
  6
Continuous
 62
     7
370
    25
100
AcDbVertex
100
AcDb2dVertex
 10
109.5
 20
61.99999999999999
 30
0.0
  0
VERTEX
  5
286
330
283
100
AcDbEntity
  8
Valve
  6
Continuous
 62
     7
370
    25
100
AcDbVertex
100
AcDb2dVertex
 10
108.5
 20
63.99999999999999
 30
0.0
  0
VERTEX
  5
287
330
283
100
AcDbEntity
  8
Valve
  6
Continuous
 62
     7
370
    25
100
AcDbVertex
100
AcDb2dVertex
 10
108.5
 20
93.99999999999999
 30
0.0
  0
VERTEX
  5
288
330
283
100
AcDbEntity
  8
Valve
  6
Continuous
 62
     7
370
    25
100
AcDbVertex
100
AcDb2dVertex
 10
109.5
 20
95.99999999999999
 30
0.0
  0
VERTEX
  5
289
330
283
100
AcDbEntity
  8
Valve
  6
Continuous
 62
     7
370
    25
100
AcDbVertex
100
AcDb2dVertex
 10
113.0
 20
95.99999999999999
 30
0.0
  0
VERTEX
  5
28A
330
283
100
AcDbEntity
  8
Valve
  6
Continuous
 62
     7
370
    25
100
AcDbVertex
100
AcDb2dVertex
 10
113.5
 20
95.49999999999999
 30
0.0
  0
VERTEX
  5
28B
330
283
100
AcDbEntity
  8
Valve
  6
Continuous
 62
     7
370
    25
100
AcDbVertex
100
AcDb2dVertex
 10
114.0
 20
95.99999999999999
 30
0.0
  0
VERTEX
  5
28C
330
283
100
AcDbEntity
  8
Valve
  6
Continuous
 62
     7
370
    25
100
AcDbVertex
100
AcDb2dVertex
 10
116.0
 20
95.99999999999999
 30
0.0
  0
VERTEX
  5
28D
330
283
100
AcDbEntity
  8
Valve
  6
Continuous
 62
     7
370
    25
100
AcDbVertex
100
AcDb2dVertex
 10
116.5
 20
95.49999999999999
 30
0.0
  0
VERTEX
  5
28E
330
283
100
AcDbEntity
  8
Valve
  6
Continuous
 62
     7
370
    25
100
AcDbVertex
100
AcDb2dVertex
 10
117.0
 20
95.99999999999999
 30
0.0
  0
VERTEX
  5
28F
330
283
100
AcDbEntity
  8
Valve
  6
Continuous
 62
     7
370
    25
100
AcDbVertex
100
AcDb2dVertex
 10
124.8
 20
95.99999999999999
 30
0.0
  0
VERTEX
  5
290
330
283
100
AcDbEntity
  8
Valve
  6
Continuous
 62
     7
370
    25
100
AcDbVertex
100
AcDb2dVertex
 10
124.8
 20
93.49999999999999
 30
0.0
  0
VERTEX
  5
291
330
283
100
AcDbEntity
  8
Valve
  6
Continuous
 62
     7
370
    25
100
AcDbVertex
100
AcDb2dVertex
 10
124.8
 20
64.49999999999999
 30
0.0
  0
VERTEX
  5
292
330
283
100
AcDbEntity
  8
Valve
  6
Continuous
 62
     7
370
    25
100
AcDbVertex
100
AcDb2dVertex
 10
124.8
 20
61.99999999999999
 30
0.0
  0
VERTEX
  5
293
330
283
100
AcDbEntity
  8
Valve
  6
Continuous
 62
     7
370
    25
100
AcDbVertex
100
AcDb2dVertex
 10
117.0
 20
61.99999999999999
 30
0.0
  0
VERTEX
  5
294
330
283
100
AcDbEntity
  8
Valve
  6
Continuous
 62
     7
370
    25
100
AcDbVertex
100
AcDb2dVertex
 10
116.5
 20
62.49999999999999
 30
0.0
  0
VERTEX
  5
295
330
283
100
AcDbEntity
  8
Valve
  6
Continuous
 62
     7
370
    25
100
AcDbVertex
100
AcDb2dVertex
 10
116.0
 20
61.99999999999999
 30
0.0
  0
VERTEX
  5
296
330
283
100
AcDbEntity
  8
Valve
  6
Continuous
 62
     7
370
    25
100
AcDbVertex
100
AcDb2dVertex
 10
114.0
 20
61.99999999999999
 30
0.0
  0
VERTEX
  5
297
330
283
100
AcDbEntity
  8
Valve
  6
Continuous
 62
     7
370
    25
100
AcDbVertex
100
AcDb2dVertex
 10
113.5
 20
62.49999999999999
 30
0.0
  0
SEQEND
  5
298
330
283
100
AcDbEntity
  8
Valve
  6
Continuous
 62
     7
370
    25
  0
LINE
  5
299
330
1F
100
AcDbEntity
  8
Valve
  6
Continuous
 62
     7
370
    25
100
AcDbLine
 10
124.8
 20
70.35837999999998
 30
0.0
 11
117.0
 21
70.35837999999998
 31
0.0
  0
LINE
  5
29A
330
1F
100
AcDbEntity
  8
Valve
  6
Continuous
 62
     7
370
    25
100
AcDbLine
 10
117.0
 20
87.64061000000001
 30
0.0
 11
124.8
 21
87.64061000000001
 31
0.0
  0
LINE
  5
29B
330
1F
100
AcDbEntity
  8
Valve
  6
Continuous
 62
     7
370
    25
100
AcDbLine
 10
126.0005
 20
64.49999999999999
 30
0.0
 11
124.8
 21
64.49999999999999
 31
0.0
  0
LINE
  5
29C
330
1F
100
AcDbEntity
  8
Valve
  6
Continuous
 62
     7
370
    25
100
AcDbLine
 10
124.8
 20
93.49999999999999
 30
0.0
 11
126.0005
 21
93.49999999999999
 31
0.0
  0
POLYLINE
  5
29D
330
1F
100
AcDbEntity
  8
Valve
  6
Continuous
 62
     7
370
    25
100
AcDb2dPolyline
 66
     1
 10
0.0
 20
0.0
 30
0.0
 70
   129
  0
VERTEX
  5
29E
330
29D
100
AcDbEntity
  8
Valve
  6
Continuous
 62
     7
370
    25
100
AcDbVertex
100
AcDb2dVertex
 10
116.5
 20
88.64061000000001
 30
0.0
  0
VERTEX
  5
29F
330
29D
100
AcDbEntity
  8
Valve
  6
Continuous
 62
     7
370
    25
100
AcDbVertex
100
AcDb2dVertex
 10
116.0
 20
87.64061000000001
 30
0.0
  0
VERTEX
  5
2A0
330
29D
100
AcDbEntity
  8
Valve
  6
Continuous
 62
     7
370
    25
100
AcDbVertex
100
AcDb2dVertex
 10
116.5
 20
86.64061000000001
 30
0.0
  0
VERTEX
  5
2A1
330
29D
100
AcDbEntity
  8
Valve
  6
Continuous
 62
     7
370
    25
100
AcDbVertex
100
AcDb2dVertex
 10
117.0
 20
87.64061000000001
 30
0.0
  0
SEQEND
  5
2A2
330
29D
100
AcDbEntity
  8
Valve
  6
Continuous
 62
     7
370
    25
  0
POLYLINE
  5
2A3
330
1F
100
AcDbEntity
  8
Valve
  6
Continuous
 62
     7
370
    25
100
AcDb2dPolyline
 66
     1
 10
0.0
 20
0.0
 30
0.0
 70
   129
  0
VERTEX
  5
2A4
330
2A3
100
AcDbEntity
  8
Valve
  6
Continuous
 62
     7
370
    25
100
AcDbVertex
100
AcDb2dVertex
 10
113.5
 20
88.64061000000001
 30
0.0
  0
VERTEX
  5
2A5
330
2A3
100
AcDbEntity
  8
Valve
  6
Continuous
 62
     7
370
    25
100
AcDbVertex
100
AcDb2dVertex
 10
113.0
 20
87.64061000000001
 30
0.0
  0
VERTEX
  5
2A6
330
2A3
100
AcDbEntity
  8
Valve
  6
Continuous
 62
     7
370
    25
100
AcDbVertex
100
AcDb2dVertex
 10
113.5
 20
86.64061000000001
 30
0.0
  0
VERTEX
  5
2A7
330
2A3
100
AcDbEntity
  8
Valve
  6
Continuous
 62
     7
370
    25
100
AcDbVertex
100
AcDb2dVertex
 10
114.0
 20
87.64061000000001
 30
0.0
  0
SEQEND
  5
2A8
330
2A3
100
AcDbEntity
  8
Valve
  6
Continuous
 62
     7
370
    25
  0
POLYLINE
  5
2A9
330
1F
100
AcDbEntity
  8
Valve
  6
Continuous
 62
     7
370
    25
100
AcDb2dPolyline
 66
     1
 10
0.0
 20
0.0
 30
0.0
 70
   129
  0
VERTEX
  5
2AA
330
2A9
100
AcDbEntity
  8
Valve
  6
Continuous
 62
     7
370
    25
100
AcDbVertex
100
AcDb2dVertex
 10
116.5
 20
69.35937999999996
 30
0.0
  0
VERTEX
  5
2AB
330
2A9
100
AcDbEntity
  8
Valve
  6
Continuous
 62
     7
370
    25
100
AcDbVertex
100
AcDb2dVertex
 10
116.0
 20
70.35937999999996
 30
0.0
  0
VERTEX
  5
2AC
330
2A9
100
AcDbEntity
  8
Valve
  6
Continuous
 62
     7
370
    25
100
AcDbVertex
100
AcDb2dVertex
 10
116.5
 20
71.35937999999996
 30
0.0
  0
VERTEX
  5
2AD
330
2A9
100
AcDbEntity
  8
Valve
  6
Continuous
 62
     7
370
    25
100
AcDbVertex
100
AcDb2dVertex
 10
117.0
 20
70.35937999999996
 30
0.0
  0
SEQEND
  5
2AE
330
2A9
100
AcDbEntity
  8
Valve
  6
Continuous
 62
     7
370
    25
  0
POLYLINE
  5
2AF
330
1F
100
AcDbEntity
  8
Valve
  6
Continuous
 62
     7
370
    25
100
AcDb2dPolyline
 66
     1
 10
0.0
 20
0.0
 30
0.0
 70
   129
  0
VERTEX
  5
2B0
330
2AF
100
AcDbEntity
  8
Valve
  6
Continuous
 62
     7
370
    25
100
AcDbVertex
100
AcDb2dVertex
 10
113.5
 20
69.35937999999996
 30
0.0
  0
VERTEX
  5
2B1
330
2AF
100
AcDbEntity
  8
Valve
  6
Continuous
 62
     7
370
    25
100
AcDbVertex
100
AcDb2dVertex
 10
113.0
 20
70.35937999999996
 30
0.0
  0
VERTEX
  5
2B2
330
2AF
100
AcDbEntity
  8
Valve
  6
Continuous
 62
     7
370
    25
100
AcDbVertex
100
AcDb2dVertex
 10
113.5
 20
71.35937999999996
 30
0.0
  0
VERTEX
  5
2B3
330
2AF
100
AcDbEntity
  8
Valve
  6
Continuous
 62
     7
370
    25
100
AcDbVertex
100
AcDb2dVertex
 10
114.0
 20
70.35937999999996
 30
0.0
  0
SEQEND
  5
2B4
330
2AF
100
AcDbEntity
  8
Valve
  6
Continuous
 62
     7
370
    25
  0
SPLINE
  5
2B5
330
1F
100
AcDbEntity
  8
Valve
  6
Continuous
 62
     7
370
    25
100
AcDbSpline
210
0.0
220
0.0
230
1.0
 70
     8
 71
     2
 72
     6
 73
     3
 74
     0
 42
0.000000001
 43
0.0000000000001
 12
1.0
 22
0.0
 32
0.0
 13
1.0
 23
0.0
 33
0.0
 40
0.0
 40
0.0
 40
0.0
 40
1.0
 40
1.0
 40
1.0
 10
109.75
 20
87.64061000000001
 30
0.0
 10
107.2551440329218
 20
79.00049294238681
 30
0.0
 10
109.75
 20
70.35837999999998
 30
0.0
  0
SPLINE
  5
2B6
330
1F
100
AcDbEntity
  8
Valve
  6
Continuous
 62
     7
370
    25
100
AcDbSpline
210
0.0
220
0.0
230
1.0
 70
     8
 71
     2
 72
     6
 73
     3
 74
     0
 42
0.000000001
 43
0.0000000000001
 12
1.0
 22
0.0
 32
0.0
 13
1.0
 23
0.0
 33
0.0
 40
0.0
 40
0.0
 40
0.0
 40
1.0
 40
1.0
 40
1.0
 10
109.75
 20
87.64061000000001
 30
0.0
 10
107.3818338858089
 20
92.1789555144033
 30
0.0
 10
109.5002324801439
 20
95.99999999999999
 30
0.0
  0
SPLINE
  5
2B7
330
1F
100
AcDbEntity
  8
Valve
  6
Continuous
 62
     7
370
    25
100
AcDbSpline
210
0.0
220
0.0
230
1.0
 70
     8
 71
     2
 72
     6
 73
     3
 74
     0
 42
0.000000001
 43
0.0000000000001
 12
1.0
 22
0.0
 32
0.0
 13
1.0
 23
0.0
 33
0.0
 40
0.0
 40
0.0
 40
0.0
 40
1.0
 40
1.0
 40
1.0
 10
109.75
 20
70.35938999999996
 30
0.0
 10
107.3818338858089
 20
65.82104448559667
 30
0.0
 10
109.5002324801439
 20
61.99999999999999
 30
0.0
  0
LWPOLYLINE
  5
2B8
330
1F
100
AcDbEntity
  8
Valve
  6
Continuous
 62
     7
370
    25
100
AcDbPolyline
 90
       10
 70
   129
 43
0.0
 10
137.0000000000001
 20
102.70001
 42
-0.4142135623730951
 10
137.99999
 20
103.7
 10
141.0
 20
103.7
 10
159.0000000000001
 20
103.7
 10
162.00001
 20
103.7
 42
-0.4142135623730951
 10
163.0
 20
102.70001
 10
163.0
 20
100.7
 10
159.0000000000001
 20
100.7
 10
141.0
 20
100.7
 10
137.0000000000001
 20
100.7
  0
LINE
  5
2B9
330
1F
100
AcDbEntity
  8
Valve
  6
Continuous
 62
     7
370
    25
100
AcDbLine
 10
113.0
 20
70.35837999999998
 30
0.0
 11
109.75
 21
70.35837999999998
 31
0.0
  0
LINE
  5
2BA
330
1F
100
AcDbEntity
  8
Valve
  6
Continuous
 62
     7
370
    25
100
AcDbLine
 10
109.75
 20
87.64061000000001
 30
0.0
 11
113.0
 21
87.64061000000001
 31
0.0
  0
LINE
  5
2BB
330
1F
100
AcDbEntity
  8
Valve
  6
Continuous
 62
     7
370
    25
100
AcDbLine
 10
114.0
 20
87.64061000000001
 30
0.0
 11
116.0
 21
87.64061000000001
 31
0.0
  0
LINE
  5
2BC
330
1F
100
AcDbEntity
  8
Valve
  6
Continuous
 62
     7
370
    25
100
AcDbLine
 10
114.0
 20
70.35937999999996
 30
0.0
 11
116.0
 21
70.35937999999996
 31
0.0
  0
POLYLINE
  5
2BD
330
1F
100
AcDbEntity
  8
Valve
  6
Continuous
 62
     7
370
    25
100
AcDb2dPolyline
 66
     1
 10
0.0
 20
0.0
 30
0.0
 70
   129
  0
VERTEX
  5
2BE
330
2BD
100
AcDbEntity
  8
Valve
  6
Continuous
 62
     7
370
    25
100
AcDbVertex
100
AcDb2dVertex
 10
187.00001
 20
61.99999999999999
 30
0.0
  0
VERTEX
  5
2BF
330
2BD
100
AcDbEntity
  8
Valve
  6
Continuous
 62
     7
370
    25
100
AcDbVertex
100
AcDb2dVertex
 10
190.50001
 20
61.99999999999999
 30
0.0
  0
VERTEX
  5
2C0
330
2BD
100
AcDbEntity
  8
Valve
  6
Continuous
 62
     7
370
    25
100
AcDbVertex
100
AcDb2dVertex
 10
191.50001
 20
63.99999999999999
 30
0.0
  0
VERTEX
  5
2C1
330
2BD
100
AcDbEntity
  8
Valve
  6
Continuous
 62
     7
370
    25
100
AcDbVertex
100
AcDb2dVertex
 10
191.50001
 20
93.99999999999999
 30
0.0
  0
VERTEX
  5
2C2
330
2BD
100
AcDbEntity
  8
Valve
  6
Continuous
 62
     7
370
    25
100
AcDbVertex
100
AcDb2dVertex
 10
190.50001
 20
95.99999999999999
 30
0.0
  0
VERTEX
  5
2C3
330
2BD
100
AcDbEntity
  8
Valve
  6
Continuous
 62
     7
370
    25
100
AcDbVertex
100
AcDb2dVertex
 10
187.00001
 20
95.99999999999999
 30
0.0
  0
VERTEX
  5
2C4
330
2BD
100
AcDbEntity
  8
Valve
  6
Continuous
 62
     7
370
    25
100
AcDbVertex
100
AcDb2dVertex
 10
186.50001
 20
95.49999999999999
 30
0.0
  0
VERTEX
  5
2C5
330
2BD
100
AcDbEntity
  8
Valve
  6
Continuous
 62
     7
370
    25
100
AcDbVertex
100
AcDb2dVertex
 10
186.00001
 20
95.99999999999999
 30
0.0
  0
VERTEX
  5
2C6
330
2BD
100
AcDbEntity
  8
Valve
  6
Continuous
 62
     7
370
    25
100
AcDbVertex
100
AcDb2dVertex
 10
184.00001
 20
95.99999999999999
 30
0.0
  0
VERTEX
  5
2C7
330
2BD
100
AcDbEntity
  8
Valve
  6
Continuous
 62
     7
370
    25
100
AcDbVertex
100
AcDb2dVertex
 10
183.50001
 20
95.49999999999999
 30
0.0
  0
VERTEX
  5
2C8
330
2BD
100
AcDbEntity
  8
Valve
  6
Continuous
 62
     7
370
    25
100
AcDbVertex
100
AcDb2dVertex
 10
183.00001
 20
95.99999999999999
 30
0.0
  0
VERTEX
  5
2C9
330
2BD
100
AcDbEntity
  8
Valve
  6
Continuous
 62
     7
370
    25
100
AcDbVertex
100
AcDb2dVertex
 10
175.20001
 20
95.99999999999999
 30
0.0
  0
VERTEX
  5
2CA
330
2BD
100
AcDbEntity
  8
Valve
  6
Continuous
 62
     7
370
    25
100
AcDbVertex
100
AcDb2dVertex
 10
175.20001
 20
93.49999999999999
 30
0.0
  0
VERTEX
  5
2CB
330
2BD
100
AcDbEntity
  8
Valve
  6
Continuous
 62
     7
370
    25
100
AcDbVertex
100
AcDb2dVertex
 10
175.20001
 20
64.49999999999999
 30
0.0
  0
VERTEX
  5
2CC
330
2BD
100
AcDbEntity
  8
Valve
  6
Continuous
 62
     7
370
    25
100
AcDbVertex
100
AcDb2dVertex
 10
175.20001
 20
61.99999999999999
 30
0.0
  0
VERTEX
  5
2CD
330
2BD
100
AcDbEntity
  8
Valve
  6
Continuous
 62
     7
370
    25
100
AcDbVertex
100
AcDb2dVertex
 10
183.00001
 20
61.99999999999999
 30
0.0
  0
VERTEX
  5
2CE
330
2BD
100
AcDbEntity
  8
Valve
  6
Continuous
 62
     7
370
    25
100
AcDbVertex
100
AcDb2dVertex
 10
183.50001
 20
62.49999999999999
 30
0.0
  0
VERTEX
  5
2CF
330
2BD
100
AcDbEntity
  8
Valve
  6
Continuous
 62
     7
370
    25
100
AcDbVertex
100
AcDb2dVertex
 10
184.00001
 20
61.99999999999999
 30
0.0
  0
VERTEX
  5
2D0
330
2BD
100
AcDbEntity
  8
Valve
  6
Continuous
 62
     7
370
    25
100
AcDbVertex
100
AcDb2dVertex
 10
186.00001
 20
61.99999999999999
 30
0.0
  0
VERTEX
  5
2D1
330
2BD
100
AcDbEntity
  8
Valve
  6
Continuous
 62
     7
370
    25
100
AcDbVertex
100
AcDb2dVertex
 10
186.50001
 20
62.49999999999999
 30
0.0
  0
SEQEND
  5
2D2
330
2BD
100
AcDbEntity
  8
Valve
  6
Continuous
 62
     7
370
    25
  0
LINE
  5
2D3
330
1F
100
AcDbEntity
  8
Valve
  6
Continuous
 62
     7
370
    25
100
AcDbLine
 10
175.20001
 20
70.35837999999998
 30
0.0
 11
183.00001
 21
70.35837999999998
 31
0.0
  0
LINE
  5
2D4
330
1F
100
AcDbEntity
  8
Valve
  6
Continuous
 62
     7
370
    25
100
AcDbLine
 10
183.00001
 20
87.64061000000001
 30
0.0
 11
175.20001
 21
87.64061000000001
 31
0.0
  0
LINE
  5
2D5
330
1F
100
AcDbEntity
  8
Valve
  6
Continuous
 62
     7
370
    25
100
AcDbLine
 10
173.99951
 20
64.49999999999999
 30
0.0
 11
175.20001
 21
64.49999999999999
 31
0.0
  0
LINE
  5
2D6
330
1F
100
AcDbEntity
  8
Valve
  6
Continuous
 62
     7
370
    25
100
AcDbLine
 10
175.20001
 20
93.49999999999999
 30
0.0
 11
173.99951
 21
93.49999999999999
 31
0.0
  0
POLYLINE
  5
2D7
330
1F
100
AcDbEntity
  8
Valve
  6
Continuous
 62
     7
370
    25
100
AcDb2dPolyline
 66
     1
 10
0.0
 20
0.0
 30
0.0
 70
   129
  0
VERTEX
  5
2D8
330
2D7
100
AcDbEntity
  8
Valve
  6
Continuous
 62
     7
370
    25
100
AcDbVertex
100
AcDb2dVertex
 10
183.50001
 20
88.64061000000001
 30
0.0
  0
VERTEX
  5
2D9
330
2D7
100
AcDbEntity
  8
Valve
  6
Continuous
 62
     7
370
    25
100
AcDbVertex
100
AcDb2dVertex
 10
184.00001
 20
87.64061000000001
 30
0.0
  0
VERTEX
  5
2DA
330
2D7
100
AcDbEntity
  8
Valve
  6
Continuous
 62
     7
370
    25
100
AcDbVertex
100
AcDb2dVertex
 10
183.50001
 20
86.64061000000001
 30
0.0
  0
VERTEX
  5
2DB
330
2D7
100
AcDbEntity
  8
Valve
  6
Continuous
 62
     7
370
    25
100
AcDbVertex
100
AcDb2dVertex
 10
183.00001
 20
87.64061000000001
 30
0.0
  0
SEQEND
  5
2DC
330
2D7
100
AcDbEntity
  8
Valve
  6
Continuous
 62
     7
370
    25
  0
POLYLINE
  5
2DD
330
1F
100
AcDbEntity
  8
Valve
  6
Continuous
 62
     7
370
    25
100
AcDb2dPolyline
 66
     1
 10
0.0
 20
0.0
 30
0.0
 70
   129
  0
VERTEX
  5
2DE
330
2DD
100
AcDbEntity
  8
Valve
  6
Continuous
 62
     7
370
    25
100
AcDbVertex
100
AcDb2dVertex
 10
186.50001
 20
88.64061000000001
 30
0.0
  0
VERTEX
  5
2DF
330
2DD
100
AcDbEntity
  8
Valve
  6
Continuous
 62
     7
370
    25
100
AcDbVertex
100
AcDb2dVertex
 10
187.00001
 20
87.64061000000001
 30
0.0
  0
VERTEX
  5
2E0
330
2DD
100
AcDbEntity
  8
Valve
  6
Continuous
 62
     7
370
    25
100
AcDbVertex
100
AcDb2dVertex
 10
186.50001
 20
86.64061000000001
 30
0.0
  0
VERTEX
  5
2E1
330
2DD
100
AcDbEntity
  8
Valve
  6
Continuous
 62
     7
370
    25
100
AcDbVertex
100
AcDb2dVertex
 10
186.00001
 20
87.64061000000001
 30
0.0
  0
SEQEND
  5
2E2
330
2DD
100
AcDbEntity
  8
Valve
  6
Continuous
 62
     7
370
    25
  0
POLYLINE
  5
2E3
330
1F
100
AcDbEntity
  8
Valve
  6
Continuous
 62
     7
370
    25
100
AcDb2dPolyline
 66
     1
 10
0.0
 20
0.0
 30
0.0
 70
   129
  0
VERTEX
  5
2E4
330
2E3
100
AcDbEntity
  8
Valve
  6
Continuous
 62
     7
370
    25
100
AcDbVertex
100
AcDb2dVertex
 10
183.50001
 20
69.35937999999996
 30
0.0
  0
VERTEX
  5
2E5
330
2E3
100
AcDbEntity
  8
Valve
  6
Continuous
 62
     7
370
    25
100
AcDbVertex
100
AcDb2dVertex
 10
184.00001
 20
70.35937999999996
 30
0.0
  0
VERTEX
  5
2E6
330
2E3
100
AcDbEntity
  8
Valve
  6
Continuous
 62
     7
370
    25
100
AcDbVertex
100
AcDb2dVertex
 10
183.50001
 20
71.35937999999996
 30
0.0
  0
VERTEX
  5
2E7
330
2E3
100
AcDbEntity
  8
Valve
  6
Continuous
 62
     7
370
    25
100
AcDbVertex
100
AcDb2dVertex
 10
183.00001
 20
70.35937999999996
 30
0.0
  0
SEQEND
  5
2E8
330
2E3
100
AcDbEntity
  8
Valve
  6
Continuous
 62
     7
370
    25
  0
POLYLINE
  5
2E9
330
1F
100
AcDbEntity
  8
Valve
  6
Continuous
 62
     7
370
    25
100
AcDb2dPolyline
 66
     1
 10
0.0
 20
0.0
 30
0.0
 70
   129
  0
VERTEX
  5
2EA
330
2E9
100
AcDbEntity
  8
Valve
  6
Continuous
 62
     7
370
    25
100
AcDbVertex
100
AcDb2dVertex
 10
186.50001
 20
69.35937999999996
 30
0.0
  0
VERTEX
  5
2EB
330
2E9
100
AcDbEntity
  8
Valve
  6
Continuous
 62
     7
370
    25
100
AcDbVertex
100
AcDb2dVertex
 10
187.00001
 20
70.35937999999996
 30
0.0
  0
VERTEX
  5
2EC
330
2E9
100
AcDbEntity
  8
Valve
  6
Continuous
 62
     7
370
    25
100
AcDbVertex
100
AcDb2dVertex
 10
186.50001
 20
71.35937999999996
 30
0.0
  0
VERTEX
  5
2ED
330
2E9
100
AcDbEntity
  8
Valve
  6
Continuous
 62
     7
370
    25
100
AcDbVertex
100
AcDb2dVertex
 10
186.00001
 20
70.35937999999996
 30
0.0
  0
SEQEND
  5
2EE
330
2E9
100
AcDbEntity
  8
Valve
  6
Continuous
 62
     7
370
    25
  0
SPLINE
  5
2EF
330
1F
100
AcDbEntity
  8
Valve
  6
Continuous
 62
     7
370
    25
100
AcDbSpline
210
0.0
220
0.0
230
1.0
 70
     8
 71
     2
 72
     6
 73
     3
 74
     0
 42
0.000000001
 43
0.0000000000001
 12
1.0
 22
0.0
 32
0.0
 13
1.0
 23
0.0
 33
0.0
 40
0.0
 40
0.0
 40
0.0
 40
1.0
 40
1.0
 40
1.0
 10
190.25001
 20
87.64061000000001
 30
0.0
 10
192.7448659670782
 20
79.00049294238681
 30
0.0
 10
190.25001
 20
70.35837999999998
 30
0.0
  0
SPLINE
  5
2F0
330
1F
100
AcDbEntity
  8
Valve
  6
Continuous
 62
     7
370
    25
100
AcDbSpline
210
0.0
220
0.0
230
1.0
 70
     8
 71
     2
 72
     6
 73
     3
 74
     0
 42
0.000000001
 43
0.0000000000001
 12
1.0
 22
0.0
 32
0.0
 13
1.0
 23
0.0
 33
0.0
 40
0.0
 40
0.0
 40
0.0
 40
1.0
 40
1.0
 40
1.0
 10
190.25001
 20
87.64061000000001
 30
0.0
 10
192.6181761141911
 20
92.1789555144033
 30
0.0
 10
190.4997775198561
 20
95.99999999999999
 30
0.0
  0
SPLINE
  5
2F1
330
1F
100
AcDbEntity
  8
Valve
  6
Continuous
 62
     7
370
    25
100
AcDbSpline
210
0.0
220
0.0
230
1.0
 70
     8
 71
     2
 72
     6
 73
     3
 74
     0
 42
0.000000001
 43
0.0000000000001
 12
1.0
 22
0.0
 32
0.0
 13
1.0
 23
0.0
 33
0.0
 40
0.0
 40
0.0
 40
0.0
 40
1.0
 40
1.0
 40
1.0
 10
190.25001
 20
70.35938999999996
 30
0.0
 10
192.6181761141911
 20
65.82104448559667
 30
0.0
 10
190.4997775198561
 20
61.99999999999999
 30
0.0
  0
LINE
  5
2F2
330
1F
100
AcDbEntity
  8
Valve
  6
Continuous
 62
     7
370
    25
100
AcDbLine
 10
187.00001
 20
70.35837999999998
 30
0.0
 11
190.25001
 21
70.35837999999998
 31
0.0
  0
LINE
  5
2F3
330
1F
100
AcDbEntity
  8
Valve
  6
Continuous
 62
     7
370
    25
100
AcDbLine
 10
190.25001
 20
87.64061000000001
 30
0.0
 11
187.00001
 21
87.64061000000001
 31
0.0
  0
LINE
  5
2F4
330
1F
100
AcDbEntity
  8
Valve
  6
Continuous
 62
     7
370
    25
100
AcDbLine
 10
186.00001
 20
87.64061000000001
 30
0.0
 11
184.00001
 21
87.64061000000001
 31
0.0
  0
LINE
  5
2F5
330
1F
100
AcDbEntity
  8
Valve
  6
Continuous
 62
     7
370
    25
100
AcDbLine
 10
186.00001
 20
70.35937999999996
 30
0.0
 11
184.00001
 21
70.35937999999996
 31
0.0
  0
LINE
  5
2F6
330
1F
100
AcDbEntity
  8
Valve
  6
Continuous
 62
     7
370
    25
100
AcDbLine
 10
143.0
 20
100.0
 30
0.0
 11
143.0
 21
100.7
 31
0.0
  0
LINE
  5
2F7
330
1F
100
AcDbEntity
  8
Valve
  6
Continuous
 62
     7
370
    25
100
AcDbLine
 10
157.0000000000001
 20
100.0
 30
0.0
 11
157.0000000000001
 21
100.7
 31
0.0
  0
LINE
  5
2F8
330
1F
100
AcDbEntity
  8
Valve
  6
Continuous
 62
     7
370
    25
100
AcDbLine
 10
159.5
 20
100.0
 30
0.0
 11
159.5
 21
100.7
 31
0.0
  0
LINE
  5
2F9
330
1F
100
AcDbEntity
  8
Valve
  6
Continuous
 62
     7
370
    25
100
AcDbLine
 10
164.5
 20
100.0
 30
0.0
 11
164.5
 21
101.65092
 31
0.0
  0
LINE
  5
2FA
330
1F
100
AcDbEntity
  8
Valve
  6
Continuous
 62
     7
370
    25
100
AcDbLine
 10
164.5
 20
101.65092
 30
0.0
 11
164.25
 21
102.55092
 31
0.0
  0
LINE
  5
2FB
330
1F
100
AcDbEntity
  8
Valve
  6
Continuous
 62
     7
370
    25
100
AcDbLine
 10
164.25
 20
102.55092
 30
0.0
 11
162.9765276873676
 21
102.9154008223631
 31
0.0
  0
INSERT
  5
2FC
330
1F
100
AcDbEntity
  8
Valve
 62
     7
100
AcDbBlockReference
  2
グループ-2-1
 10
204.0
 20
142.5
 30
0.0
  0
LINE
  5
2FD
330
1F
100
AcDbEntity
  8
Lever
  6
Continuous
 62
     7
370
    25
100
AcDbLine
 10
49.22329710739174
 20
225.026984495016
 30
0.0
 11
116.0
 21
226.5
 31
0.0
  0
LINE
  5
2FE
330
1F
100
AcDbEntity
  8
Lever
  6
Continuous
 62
     7
370
    25
100
AcDbLine
 10
116.0
 20
213.5
 30
0.0
 11
49.22329710739174
 21
214.973015504984
 31
0.0
  0
LINE
  5
2FF
330
1F
100
AcDbEntity
  8
Lever
  6
Continuous
 62
     7
370
    25
100
AcDbLine
 10
137.0
 20
212.0
 30
0.0
 11
116.0
 21
213.5
 31
0.0
  0
LINE
  5
300
330
1F
100
AcDbEntity
  8
Lever
  6
Continuous
 62
     7
370
    25
100
AcDbLine
 10
145.458
 20
208.624
 30
0.0
 11
137.0
 21
212.0
 31
0.0
  0
LINE
  5
301
330
1F
100
AcDbEntity
  8
Lever
  6
Continuous
 62
     7
370
    25
100
AcDbLine
 10
137.0
 20
228.0
 30
0.0
 11
145.458
 21
231.377
 31
0.0
  0
LINE
  5
302
330
1F
100
AcDbEntity
  8
Lever
  6
Continuous
 62
     7
370
    25
100
AcDbLine
 10
116.0
 20
226.5
 30
0.0
 11
137.0
 21
228.0
 31
0.0
  0
ELLIPSE
  5
303
330
1F
100
AcDbEntity
  8
Lever
  6
Continuous
 62
     7
370
    25
100
AcDbEllipse
 10
150.0
 20
220.0
 30
0.0
 11
12.25
 21
0.0
 31
0.0
210
0.0
220
0.0
230
1.0
 40
1.0
 41
0.0
 42
6.283185307179586
  0
ELLIPSE
  5
304
330
1F
100
AcDbEntity
  8
Lever
  6
Continuous
 62
     7
370
    25
100
AcDbEllipse
 10
43.00000000000003
 20
220.0
 30
0.0
 11
8.0
 21
0.0
 31
0.0
210
0.0
220
0.0
230
1.0
 40
1.0
 41
0.0
 42
6.283185307179586
  0
SPLINE
  5
305
330
1F
100
AcDbEntity
  8
Lever
  6
Continuous
 62
     7
370
    25
100
AcDbSpline
210
0.0
220
0.0
230
1.0
 70
     8
 71
     2
 72
     8
 73
     5
 74
     0
 42
0.000000001
 43
0.0000000000001
 12
1.0
 22
0.0
 32
0.0
 13
1.0
 23
0.0
 33
0.0
 40
0.0
 40
0.0
 40
0.0
 40
1.0
 40
2.0
 40
3.0
 40
3.0
 40
3.0
 10
136.477
 20
226.5
 30
0.0
 10
137.0099122910634
 20
225.3578488575166
 30
0.0
 10
137.9967022472862
 20
220.21393249674
 30
0.0
 10
137.0098619963223
 20
213.3574372775506
 30
0.0
 10
136.477
 20
213.5
 30
0.0
  0
LINE
  5
306
330
1F
100
AcDbEntity
  8
Lever
  6
Continuous
 62
     7
370
    25
100
AcDbLine
 10
116.0
 20
224.0
 30
0.0
 11
116.0
 21
216.0
 31
0.0
  0
INSERT
  5
307
330
1F
100
AcDbEntity
  8
Lever
 62
     7
100
AcDbBlockReference
  2
グループ-4-1
 10
204.0
 20
142.5
 30
0.0
  0
INSERT
  5
308
330
1F
100
AcDbEntity
  8
Lever
 62
     7
100
AcDbBlockReference
  2
グループ-5-1
 10
204.0
 20
142.5
 30
0.0
  0
INSERT
  5
309
330
1F
100
AcDbEntity
  8
Lever
 62
     7
100
AcDbBlockReference
  2
グループ-7-1
 10
204.0
 20
142.5
 30
0.0
  0
SPLINE
  5
30A
330
1F
100
AcDbEntity
  8
Lever
  6
Continuous
 62
     7
370
    25
100
AcDbSpline
210
0.0
220
0.0
230
1.0
 70
     8
 71
     2
 72
    15
 73
    12
 74
     0
 42
0.000000001
 43
0.0000000000001
 12
1.0
 22
0.0
 32
0.0
 13
1.0
 23
0.0
 33
0.0
 40
0.0
 40
0.0
 40
0.0
 40
1.0
 40
1.0
 40
2.0
 40
3.0
 40
4.0
 40
5.0
 40
6.0
 40
7.0
 40
7.0
 40
8.0
 40
8.0
 40
8.0
 10
51.02467988526251
 20
143.74544371349
 30
0.0
 10
50.56303216090333
 20
145.0828603014192
 30
0.0
 10
49.24999999999991
 20
146.25
 30
0.0
 10
46.99999999999994
 20
148.25
 30
0.0
 10
40.49999999999986
 20
148.75
 30
0.0
 10
35.49999999999991
 20
145.75
 30
0.0
 10
34.99999999999991
 20
140.75
 30
0.0
 10
39.49999999999989
 20
136.75
 30
0.0
 10
45.99999999999994
 20
136.25
 30
0.0
 10
48.49999999999991
 20
137.75
 30
0.0
 10
49.42136720179826
 20
138.302820321079
 30
0.0
 10
50.03712409591878
 20
138.9914674456961
 30
0.0
  0
SPLINE
  5
30B
330
1F
100
AcDbEntity
  8
Lever
  6
Continuous
 62
     7
370
    25
100
AcDbSpline
210
0.0
220
0.0
230
1.0
 70
    15
 71
     2
 72
    32
 73
    29
 74
     0
 42
0.000000001
 43
0.0000000000001
 12
1.0
 22
0.0
 32
0.0
 13
1.0
 23
0.0
 33
0.0
 40
0.0
 40
0.0
 40
0.0
 40
1.0
 40
1.0
 40
2.0
 40
2.0
 40
3.0
 40
3.0
 40
4.0
 40
4.0
 40
5.0
 40
5.0
 40
6.0
 40
6.0
 40
7.0
 40
7.0
 40
8.0
 40
8.0
 40
9.0
 40
9.0
 40
10.0
 40
10.0
 40
11.0
 40
11.0
 40
12.0
 40
12.0
 40
13.0
 40
13.0
 40
14.0
 40
14.0
 40
14.0
 10
162.9999999999999
 20
110.75001
 30
0.0
 41
1.0
 10
162.9999999999999
 20
108.25
 30
0.0
 41
1.0
 10
162.9999999999999
 20
105.74999
 30
0.0
 41
1.0
 10
162.9999999999999
 20
103.75
 30
0.0
 41
0.7071067811865477
 10
161.0000099999999
 20
103.75
 30
0.0
 41
1.0
 10
149.2514752322098
 20
103.75
 30
0.0
 41
1.0
 10
137.5029404644197
 20
103.75
 30
0.0
 41
1.0
 10
135.9999999999999
 20
103.75
 30
0.0
 41
0.9361027440155474
 10
134.8689220329456
 20
104.7396932211725
 30
0.0
 41
1.0
 10
126.2743664690124
 20
112.2599293396141
 30
0.0
 41
1.0
 10
117.6798109050791
 20
119.7801654580557
 30
0.0
 41
1.0
 10
112.0
 20
124.7499999999999
 30
0.0
 41
0.9697827927575993
 10
104.6446245519412
 20
126.4405500021748
 30
0.0
 41
1.0
 10
77.3223122759706
 20
132.7202750010874
 30
0.0
 41
1.0
 10
49.99999999999994
 20
139.0
 30
0.0
 41
1.0
 10
48.50411522633738
 20
142.1234567901234
 30
0.0
 41
1.0
 10
50.99999999999991
 20
143.75
 30
0.0
 41
1.0
 10
82.80252675419888
 20
137.8787642915325
 30
0.0
 41
1.0
 10
114.6050535083978
 20
132.007528583065
 30
0.0
 41
1.0
 10
115.9999999999999
 20
131.75
 30
0.0
 41
0.9620331839936659
 10
117.051882730963
 20
130.7982965767477
 30
0.0
 41
1.0
 10
126.7402718128679
 20
122.032611216929
 30
0.0
 41
1.0
 10
136.4286608947728
 20
113.2669258571102
 30
0.0
 41
1.0
 10
136.9999999999999
 20
112.75
 30
0.0
 41
0.9331494465314132
 10
137.7704808335778
 20
112.75
 30
0.0
 41
1.0
 10
149.3852454167888
 20
112.75
 30
0.0
 41
1.0
 10
161.0000099999999
 20
112.75
 30
0.0
 41
1.0
 10
162.9999999999999
 20
112.75
 30
0.0
 41
0.7071067811865488
 10
162.9999999999999
 20
110.75001
 30
0.0
 41
1.0
  0
LWPOLYLINE
  5
30C
330
1F
100
AcDbEntity
  8
Lever
  6
Continuous
 62
     7
370
    25
100
AcDbPolyline
 90
        8
 70
   129
 43
0.0
 10
162.9999999999999
 20
110.75001
 42
0.414213562373094
 10
161.0000099999999
 20
112.75
 10
138.9999899999999
 20
112.75
 42
0.4142135623730955
 10
136.9999999999999
 20
110.75001
 10
136.9999999999999
 20
105.74999
 42
0.4142135623730951
 10
138.9999899999999
 20
103.75
 10
161.0000099999999
 20
103.75
 42
0.4142135623730951
 10
162.9999999999999
 20
105.74999
  0
INSERT
  5
30D
330
1F
100
AcDbEntity
  8
Dimension
 62
     7
100
AcDbBlockReference
  2
グループ-8-1
 10
204.0
 20
142.5
 30
0.0
  0
LINE
  5
30E
330
1F
100
AcDbEntity
  8
Dimension
  6
破線の種類-11
 62
     7
370
     9
100
AcDbLine
 10
151.86091
 20
79.0
 30
0.0
 11
193.86091
 21
79.0
 31
0.0
  0
LINE
  5
30F
330
1F
100
AcDbEntity
  8
Dimension
  6
破線の種類-11
 62
     7
370
     9
100
AcDbLine
 10
148.1391
 20
79.0
 30
0.0
 11
106.1391
 21
79.0
 31
0.0
  0
LINE
  5
310
330
1F
100
AcDbEntity
  8
Dimension
  6
破線の種類-11
 62
     7
370
     9
100
AcDbLine
 10
150.0
 20
77.13910000000001
 30
0.0
 11
150.0
 21
59.13910000000001
 31
0.0
  0
LINE
  5
311
330
1F
100
AcDbEntity
  8
Dimension
  6
破線の種類-11
 62
     7
370
     9
100
AcDbLine
 10
150.0
 20
80.86090999999999
 30
0.0
 11
150.0
 21
120.86091
 31
0.0
  0
INSERT
  5
312
330
1F
100
AcDbEntity
  8
Dimension
 62
     7
100
AcDbBlockReference
  2
グループ-9-1
 10
204.0
 20
142.5
 30
0.0
  0
LINE
  5
313
330
1F
100
AcDbEntity
  8
Dimension
  6
破線の種類-11
 62
     7
370
     9
100
AcDbLine
 10
151.86091
 20
220.0
 30
0.0
 11
187.86091
 21
220.0
 31
0.0
  0
LINE
  5
314
330
1F
100
AcDbEntity
  8
Dimension
  6
破線の種類-11
 62
     7
370
     9
100
AcDbLine
 10
148.1391
 20
220.0
 30
0.0
 11
33.13910000000001
 21
220.0
 31
0.0
  0
LINE
  5
315
330
1F
100
AcDbEntity
  8
Dimension
  6
破線の種類-11
 62
     7
370
     9
100
AcDbLine
 10
150.0
 20
218.13909
 30
0.0
 11
150.0
 21
200.13909
 31
0.0
  0
LINE
  5
316
330
1F
100
AcDbEntity
  8
Dimension
  6
破線の種類-11
 62
     7
370
     9
100
AcDbLine
 10
150.0
 20
221.8609
 30
0.0
 11
150.0
 21
239.8609
 31
0.0
  0
INSERT
  5
317
330
1F
100
AcDbEntity
  8
Dimension
 62
     7
100
AcDbBlockReference
  2
グループ-10-1
 10
204.0
 20
142.5
 30
0.0
  0
LINE
  5
318
330
1F
100
AcDbEntity
  8
Dimension
  6
破線の種類-11
 62
     7
370
     9
100
AcDbLine
 10
266.8609
 20
79.0
 30
0.0
 11
283.8609
 21
79.0
 31
0.0
  0
LINE
  5
319
330
1F
100
AcDbEntity
  8
Dimension
  6
破線の種類-11
 62
     7
370
     9
100
AcDbLine
 10
263.13909
 20
79.0
 30
0.0
 11
246.13909
 21
79.0
 31
0.0
  0
LINE
  5
31A
330
1F
100
AcDbEntity
  8
Dimension
  6
破線の種類-11
 62
     7
370
     9
100
AcDbLine
 10
265.0
 20
77.13910000000001
 30
0.0
 11
265.0
 21
59.13910000000001
 31
0.0
  0
LINE
  5
31B
330
1F
100
AcDbEntity
  8
Dimension
  6
破線の種類-11
 62
     7
370
     9
100
AcDbLine
 10
265.0
 20
80.86090999999999
 30
0.0
 11
265.0
 21
153.86091
 31
0.0
  0
DIMENSION
  5
31C
330
1F
100
AcDbEntity
  8
Dimension
  6
Continuous
 62
     7
370
     9
100
AcDbDimension
  2
*D11
 10
108.50001
 20
39.00050999999999
 30
0.0
 11
150.000005
 21
40.70454645833333
 31
0.0
 70
    32
 71
     5
 42
82.99999
  3
JOJI
100
AcDbAlignedDimension
 13
191.5
 23
79.00051000000002
 33
0.0
 14
108.50001
 24
78.99950999999999
 34
0.0
100
AcDbRotatedDimension
1001
ACAD
1000
DSTYLE
1002
{
1070
   147
1040
0.1
1070
   340
1005
79
1070
   279
1070
     2
1002
}
  0
DIMENSION
  5
31D
330
1F
100
AcDbEntity
  8
Dimension
  6
Continuous
 62
     7
370
     9
100
AcDbDimension
  2
*D12
 10
303.0
 20
148.7
 30
0.0
 11
300.455753968254
 21
124.35
 31
0.0
 70
    32
 71
     5
 42
48.69999999999999
  3
JOJI
100
AcDbAlignedDimension
 13
281.0
 23
100.0
 33
0.0
 14
265.0
 24
148.7
 34
0.0
 50
-90.0
100
AcDbRotatedDimension
1001
ACAD
1000
DSTYLE
1002
{
1070
   147
1040
0.1
1070
     3
1000
(<>)
1070
   340
1005
79
1070
   279
1070
     2
1070
   271
1070
     0
1002
}
  0
DIMENSION
  5
31E
330
1F
100
AcDbEntity
  8
Dimension
  6
Continuous
 62
     7
370
     9
100
AcDbDimension
  2
*D13
 10
303.0
 20
100.0
 30
0.0
 11
301.2959635416667
 21
80.0
 31
0.0
 70
    32
 71
     5
 42
40.0
  3
JOJI
100
AcDbAlignedDimension
 13
264.8609
 23
60.0
 33
0.0
 14
265.0
 24
100.0
 34
0.0
 50
-90.0
100
AcDbRotatedDimension
1001
ACAD
1000
DSTYLE
1002
{
1070
   147
1040
0.1
1070
   340
1005
79
1070
   279
1070
     2
1002
}
  0
DIMENSION
  5
31F
330
1F
100
AcDbEntity
  8
Dimension
  6
Continuous
 62
     7
370
     9
100
AcDbDimension
  2
*D14
 10
293.0
 20
60.00000000000001
 30
0.0
 11
291.2959635416667
 21
69.5
 31
0.0
 70
    32
 71
     5
 42
19.0
  3
JOJI
100
AcDbAlignedDimension
 13
283.8609
 23
79.0
 33
0.0
 14
264.8609
 24
60.0
 34
0.0
 50
-90.0
100
AcDbRotatedDimension
1001
ACAD
1000
DSTYLE
1002
{
1070
   147
1040
0.1
1070
   340
1005
79
1070
   279
1070
     2
1002
}
  0
DIMENSION
  5
320
330
1F
100
AcDbEntity
  8
Dimension
  6
Continuous
 62
     7
370
     9
100
AcDbDimension
  2
*D15
 10
250.00001
 20
49.50001
 30
0.0
 11
265.0
 21
51.20404645833334
 31
0.0
 70
    32
 71
     5
 42
29.99998000000002
  3
JOJI
100
AcDbAlignedDimension
 13
279.99999
 23
79.00001
 33
0.0
 14
250.00001
 24
79.00001
 34
0.0
100
AcDbRotatedDimension
1001
ACAD
1000
DSTYLE
1002
{
1070
   147
1040
0.1
1070
   340
1005
79
1070
   279
1070
     2
1002
}
  0
DIMENSION
  5
321
330
1F
100
AcDbEntity
  8
Dimension
  6
Continuous
 62
     7
370
     9
100
AcDbDimension
  2
*D16
 10
247.5
 20
39.0005
 30
0.0
 11
265.0
 21
40.70453645833334
 31
0.0
 70
    32
 71
     5
 42
35.0
  3
JOJI
100
AcDbAlignedDimension
 13
282.5
 23
79.0
 33
0.0
 14
247.5
 24
79.0
 34
0.0
100
AcDbRotatedDimension
1001
ACAD
1000
DSTYLE
1002
{
1070
   147
1040
0.1
1070
   340
1005
79
1070
   279
1070
     2
1002
}
  0
DIMENSION
  5
322
330
1F
100
AcDbEntity
  8
Dimension
  6
Continuous
 62
     7
370
     9
100
AcDbDimension
  2
*D17
 10
35.30722
 20
157.24351
 30
0.0
 11
92.65360999999999
 21
159.787756031746
 31
0.0
 70
    32
  1
(115)
 71
     5
 42
114.69278
  3
JOJI
100
AcDbAlignedDimension
 13
150.0
 23
121.36091
 33
0.0
 14
35.30722
 24
142.24351
 34
0.0
100
AcDbRotatedDimension
1001
ACAD
1000
DSTYLE
1002
{
1070
   147
1040
0.1
1070
   340
1005
79
1070
   279
1070
     2
1002
}
  0
DIMENSION
  5
323
330
1F
100
AcDbEntity
  8
Dimension
  6
Continuous
 62
     7
370
     9
100
AcDbDimension
  2
*D18
 10
126.00051
 20
49.5
 30
0.0
 11
150.0
 21
51.20403645833333
 31
0.0
 70
    32
 71
     5
 42
47.99898000000002
  3
JOJI
100
AcDbAlignedDimension
 13
173.99949
 23
60.0
 33
0.0
 14
126.00051
 24
60.0
 34
0.0
100
AcDbRotatedDimension
1001
ACAD
1000
DSTYLE
1002
{
1070
   147
1040
0.1
1070
   340
1005
79
1070
   279
1070
     2
1002
}
  0
MTEXT
  5
324
330
1F
100
AcDbEntity
  8
Dimension
 62
     7
100
AcDbMText
 10
243.2830008612738
 20
215.4956315893733
 30
0.0
 40
6.416145833333332
 41
0.0
 71
     1
 72
     1
  1
{\fＶＷゴシック Std W5|b0|i0|c128|p0;BKH - Rc1/2 - 02}
 73
     1
 44
1.120854552229537
  0
DIMENSION
  5
325
330
1F
100
AcDbEntity
  8
Dimension
  6
Continuous
 62
     7
370
     9
100
AcDbDimension
  2
*D19
 10
269.9934383173829
 20
74.83880140218089
 30
0.0
 11
236.4517175099207
 21
99.00000000000004
 31
0.0
 70
   163
 71
     5
 42
12.99999999999997
  3
JOJI
100
AcDbDiametricDimension
 15
260.0065616826171
 25
83.16119859781912
 35
0.0
 40
0.0
1001
ACAD
1000
DSTYLE
1002
{
1070
   174
1070
     0
1070
     3
1000

1070
    75
1070
     1
1070
    76
1070
     1
1070
    74
1070
     1
1070
    73
1070
     1
1070
   340
1005
79
1070
   342
1005
8A
1070
   289
1070
     0
1070
   172
1070
     1
1002
}
  0
LINE
  5
326
330
1F
100
AcDbEntity
  8
Dimension
  6
Continuous
 62
     7
370
     9
100
AcDbLine
 10
257.7003053035659
 20
70.77112052957077
 30
0.0
 11
237.4999999999999
 21
47.99950000000001
 31
0.0
  0
POLYLINE
  5
327
102
{ACAD_REACTORS
330
32C
102
}
330
1F
100
AcDbEntity
  8
Dimension
  6
Continuous
 62
     7
370
     5
100
AcDb2dPolyline
 66
     1
 10
0.0
 20
0.0
 30
0.0
 70
   129
  0
VERTEX
  5
328
330
327
100
AcDbEntity
  8
Dimension
  6
Continuous
 62
     7
370
     5
100
AcDbVertex
100
AcDb2dVertex
 10
255.9838443713594
 20
69.61335301197015
 30
0.0
  0
VERTEX
  5
329
330
327
100
AcDbEntity
  8
Dimension
  6
Continuous
 62
     7
370
     5
100
AcDbVertex
100
AcDb2dVertex
 10
257.7003053035659
 20
70.77112052957077
 30
0.0
  0
VERTEX
  5
32A
330
327
100
AcDbEntity
  8
Dimension
  6
Continuous
 62
     7
370
     5
100
AcDbVertex
100
AcDb2dVertex
 10
256.7926902904718
 20
68.9102339815489
 30
0.0
  0
SEQEND
  5
32B
330
327
100
AcDbEntity
  8
Dimension
  6
Continuous
 62
     7
370
     5
  0
HATCH
  5
32C
330
1F
100
AcDbEntity
  8
Dimension
  6
Continuous
 62
     7
370
     0
100
AcDbHatch
 10
0.0
 20
0.0
 30
0.0
210
0.0
220
0.0
230
1.0
  2
SOLID
 70
     1
 71
     1
 91
        1
 92
        1
 93
        3
 72
     1
 10
255.9838443713594
 20
69.61335301197015
 11
257.7003053035659
 21
70.77112052957077
 72
     1
 10
257.7003053035659
 20
70.77112052957077
 11
256.7926902904718
 21
68.9102339815489
 72
     1
 10
256.7926902904718
 20
68.9102339815489
 11
255.9838443713594
 21
69.61335301197015
 97
        1
330
327
 75
     0
 76
     1
 98
        1
 10
0.0
 20
0.0
  0
LINE
  5
32D
330
1F
100
AcDbEntity
  8
Dimension
  6
Continuous
 62
     7
370
     9
100
AcDbLine
 10
237.4999999999999
 20
47.99950000000001
 30
0.0
 11
219.8160003768072
 21
47.99950000000001
 31
0.0
  0
MTEXT
  5
32E
330
1F
100
AcDbEntity
  8
Dimension
 62
     7
100
AcDbMText
 10
219.8160003768072
 20
52.70757291666668
 30
0.0
 40
3.208072916666666
 41
0.0
 71
     1
 72
     1
  1
{\fＶＷゴシック Std W5|b0|i0|c128|p0;Rc 1/2}
 73
     1
 44
1.120854552229537
  0
VIEWPORT
  5
32F
330
1B
100
AcDbEntity
 67
     1
  8
0
100
AcDbViewport
 10
128.5
 20
97.5
 30
0.0
 40
314.226
 41
222.18
 68
     1
 69
     1
 12
128.5
 22
97.5
 13
0.0
 23
0.0
 14
10.0
 24
10.0
 15
10.0
 25
10.0
 16
0.0
 26
0.0
 36
1.0
 17
0.0
 27
0.0
 37
0.0
 42
50.0
 43
0.0
 44
0.0
 45
222.18
 50
0.0
 51
0.0
 72
   100
 90
   557152
  1

281
     0
 71
     1
 74
     0
110
0.0
120
0.0
130
0.0
111
1.0
121
0.0
131
0.0
112
0.0
122
1.0
132
0.0
 79
     0
146
0.0
  0
ENDSEC
  0
SECTION
  2
OBJECTS
  0
DICTIONARY
  5
C
330
0
100
AcDbDictionary
281
     1
  3
ACAD_GROUP
350
D
  3
ACAD_LAYOUT
350
1A
  3
ACAD_MATERIAL
350
3B
  3
ACAD_MLEADERSTYLE
350
332
  3
ACAD_MLINESTYLE
350
17
  3
ACAD_PLOTSETTINGS
350
19
  3
ACAD_PLOTSTYLENAME
350
E
  3
ACAD_VISUALSTYLE
350
2A
  3
ACAD_WIPEOUT_VARS
350
78
  3
AcDbVariableDictionary
350
330
  0
DICTIONARY
  5
D
102
{ACAD_REACTORS
330
C
102
}
330
C
100
AcDbDictionary
281
     1
  0
DICTIONARY
  5
1A
102
{ACAD_REACTORS
330
C
102
}
330
C
100
AcDbDictionary
281
     1
  3
Layout1
350
1E
  3
Model
350
22
  0
DICTIONARY
  5
3B
102
{ACAD_REACTORS
330
C
102
}
330
C
100
AcDbDictionary
281
     1
  3
ByBlock
350
3D
  3
ByLayer
350
3C
  3
Global
350
3E
  0
DICTIONARY
  5
332
102
{ACAD_REACTORS
330
C
102
}
330
C
100
AcDbDictionary
281
     1
  0
DICTIONARY
  5
17
102
{ACAD_REACTORS
330
C
102
}
330
C
100
AcDbDictionary
281
     1
  3
Standard
350
18
  0
DICTIONARY
  5
19
102
{ACAD_REACTORS
330
C
102
}
330
C
100
AcDbDictionary
281
     1
  0
ACDBDICTIONARYWDFLT
  5
E
102
{ACAD_REACTORS
330
C
102
}
330
C
100
AcDbDictionary
281
     1
  3
Normal
350
F
100
AcDbDictionaryWithDefault
340
F
  0
DICTIONARY
  5
2A
102
{ACAD_REACTORS
330
C
102
}
330
C
100
AcDbDictionary
281
     1
  3
2dWireframe
350
2F
  3
3D Hidden
350
31
  3
3dWireframe
350
30
  3
Basic
350
32
  3
Brighten
350
36
  3
ColorChange
350
3A
  3
Conceptual
350
34
  3
Dim
350
35
  3
Facepattern
350
39
  3
Flat
350
2B
  3
FlatWithEdges
350
2C
  3
Gouraud
350
2D
  3
GouraudWithEdges
350
2E
  3
Linepattern
350
38
  3
Realistic
350
33
  3
Thicken
350
37
  0
WIPEOUTVARIABLES
  5
78
102
{ACAD_REACTORS
330
C
102
}
330
C
100
AcDbWipeoutVariables
 70
     0
  0
DICTIONARY
  5
330
102
{ACAD_REACTORS
330
C
102
}
330
C
100
AcDbDictionary
281
     1
  3
DIMASSOC
350
334
  3
HIDETEXT
350
335
  3
XCLIPFRAME
350
333
  0
LAYOUT
  5
1E
102
{ACAD_REACTORS
330
1A
102
}
330
1A
100
AcDbPlotSettings
  1

  2
none_device
  4
ISO_A4_(210.00_x_297.00_MM)
  6

 40
7.5
 41
20.0
 42
7.5
 43
20.0
 44
210.0
 45
297.0
 46
0.0
 47
0.0
 48
0.0
 49
0.0
140
0.0
141
0.0
142
1.0
143
1.0
 70
   688
 72
     1
 73
     1
 74
     5
  7

 75
    16
147
1.0
148
0.0
149
0.0
100
AcDbLayout
  1
Layout1
 70
     1
 71
     1
 10
-20.0
 20
-7.5
 11
277.0
 21
202.5
 12
0.0
 22
0.0
 32
0.0
 14
1.000000000000000E+20
 24
1.000000000000000E+20
 34
1.000000000000000E+20
 15
-1.000000000000000E+20
 25
-1.000000000000000E+20
 35
-1.000000000000000E+20
146
0.0
 13
0.0
 23
0.0
 33
0.0
 16
1.0
 26
0.0
 36
0.0
 17
0.0
 27
1.0
 37
0.0
 76
     0
330
1B
331
32F
  0
LAYOUT
  5
22
102
{ACAD_REACTORS
330
1A
102
}
330
1A
100
AcDbPlotSettings
  1

  2
none_device
  4

  6

 40
0.0
 41
0.0
 42
0.0
 43
0.0
 44
0.0
 45
0.0
 46
0.0
 47
0.0
 48
0.0
 49
0.0
140
0.0
141
0.0
142
1.0
143
1.0
 70
  1712
 72
     0
 73
     0
 74
     0
  7

 75
     0
147
1.0
148
0.0
149
0.0
100
AcDbLayout
  1
Model
 70
     1
 71
     0
 10
0.0
 20
0.0
 11
12.0
 21
9.0
 12
0.0
 22
0.0
 32
0.0
 14
33.13910000000001
 24
37.0005
 34
-2.060363333333333
 15
312.8684175279404
 25
239.8609
 35
2.060363333333333
146
0.0
 13
0.0
 23
0.0
 33
0.0
 16
1.0
 26
0.0
 36
0.0
 17
0.0
 27
1.0
 37
0.0
 76
     0
330
1F
331
29
  0
MATERIAL
  5
3D
102
{ACAD_REACTORS
330
3B
102
}
102
{ACAD_XDICTIONARY
360
358
102
}
330
3B
100
AcDbMaterial
  1
ByBlock
  0
MATERIAL
  5
3C
102
{ACAD_REACTORS
330
3B
102
}
102
{ACAD_XDICTIONARY
360
356
102
}
330
3B
100
AcDbMaterial
  1
ByLayer
  0
MATERIAL
  5
3E
102
{ACAD_REACTORS
330
3B
102
}
102
{ACAD_XDICTIONARY
360
35A
102
}
330
3B
100
AcDbMaterial
  1
Global
  0
MLINESTYLE
  5
18
102
{ACAD_REACTORS
330
17
102
}
330
17
100
AcDbMlineStyle
  2
Standard
 70
     0
  3

 62
   256
 51
90.0
 52
90.0
 71
     2
 49
0.5
 62
   256
  6
BYLAYER
 49
-0.5
 62
   256
  6
BYLAYER
  0
ACDBPLACEHOLDER
  5
F
102
{ACAD_REACTORS
330
E
102
}
330
E
  0
VISUALSTYLE
  5
2F
102
{ACAD_REACTORS
330
2A
102
}
102
{ACAD_XDICTIONARY
360
33E
102
}
330
2A
100
AcDbVisualStyle
  2
2dWireframe
 70
     4
 71
     0
 72
     2
 73
     0
 90
        0
 40
-0.6
 41
-30.0
 62
     5
 63
     7
 74
     1
 91
        4
 64
     7
 65
   257
 75
     1
175
     1
 42
1.0
 92
        0
 66
   257
 43
1.0
 76
     1
 77
     6
 78
     2
 67
     7
 79
     5
170
     0
171
     0
290
     0
174
     0
 93
        1
 44
0.0
173
     0
291
     0
 45
0.0
1001
ACAD
1000
AcDbSavedByObjectVersion
1070
     0
  0
VISUALSTYLE
  5
31
102
{ACAD_REACTORS
330
2A
102
}
102
{ACAD_XDICTIONARY
360
342
102
}
330
2A
100
AcDbVisualStyle
  2
3D Hidden
 70
     6
 71
     1
 72
     2
 73
     2
 90
        0
 40
-0.6
 41
-30.0
 62
     5
 63
     7
 74
     2
 91
        2
 64
     7
 65
   257
 75
     2
175
     1
 42
40.0
 92
        0
 66
   257
 43
1.0
 76
     1
 77
     6
 78
     2
 67
     7
 79
     3
170
     0
171
     0
290
     0
174
     0
 93
        1
 44
0.0
173
     0
291
     0
 45
0.0
1001
ACAD
1000
AcDbSavedByObjectVersion
1070
     0
  0
VISUALSTYLE
  5
30
102
{ACAD_REACTORS
330
2A
102
}
102
{ACAD_XDICTIONARY
360
340
102
}
330
2A
100
AcDbVisualStyle
  2
3dWireframe
 70
     5
 71
     0
 72
     2
 73
     0
 90
        0
 40
-0.6
 41
-30.0
 62
     5
 63
     7
 74
     1
 91
        4
 64
     7
 65
   257
 75
     1
175
     1
 42
1.0
 92
        0
 66
   257
 43
1.0
 76
     1
 77
     6
 78
     2
 67
     7
 79
     5
170
     0
171
     0
290
     0
174
     0
 93
        1
 44
0.0
173
     0
291
     0
 45
0.0
1001
ACAD
1000
AcDbSavedByObjectVersion
1070
     0
  0
VISUALSTYLE
  5
32
102
{ACAD_REACTORS
330
2A
102
}
102
{ACAD_XDICTIONARY
360
344
102
}
330
2A
100
AcDbVisualStyle
  2
Basic
 70
     7
 71
     1
 72
     0
 73
     1
 90
        0
 40
-0.6
 41
-30.0
 62
     5
 63
     7
 74
     0
 91
        4
 64
     7
 65
   257
 75
     1
175
     1
 42
1.0
 92
        8
 66
     7
 43
1.0
 76
     1
 77
     6
 78
     2
 67
     7
 79
     5
170
     0
171
     0
290
     0
174
     0
 93
        1
 44
0.0
173
     0
291
     1
 45
0.0
1001
ACAD
1000
AcDbSavedByObjectVersion
1070
     0
  0
VISUALSTYLE
  5
36
102
{ACAD_REACTORS
330
2A
102
}
102
{ACAD_XDICTIONARY
360
34C
102
}
330
2A
100
AcDbVisualStyle
  2
Brighten
 70
    12
 71
     2
 72
     2
 73
     0
 90
        0
 40
-0.6
 41
-30.0
 62
     5
 63
     7
 74
     1
 91
        4
 64
     7
 65
   257
 75
     1
175
     1
 42
1.0
 92
        8
 66
     7
 43
1.0
 76
     1
 77
     6
 78
     2
 67
     7
 79
     5
170
     0
171
     0
290
     0
174
     0
 93
        1
 44
50.0
173
     0
291
     1
 45
0.0
1001
ACAD
1000
AcDbSavedByObjectVersion
1070
     0
  0
VISUALSTYLE
  5
3A
102
{ACAD_REACTORS
330
2A
102
}
102
{ACAD_XDICTIONARY
360
354
102
}
330
2A
100
AcDbVisualStyle
  2
ColorChange
 70
    16
 71
     2
 72
     2
 73
     3
 90
        0
 40
-0.6
 41
-30.0
 62
     5
 63
     8
 74
     1
 91
        4
 64
     7
 65
   257
 75
     1
175
     1
 42
1.0
 92
        8
 66
     8
 43
1.0
 76
     1
 77
     6
 78
     2
 67
     7
 79
     5
170
     0
171
     0
290
     0
174
     0
 93
        1
 44
0.0
173
     0
291
     1
 45
0.0
1001
ACAD
1000
AcDbSavedByObjectVersion
1070
     0
  0
VISUALSTYLE
  5
34
102
{ACAD_REACTORS
330
2A
102
}
102
{ACAD_XDICTIONARY
360
348
102
}
330
2A
100
AcDbVisualStyle
  2
Conceptual
 70
     9
 71
     3
 72
     2
 73
     0
 90
        0
 40
-0.6
 41
-30.0
 62
     5
 63
     7
 74
     2
 91
        2
 64
     7
 65
   257
 75
     1
175
     1
 42
40.0
 92
        8
 66
     7
 43
1.0
 76
     1
 77
     6
 78
     2
 67
     7
 79
     3
170
     0
171
     0
290
     0
174
     0
 93
        1
 44
0.0
173
     0
291
     0
 45
0.0
1001
ACAD
1000
AcDbSavedByObjectVersion
1070
     0
  0
VISUALSTYLE
  5
35
102
{ACAD_REACTORS
330
2A
102
}
102
{ACAD_XDICTIONARY
360
34A
102
}
330
2A
100
AcDbVisualStyle
  2
Dim
 70
    11
 71
     2
 72
     2
 73
     0
 90
        0
 40
-0.6
 41
-30.0
 62
     5
 63
     7
 74
     1
 91
        4
 64
     7
 65
   257
 75
     1
175
     1
 42
1.0
 92
        8
 66
     7
 43
1.0
 76
     1
 77
     6
 78
     2
 67
     7
 79
     5
170
     0
171
     0
290
     0
174
     0
 93
        1
 44
-50.0
173
     0
291
     1
 45
0.0
1001
ACAD
1000
AcDbSavedByObjectVersion
1070
     0
  0
VISUALSTYLE
  5
39
102
{ACAD_REACTORS
330
2A
102
}
102
{ACAD_XDICTIONARY
360
352
102
}
330
2A
100
AcDbVisualStyle
  2
Facepattern
 70
    15
 71
     2
 72
     2
 73
     0
 90
        0
 40
-0.6
 41
-30.0
 62
     5
 63
     7
 74
     1
 91
        4
 64
     7
 65
   257
 75
     1
175
     1
 42
1.0
 92
        8
 66
     7
 43
1.0
 76
     1
 77
     6
 78
     2
 67
     7
 79
     5
170
     0
171
     0
290
     0
174
     0
 93
        1
 44
0.0
173
     0
291
     1
 45
0.0
1001
ACAD
1000
AcDbSavedByObjectVersion
1070
     0
  0
VISUALSTYLE
  5
2B
102
{ACAD_REACTORS
330
2A
102
}
102
{ACAD_XDICTIONARY
360
336
102
}
330
2A
100
AcDbVisualStyle
  2
Flat
 70
     0
 71
     2
 72
     1
 73
     1
 90
        2
 40
-0.6
 41
30.0
 62
     5
 63
     7
 74
     0
 91
        4
 64
     7
 65
   257
 75
     1
175
     1
 42
1.0
 92
        8
 66
     7
 43
1.0
 76
     1
 77
     6
 78
     2
 67
     7
 79
     5
170
     0
171
     0
290
     0
174
     0
 93
       13
 44
0.0
173
     0
291
     1
 45
0.0
1001
ACAD
1000
AcDbSavedByObjectVersion
1070
     0
  0
VISUALSTYLE
  5
2C
102
{ACAD_REACTORS
330
2A
102
}
102
{ACAD_XDICTIONARY
360
338
102
}
330
2A
100
AcDbVisualStyle
  2
FlatWithEdges
 70
     1
 71
     2
 72
     1
 73
     1
 90
        2
 40
-0.6
 41
30.0
 62
     5
 63
     7
 74
     1
 91
        4
 64
     7
 65
   257
 75
     1
175
     1
 42
1.0
 92
        0
 66
   257
 43
1.0
 76
     1
 77
     6
 78
     2
 67
     7
 79
     5
170
     0
171
     0
290
     0
174
     0
 93
       13
 44
0.0
173
     0
291
     1
 45
0.0
1001
ACAD
1000
AcDbSavedByObjectVersion
1070
     0
  0
VISUALSTYLE
  5
2D
102
{ACAD_REACTORS
330
2A
102
}
102
{ACAD_XDICTIONARY
360
33A
102
}
330
2A
100
AcDbVisualStyle
  2
Gouraud
 70
     2
 71
     2
 72
     2
 73
     1
 90
        2
 40
-0.6
 41
30.0
 62
     5
 63
     7
 74
     0
 91
        4
 64
     7
 65
   257
 75
     1
175
     1
 42
1.0
 92
        0
 66
     7
 43
1.0
 76
     1
 77
     6
 78
     2
 67
     7
 79
     5
170
     0
171
     0
290
     0
174
     0
 93
       13
 44
0.0
173
     0
291
     1
 45
0.0
1001
ACAD
1000
AcDbSavedByObjectVersion
1070
     0
  0
VISUALSTYLE
  5
2E
102
{ACAD_REACTORS
330
2A
102
}
102
{ACAD_XDICTIONARY
360
33C
102
}
330
2A
100
AcDbVisualStyle
  2
GouraudWithEdges
 70
     3
 71
     2
 72
     2
 73
     1
 90
        2
 40
-0.6
 41
30.0
 62
     5
 63
     7
 74
     1
 91
        4
 64
     7
 65
   257
 75
     1
175
     1
 42
1.0
 92
        0
 66
   257
 43
1.0
 76
     1
 77
     6
 78
     2
 67
     7
 79
     5
170
     0
171
     0
290
     0
174
     0
 93
       13
 44
0.0
173
     0
291
     1
 45
0.0
1001
ACAD
1000
AcDbSavedByObjectVersion
1070
     0
  0
VISUALSTYLE
  5
38
102
{ACAD_REACTORS
330
2A
102
}
102
{ACAD_XDICTIONARY
360
350
102
}
330
2A
100
AcDbVisualStyle
  2
Linepattern
 70
    14
 71
     2
 72
     2
 73
     0
 90
        0
 40
-0.6
 41
-30.0
 62
     5
 63
     7
 74
     1
 91
        4
 64
     7
 65
   257
 75
     7
175
     7
 42
1.0
 92
        8
 66
     7
 43
1.0
 76
     1
 77
     6
 78
     2
 67
     7
 79
     5
170
     0
171
     0
290
     0
174
     0
 93
        1
 44
0.0
173
     0
291
     1
 45
0.0
1001
ACAD
1000
AcDbSavedByObjectVersion
1070
     0
  0
VISUALSTYLE
  5
33
102
{ACAD_REACTORS
330
2A
102
}
102
{ACAD_XDICTIONARY
360
346
102
}
330
2A
100
AcDbVisualStyle
  2
Realistic
 70
     8
 71
     2
 72
     2
 73
     0
 90
        0
 40
-0.6
 41
-30.0
 62
     5
 63
     7
 74
     1
 91
        0
 64
     7
 65
   257
 75
     1
175
     1
 42
1.0
 92
        8
 66
     8
 43
1.0
 76
     1
 77
     6
 78
     2
 67
     7
 79
     5
170
     0
171
     0
290
     0
174
     0
 93
       13
 44
0.0
173
     0
291
     0
 45
0.0
1001
ACAD
1000
AcDbSavedByObjectVersion
1070
     0
  0
VISUALSTYLE
  5
37
102
{ACAD_REACTORS
330
2A
102
}
102
{ACAD_XDICTIONARY
360
34E
102
}
330
2A
100
AcDbVisualStyle
  2
Thicken
 70
    13
 71
     2
 72
     2
 73
     0
 90
        0
 40
-0.6
 41
-30.0
 62
     5
 63
     7
 74
     1
 91
        4
 64
     7
 65
   257
 75
     1
175
     1
 42
1.0
 92
       12
 66
     7
 43
1.0
 76
     1
 77
     6
 78
     2
 67
     7
 79
     5
170
     0
171
     0
290
     0
174
     0
 93
        1
 44
0.0
173
     0
291
     1
 45
0.0
1001
ACAD
1000
AcDbSavedByObjectVersion
1070
     0
  0
DICTIONARYVAR
  5
334
102
{ACAD_REACTORS
330
330
102
}
330
330
100
DictionaryVariables
280
     0
  1
2
  0
DICTIONARYVAR
  5
335
102
{ACAD_REACTORS
330
330
102
}
330
330
100
DictionaryVariables
280
     0
  1
1
  0
DICTIONARYVAR
  5
333
102
{ACAD_REACTORS
330
330
102
}
330
330
100
DictionaryVariables
280
     0
  1
0
  0
DICTIONARY
  5
358
330
3D
100
AcDbDictionary
280
     1
281
     1
  3
ACAD_XREC_ROUNDTRIP
360
359
  0
DICTIONARY
  5
356
330
3C
100
AcDbDictionary
280
     1
281
     1
  3
ACAD_XREC_ROUNDTRIP
360
357
  0
DICTIONARY
  5
35A
330
3E
100
AcDbDictionary
280
     1
281
     1
  3
ACAD_XREC_ROUNDTRIP
360
35B
  0
DICTIONARY
  5
33E
330
2F
100
AcDbDictionary
280
     1
281
     1
  3
ACAD_XREC_ROUNDTRIP
360
33F
  0
DICTIONARY
  5
342
330
31
100
AcDbDictionary
280
     1
281
     1
  3
ACAD_XREC_ROUNDTRIP
360
343
  0
DICTIONARY
  5
340
330
30
100
AcDbDictionary
280
     1
281
     1
  3
ACAD_XREC_ROUNDTRIP
360
341
  0
DICTIONARY
  5
344
330
32
100
AcDbDictionary
280
     1
281
     1
  3
ACAD_XREC_ROUNDTRIP
360
345
  0
DICTIONARY
  5
34C
330
36
100
AcDbDictionary
280
     1
281
     1
  3
ACAD_XREC_ROUNDTRIP
360
34D
  0
DICTIONARY
  5
354
330
3A
100
AcDbDictionary
280
     1
281
     1
  3
ACAD_XREC_ROUNDTRIP
360
355
  0
DICTIONARY
  5
348
330
34
100
AcDbDictionary
280
     1
281
     1
  3
ACAD_XREC_ROUNDTRIP
360
349
  0
DICTIONARY
  5
34A
330
35
100
AcDbDictionary
280
     1
281
     1
  3
ACAD_XREC_ROUNDTRIP
360
34B
  0
DICTIONARY
  5
352
330
39
100
AcDbDictionary
280
     1
281
     1
  3
ACAD_XREC_ROUNDTRIP
360
353
  0
DICTIONARY
  5
336
330
2B
100
AcDbDictionary
280
     1
281
     1
  3
ACAD_XREC_ROUNDTRIP
360
337
  0
DICTIONARY
  5
338
330
2C
100
AcDbDictionary
280
     1
281
     1
  3
ACAD_XREC_ROUNDTRIP
360
339
  0
DICTIONARY
  5
33A
330
2D
100
AcDbDictionary
280
     1
281
     1
  3
ACAD_XREC_ROUNDTRIP
360
33B
  0
DICTIONARY
  5
33C
330
2E
100
AcDbDictionary
280
     1
281
     1
  3
ACAD_XREC_ROUNDTRIP
360
33D
  0
DICTIONARY
  5
350
330
38
100
AcDbDictionary
280
     1
281
     1
  3
ACAD_XREC_ROUNDTRIP
360
351
  0
DICTIONARY
  5
346
330
33
100
AcDbDictionary
280
     1
281
     1
  3
ACAD_XREC_ROUNDTRIP
360
347
  0
DICTIONARY
  5
34E
330
37
100
AcDbDictionary
280
     1
281
     1
  3
ACAD_XREC_ROUNDTRIP
360
34F
  0
XRECORD
  5
359
102
{ACAD_REACTORS
330
358
102
}
330
358
100
AcDbXrecord
280
     1
102
MATERIAL
148
0.0
149
0.0
149
0.0
 93
        0
 94
      127
282
     0
 72
     1
 77
     1
171
     1
175
     1
179
     1
273
     0
  0
XRECORD
  5
357
102
{ACAD_REACTORS
330
356
102
}
330
356
100
AcDbXrecord
280
     1
102
MATERIAL
148
0.0
149
0.0
149
0.0
 93
        0
 94
      127
282
     0
 72
     1
 77
     1
171
     1
175
     1
179
     1
273
     0
  0
XRECORD
  5
35B
102
{ACAD_REACTORS
330
35A
102
}
330
35A
100
AcDbXrecord
280
     1
102
MATERIAL
148
0.0
149
0.0
149
0.0
 93
        0
 94
      127
282
     0
 72
     1
 77
     1
171
     1
175
     1
179
     1
273
     0
  0
XRECORD
  5
33F
102
{ACAD_REACTORS
330
33E
102
}
330
33E
100
AcDbXrecord
280
     1
102
RTVSPropertyOp0
 70
     1
102
RTVSPropertyOp1
 70
     1
102
RTVSPropertyOp2
 70
     1
102
RTVSPropertyOp3
 70
     1
102
RTVSPropertyOp4
 70
     1
102
RTVSPropertyOp5
 70
     1
102
RTVSPropertyOp6
 70
     1
102
RTVSPropertyOp7
 70
     1
102
RTVSPropertyOp8
 70
     1
102
RTVSPropertyOp9
 70
     1
102
RTVSPropertyOp10
 70
     1
102
RTVSPropertyOp11
 70
     1
102
RTVSPropertyOp12
 70
     1
102
RTVSPropertyOp13
 70
     1
102
RTVSPropertyOp14
 70
     1
102
RTVSPropertyOp15
 70
     1
102
RTVSPropertyOp16
 70
     1
102
RTVSPropertyOp17
 70
     1
102
RTVSPropertyOp18
 70
     1
102
RTVSPropertyOp19
 70
     1
102
RTVSPropertyOp20
 70
     1
102
RTVSPropertyOp21
 70
     1
102
RTVSPropertyOp22
 70
     1
102
RTVSPropertyOp23
 70
     1
102
RTVSPropertyOp24
 70
     1
102
RTVSPropertyOp25
 70
     1
102
RTVSPropertyOp26
 70
     1
102
RTVSPropertyOp27
 70
     1
102
RTVSPropertyOp28
 70
     1
102
RTVSPropertyOp29
 70
     1
102
RTVSPropertyOp30
 70
     1
102
RTVSPropertyOp31
 70
     1
102
RTVSPropertyOp32
 70
     1
  0
XRECORD
  5
343
102
{ACAD_REACTORS
330
342
102
}
330
342
100
AcDbXrecord
280
     1
102
RTVSPropertyOp0
 70
     1
102
RTVSPropertyOp1
 70
     1
102
RTVSPropertyOp2
 70
     1
102
RTVSPropertyOp3
 70
     1
102
RTVSPropertyOp4
 70
     1
102
RTVSPropertyOp5
 70
     1
102
RTVSPropertyOp6
 70
     1
102
RTVSPropertyOp7
 70
     1
102
RTVSPropertyOp8
 70
     1
102
RTVSPropertyOp9
 70
     1
102
RTVSPropertyOp10
 70
     1
102
RTVSPropertyOp11
 70
     1
102
RTVSPropertyOp12
 70
     1
102
RTVSPropertyOp13
 70
     1
102
RTVSPropertyOp14
 70
     1
102
RTVSPropertyOp15
 70
     1
102
RTVSPropertyOp16
 70
     1
102
RTVSPropertyOp17
 70
     1
102
RTVSPropertyOp18
 70
     1
102
RTVSPropertyOp19
 70
     1
102
RTVSPropertyOp20
 70
     1
102
RTVSPropertyOp21
 70
     1
102
RTVSPropertyOp22
 70
     1
102
RTVSPropertyOp23
 70
     1
102
RTVSPropertyOp24
 70
     1
102
RTVSPropertyOp25
 70
     1
102
RTVSPropertyOp26
 70
     1
102
RTVSPropertyOp27
 70
     1
102
RTVSPropertyOp28
 70
     1
102
RTVSPropertyOp29
 70
     1
102
RTVSPropertyOp30
 70
     1
102
RTVSPropertyOp31
 70
     1
102
RTVSPropertyOp32
 70
     1
  0
XRECORD
  5
341
102
{ACAD_REACTORS
330
340
102
}
330
340
100
AcDbXrecord
280
     1
102
RTVSPropertyOp0
 70
     1
102
RTVSPropertyOp1
 70
     1
102
RTVSPropertyOp2
 70
     1
102
RTVSPropertyOp3
 70
     1
102
RTVSPropertyOp4
 70
     1
102
RTVSPropertyOp5
 70
     1
102
RTVSPropertyOp6
 70
     1
102
RTVSPropertyOp7
 70
     1
102
RTVSPropertyOp8
 70
     1
102
RTVSPropertyOp9
 70
     1
102
RTVSPropertyOp10
 70
     1
102
RTVSPropertyOp11
 70
     1
102
RTVSPropertyOp12
 70
     1
102
RTVSPropertyOp13
 70
     1
102
RTVSPropertyOp14
 70
     1
102
RTVSPropertyOp15
 70
     1
102
RTVSPropertyOp16
 70
     1
102
RTVSPropertyOp17
 70
     1
102
RTVSPropertyOp18
 70
     1
102
RTVSPropertyOp19
 70
     1
102
RTVSPropertyOp20
 70
     1
102
RTVSPropertyOp21
 70
     1
102
RTVSPropertyOp22
 70
     1
102
RTVSPropertyOp23
 70
     1
102
RTVSPropertyOp24
 70
     1
102
RTVSPropertyOp25
 70
     1
102
RTVSPropertyOp26
 70
     1
102
RTVSPropertyOp27
 70
     1
102
RTVSPropertyOp28
 70
     1
102
RTVSPropertyOp29
 70
     1
102
RTVSPropertyOp30
 70
     1
102
RTVSPropertyOp31
 70
     1
102
RTVSPropertyOp32
 70
     1
  0
XRECORD
  5
345
102
{ACAD_REACTORS
330
344
102
}
330
344
100
AcDbXrecord
280
     1
102
RTVSPropertyOp0
 70
     1
102
RTVSPropertyOp1
 70
     1
102
RTVSPropertyOp2
 70
     1
102
RTVSPropertyOp3
 70
     1
102
RTVSPropertyOp4
 70
     1
102
RTVSPropertyOp5
 70
     1
102
RTVSPropertyOp6
 70
     1
102
RTVSPropertyOp7
 70
     1
102
RTVSPropertyOp8
 70
     1
102
RTVSPropertyOp9
 70
     1
102
RTVSPropertyOp10
 70
     1
102
RTVSPropertyOp11
 70
     1
102
RTVSPropertyOp12
 70
     1
102
RTVSPropertyOp13
 70
     1
102
RTVSPropertyOp14
 70
     1
102
RTVSPropertyOp15
 70
     1
102
RTVSPropertyOp16
 70
     1
102
RTVSPropertyOp17
 70
     1
102
RTVSPropertyOp18
 70
     1
102
RTVSPropertyOp19
 70
     1
102
RTVSPropertyOp20
 70
     1
102
RTVSPropertyOp21
 70
     1
102
RTVSPropertyOp22
 70
     1
102
RTVSPropertyOp23
 70
     1
102
RTVSPropertyOp24
 70
     1
102
RTVSPropertyOp25
 70
     1
102
RTVSPropertyOp26
 70
     1
102
RTVSPropertyOp27
 70
     1
102
RTVSPropertyOp28
 70
     1
102
RTVSPropertyOp29
 70
     1
102
RTVSPropertyOp30
 70
     1
102
RTVSPropertyOp31
 70
     1
102
RTVSPropertyOp32
 70
     1
  0
XRECORD
  5
34D
102
{ACAD_REACTORS
330
34C
102
}
330
34C
100
AcDbXrecord
280
     1
102
RTVSPropertyOp0
 70
     1
102
RTVSPropertyOp1
 70
     1
102
RTVSPropertyOp2
 70
     1
102
RTVSPropertyOp3
 70
     1
102
RTVSPropertyOp4
 70
     1
102
RTVSPropertyOp5
 70
     1
102
RTVSPropertyOp6
 70
     1
102
RTVSPropertyOp7
 70
     1
102
RTVSPropertyOp8
 70
     1
102
RTVSPropertyOp9
 70
     1
102
RTVSPropertyOp10
 70
     1
102
RTVSPropertyOp11
 70
     1
102
RTVSPropertyOp12
 70
     1
102
RTVSPropertyOp13
 70
     1
102
RTVSPropertyOp14
 70
     1
102
RTVSPropertyOp15
 70
     1
102
RTVSPropertyOp16
 70
     1
102
RTVSPropertyOp17
 70
     1
102
RTVSPropertyOp18
 70
     1
102
RTVSPropertyOp19
 70
     1
102
RTVSPropertyOp20
 70
     1
102
RTVSPropertyOp21
 70
     1
102
RTVSPropertyOp22
 70
     1
102
RTVSPropertyOp23
 70
     1
102
RTVSPropertyOp24
 70
     1
102
RTVSPropertyOp25
 70
     1
102
RTVSPropertyOp26
 70
     1
102
RTVSPropertyOp27
 70
     1
102
RTVSPropertyOp28
 70
     1
102
RTVSPropertyOp29
 70
     1
102
RTVSPropertyOp30
 70
     1
102
RTVSPropertyOp31
 70
     1
102
RTVSPropertyOp32
 70
     1
  0
XRECORD
  5
355
102
{ACAD_REACTORS
330
354
102
}
330
354
100
AcDbXrecord
280
     1
102
RTVSPropertyOp0
 70
     1
102
RTVSPropertyOp1
 70
     1
102
RTVSPropertyOp2
 70
     1
102
RTVSPropertyOp3
 70
     1
102
RTVSPropertyOp4
 70
     1
102
RTVSPropertyOp5
 70
     1
102
RTVSPropertyOp6
 70
     1
102
RTVSPropertyOp7
 70
     1
102
RTVSPropertyOp8
 70
     1
102
RTVSPropertyOp9
 70
     1
102
RTVSPropertyOp10
 70
     1
102
RTVSPropertyOp11
 70
     1
102
RTVSPropertyOp12
 70
     1
102
RTVSPropertyOp13
 70
     1
102
RTVSPropertyOp14
 70
     1
102
RTVSPropertyOp15
 70
     1
102
RTVSPropertyOp16
 70
     1
102
RTVSPropertyOp17
 70
     1
102
RTVSPropertyOp18
 70
     1
102
RTVSPropertyOp19
 70
     1
102
RTVSPropertyOp20
 70
     1
102
RTVSPropertyOp21
 70
     1
102
RTVSPropertyOp22
 70
     1
102
RTVSPropertyOp23
 70
     1
102
RTVSPropertyOp24
 70
     1
102
RTVSPropertyOp25
 70
     1
102
RTVSPropertyOp26
 70
     1
102
RTVSPropertyOp27
 70
     1
102
RTVSPropertyOp28
 70
     1
102
RTVSPropertyOp29
 70
     1
102
RTVSPropertyOp30
 70
     1
102
RTVSPropertyOp31
 70
     1
102
RTVSPropertyOp32
 70
     1
  0
XRECORD
  5
349
102
{ACAD_REACTORS
330
348
102
}
330
348
100
AcDbXrecord
280
     1
102
RTVSPropertyOp0
 70
     1
102
RTVSPropertyOp1
 70
     1
102
RTVSPropertyOp2
 70
     1
102
RTVSPropertyOp3
 70
     1
102
RTVSPropertyOp4
 70
     1
102
RTVSPropertyOp5
 70
     1
102
RTVSPropertyOp6
 70
     1
102
RTVSPropertyOp7
 70
     1
102
RTVSPropertyOp8
 70
     1
102
RTVSPropertyOp9
 70
     1
102
RTVSPropertyOp10
 70
     1
102
RTVSPropertyOp11
 70
     1
102
RTVSPropertyOp12
 70
     1
102
RTVSPropertyOp13
 70
     1
102
RTVSPropertyOp14
 70
     1
102
RTVSPropertyOp15
 70
     1
102
RTVSPropertyOp16
 70
     1
102
RTVSPropertyOp17
 70
     1
102
RTVSPropertyOp18
 70
     1
102
RTVSPropertyOp19
 70
     1
102
RTVSPropertyOp20
 70
     1
102
RTVSPropertyOp21
 70
     1
102
RTVSPropertyOp22
 70
     1
102
RTVSPropertyOp23
 70
     1
102
RTVSPropertyOp24
 70
     1
102
RTVSPropertyOp25
 70
     1
102
RTVSPropertyOp26
 70
     1
102
RTVSPropertyOp27
 70
     1
102
RTVSPropertyOp28
 70
     1
102
RTVSPropertyOp29
 70
     1
102
RTVSPropertyOp30
 70
     1
102
RTVSPropertyOp31
 70
     1
102
RTVSPropertyOp32
 70
     1
  0
XRECORD
  5
34B
102
{ACAD_REACTORS
330
34A
102
}
330
34A
100
AcDbXrecord
280
     1
102
RTVSPropertyOp0
 70
     1
102
RTVSPropertyOp1
 70
     1
102
RTVSPropertyOp2
 70
     1
102
RTVSPropertyOp3
 70
     1
102
RTVSPropertyOp4
 70
     1
102
RTVSPropertyOp5
 70
     1
102
RTVSPropertyOp6
 70
     1
102
RTVSPropertyOp7
 70
     1
102
RTVSPropertyOp8
 70
     1
102
RTVSPropertyOp9
 70
     1
102
RTVSPropertyOp10
 70
     1
102
RTVSPropertyOp11
 70
     1
102
RTVSPropertyOp12
 70
     1
102
RTVSPropertyOp13
 70
     1
102
RTVSPropertyOp14
 70
     1
102
RTVSPropertyOp15
 70
     1
102
RTVSPropertyOp16
 70
     1
102
RTVSPropertyOp17
 70
     1
102
RTVSPropertyOp18
 70
     1
102
RTVSPropertyOp19
 70
     1
102
RTVSPropertyOp20
 70
     1
102
RTVSPropertyOp21
 70
     1
102
RTVSPropertyOp22
 70
     1
102
RTVSPropertyOp23
 70
     1
102
RTVSPropertyOp24
 70
     1
102
RTVSPropertyOp25
 70
     1
102
RTVSPropertyOp26
 70
     1
102
RTVSPropertyOp27
 70
     1
102
RTVSPropertyOp28
 70
     1
102
RTVSPropertyOp29
 70
     1
102
RTVSPropertyOp30
 70
     1
102
RTVSPropertyOp31
 70
     1
102
RTVSPropertyOp32
 70
     1
  0
XRECORD
  5
353
102
{ACAD_REACTORS
330
352
102
}
330
352
100
AcDbXrecord
280
     1
102
RTVSPropertyOp0
 70
     1
102
RTVSPropertyOp1
 70
     1
102
RTVSPropertyOp2
 70
     1
102
RTVSPropertyOp3
 70
     1
102
RTVSPropertyOp4
 70
     1
102
RTVSPropertyOp5
 70
     1
102
RTVSPropertyOp6
 70
     1
102
RTVSPropertyOp7
 70
     1
102
RTVSPropertyOp8
 70
     1
102
RTVSPropertyOp9
 70
     1
102
RTVSPropertyOp10
 70
     1
102
RTVSPropertyOp11
 70
     1
102
RTVSPropertyOp12
 70
     1
102
RTVSPropertyOp13
 70
     1
102
RTVSPropertyOp14
 70
     1
102
RTVSPropertyOp15
 70
     1
102
RTVSPropertyOp16
 70
     1
102
RTVSPropertyOp17
 70
     1
102
RTVSPropertyOp18
 70
     1
102
RTVSPropertyOp19
 70
     1
102
RTVSPropertyOp20
 70
     1
102
RTVSPropertyOp21
 70
     1
102
RTVSPropertyOp22
 70
     1
102
RTVSPropertyOp23
 70
     1
102
RTVSPropertyOp24
 70
     1
102
RTVSPropertyOp25
 70
     1
102
RTVSPropertyOp26
 70
     1
102
RTVSPropertyOp27
 70
     1
102
RTVSPropertyOp28
 70
     1
102
RTVSPropertyOp29
 70
     1
102
RTVSPropertyOp30
 70
     1
102
RTVSPropertyOp31
 70
     1
102
RTVSPropertyOp32
 70
     1
  0
XRECORD
  5
337
102
{ACAD_REACTORS
330
336
102
}
330
336
100
AcDbXrecord
280
     1
102
RTVSPropertyOp0
 70
     1
102
RTVSPropertyOp1
 70
     1
102
RTVSPropertyOp2
 70
     1
102
RTVSPropertyOp3
 70
     1
102
RTVSPropertyOp4
 70
     1
102
RTVSPropertyOp5
 70
     1
102
RTVSPropertyOp6
 70
     1
102
RTVSPropertyOp7
 70
     1
102
RTVSPropertyOp8
 70
     1
102
RTVSPropertyOp9
 70
     1
102
RTVSPropertyOp10
 70
     1
102
RTVSPropertyOp11
 70
     1
102
RTVSPropertyOp12
 70
     1
102
RTVSPropertyOp13
 70
     1
102
RTVSPropertyOp14
 70
     1
102
RTVSPropertyOp15
 70
     1
102
RTVSPropertyOp16
 70
     1
102
RTVSPropertyOp17
 70
     1
102
RTVSPropertyOp18
 70
     1
102
RTVSPropertyOp19
 70
     1
102
RTVSPropertyOp20
 70
     1
102
RTVSPropertyOp21
 70
     1
102
RTVSPropertyOp22
 70
     1
102
RTVSPropertyOp23
 70
     1
102
RTVSPropertyOp24
 70
     1
102
RTVSPropertyOp25
 70
     1
102
RTVSPropertyOp26
 70
     1
102
RTVSPropertyOp27
 70
     1
102
RTVSPropertyOp28
 70
     1
102
RTVSPropertyOp29
 70
     1
102
RTVSPropertyOp30
 70
     1
102
RTVSPropertyOp31
 70
     1
102
RTVSPropertyOp32
 70
     1
  0
XRECORD
  5
339
102
{ACAD_REACTORS
330
338
102
}
330
338
100
AcDbXrecord
280
     1
102
RTVSPropertyOp0
 70
     1
102
RTVSPropertyOp1
 70
     1
102
RTVSPropertyOp2
 70
     1
102
RTVSPropertyOp3
 70
     1
102
RTVSPropertyOp4
 70
     1
102
RTVSPropertyOp5
 70
     1
102
RTVSPropertyOp6
 70
     1
102
RTVSPropertyOp7
 70
     1
102
RTVSPropertyOp8
 70
     1
102
RTVSPropertyOp9
 70
     1
102
RTVSPropertyOp10
 70
     1
102
RTVSPropertyOp11
 70
     1
102
RTVSPropertyOp12
 70
     1
102
RTVSPropertyOp13
 70
     1
102
RTVSPropertyOp14
 70
     1
102
RTVSPropertyOp15
 70
     1
102
RTVSPropertyOp16
 70
     1
102
RTVSPropertyOp17
 70
     1
102
RTVSPropertyOp18
 70
     1
102
RTVSPropertyOp19
 70
     1
102
RTVSPropertyOp20
 70
     1
102
RTVSPropertyOp21
 70
     1
102
RTVSPropertyOp22
 70
     1
102
RTVSPropertyOp23
 70
     1
102
RTVSPropertyOp24
 70
     1
102
RTVSPropertyOp25
 70
     1
102
RTVSPropertyOp26
 70
     1
102
RTVSPropertyOp27
 70
     1
102
RTVSPropertyOp28
 70
     1
102
RTVSPropertyOp29
 70
     1
102
RTVSPropertyOp30
 70
     1
102
RTVSPropertyOp31
 70
     1
102
RTVSPropertyOp32
 70
     1
  0
XRECORD
  5
33B
102
{ACAD_REACTORS
330
33A
102
}
330
33A
100
AcDbXrecord
280
     1
102
RTVSPropertyOp0
 70
     1
102
RTVSPropertyOp1
 70
     1
102
RTVSPropertyOp2
 70
     1
102
RTVSPropertyOp3
 70
     1
102
RTVSPropertyOp4
 70
     1
102
RTVSPropertyOp5
 70
     1
102
RTVSPropertyOp6
 70
     1
102
RTVSPropertyOp7
 70
     1
102
RTVSPropertyOp8
 70
     1
102
RTVSPropertyOp9
 70
     1
102
RTVSPropertyOp10
 70
     1
102
RTVSPropertyOp11
 70
     1
102
RTVSPropertyOp12
 70
     1
102
RTVSPropertyOp13
 70
     1
102
RTVSPropertyOp14
 70
     1
102
RTVSPropertyOp15
 70
     1
102
RTVSPropertyOp16
 70
     1
102
RTVSPropertyOp17
 70
     1
102
RTVSPropertyOp18
 70
     1
102
RTVSPropertyOp19
 70
     1
102
RTVSPropertyOp20
 70
     1
102
RTVSPropertyOp21
 70
     1
102
RTVSPropertyOp22
 70
     1
102
RTVSPropertyOp23
 70
     1
102
RTVSPropertyOp24
 70
     1
102
RTVSPropertyOp25
 70
     1
102
RTVSPropertyOp26
 70
     1
102
RTVSPropertyOp27
 70
     1
102
RTVSPropertyOp28
 70
     1
102
RTVSPropertyOp29
 70
     1
102
RTVSPropertyOp30
 70
     1
102
RTVSPropertyOp31
 70
     1
102
RTVSPropertyOp32
 70
     1
  0
XRECORD
  5
33D
102
{ACAD_REACTORS
330
33C
102
}
330
33C
100
AcDbXrecord
280
     1
102
RTVSPropertyOp0
 70
     1
102
RTVSPropertyOp1
 70
     1
102
RTVSPropertyOp2
 70
     1
102
RTVSPropertyOp3
 70
     1
102
RTVSPropertyOp4
 70
     1
102
RTVSPropertyOp5
 70
     1
102
RTVSPropertyOp6
 70
     1
102
RTVSPropertyOp7
 70
     1
102
RTVSPropertyOp8
 70
     1
102
RTVSPropertyOp9
 70
     1
102
RTVSPropertyOp10
 70
     1
102
RTVSPropertyOp11
 70
     1
102
RTVSPropertyOp12
 70
     1
102
RTVSPropertyOp13
 70
     1
102
RTVSPropertyOp14
 70
     1
102
RTVSPropertyOp15
 70
     1
102
RTVSPropertyOp16
 70
     1
102
RTVSPropertyOp17
 70
     1
102
RTVSPropertyOp18
 70
     1
102
RTVSPropertyOp19
 70
     1
102
RTVSPropertyOp20
 70
     1
102
RTVSPropertyOp21
 70
     1
102
RTVSPropertyOp22
 70
     1
102
RTVSPropertyOp23
 70
     1
102
RTVSPropertyOp24
 70
     1
102
RTVSPropertyOp25
 70
     1
102
RTVSPropertyOp26
 70
     1
102
RTVSPropertyOp27
 70
     1
102
RTVSPropertyOp28
 70
     1
102
RTVSPropertyOp29
 70
     1
102
RTVSPropertyOp30
 70
     1
102
RTVSPropertyOp31
 70
     1
102
RTVSPropertyOp32
 70
     1
  0
XRECORD
  5
351
102
{ACAD_REACTORS
330
350
102
}
330
350
100
AcDbXrecord
280
     1
102
RTVSPropertyOp0
 70
     1
102
RTVSPropertyOp1
 70
     1
102
RTVSPropertyOp2
 70
     1
102
RTVSPropertyOp3
 70
     1
102
RTVSPropertyOp4
 70
     1
102
RTVSPropertyOp5
 70
     1
102
RTVSPropertyOp6
 70
     1
102
RTVSPropertyOp7
 70
     1
102
RTVSPropertyOp8
 70
     1
102
RTVSPropertyOp9
 70
     1
102
RTVSPropertyOp10
 70
     1
102
RTVSPropertyOp11
 70
     1
102
RTVSPropertyOp12
 70
     1
102
RTVSPropertyOp13
 70
     1
102
RTVSPropertyOp14
 70
     1
102
RTVSPropertyOp15
 70
     1
102
RTVSPropertyOp16
 70
     1
102
RTVSPropertyOp17
 70
     1
102
RTVSPropertyOp18
 70
     1
102
RTVSPropertyOp19
 70
     1
102
RTVSPropertyOp20
 70
     1
102
RTVSPropertyOp21
 70
     1
102
RTVSPropertyOp22
 70
     1
102
RTVSPropertyOp23
 70
     1
102
RTVSPropertyOp24
 70
     1
102
RTVSPropertyOp25
 70
     1
102
RTVSPropertyOp26
 70
     1
102
RTVSPropertyOp27
 70
     1
102
RTVSPropertyOp28
 70
     1
102
RTVSPropertyOp29
 70
     1
102
RTVSPropertyOp30
 70
     1
102
RTVSPropertyOp31
 70
     1
102
RTVSPropertyOp32
 70
     1
  0
XRECORD
  5
347
102
{ACAD_REACTORS
330
346
102
}
330
346
100
AcDbXrecord
280
     1
102
RTVSPropertyOp0
 70
     1
102
RTVSPropertyOp1
 70
     1
102
RTVSPropertyOp2
 70
     1
102
RTVSPropertyOp3
 70
     1
102
RTVSPropertyOp4
 70
     1
102
RTVSPropertyOp5
 70
     1
102
RTVSPropertyOp6
 70
     1
102
RTVSPropertyOp7
 70
     1
102
RTVSPropertyOp8
 70
     1
102
RTVSPropertyOp9
 70
     1
102
RTVSPropertyOp10
 70
     1
102
RTVSPropertyOp11
 70
     1
102
RTVSPropertyOp12
 70
     1
102
RTVSPropertyOp13
 70
     1
102
RTVSPropertyOp14
 70
     1
102
RTVSPropertyOp15
 70
     1
102
RTVSPropertyOp16
 70
     1
102
RTVSPropertyOp17
 70
     1
102
RTVSPropertyOp18
 70
     1
102
RTVSPropertyOp19
 70
     1
102
RTVSPropertyOp20
 70
     1
102
RTVSPropertyOp21
 70
     1
102
RTVSPropertyOp22
 70
     1
102
RTVSPropertyOp23
 70
     1
102
RTVSPropertyOp24
 70
     1
102
RTVSPropertyOp25
 70
     1
102
RTVSPropertyOp26
 70
     1
102
RTVSPropertyOp27
 70
     1
102
RTVSPropertyOp28
 70
     1
102
RTVSPropertyOp29
 70
     1
102
RTVSPropertyOp30
 70
     1
102
RTVSPropertyOp31
 70
     1
102
RTVSPropertyOp32
 70
     1
  0
XRECORD
  5
34F
102
{ACAD_REACTORS
330
34E
102
}
330
34E
100
AcDbXrecord
280
     1
102
RTVSPropertyOp0
 70
     1
102
RTVSPropertyOp1
 70
     1
102
RTVSPropertyOp2
 70
     1
102
RTVSPropertyOp3
 70
     1
102
RTVSPropertyOp4
 70
     1
102
RTVSPropertyOp5
 70
     1
102
RTVSPropertyOp6
 70
     1
102
RTVSPropertyOp7
 70
     1
102
RTVSPropertyOp8
 70
     1
102
RTVSPropertyOp9
 70
     1
102
RTVSPropertyOp10
 70
     1
102
RTVSPropertyOp11
 70
     1
102
RTVSPropertyOp12
 70
     1
102
RTVSPropertyOp13
 70
     1
102
RTVSPropertyOp14
 70
     1
102
RTVSPropertyOp15
 70
     1
102
RTVSPropertyOp16
 70
     1
102
RTVSPropertyOp17
 70
     1
102
RTVSPropertyOp18
 70
     1
102
RTVSPropertyOp19
 70
     1
102
RTVSPropertyOp20
 70
     1
102
RTVSPropertyOp21
 70
     1
102
RTVSPropertyOp22
 70
     1
102
RTVSPropertyOp23
 70
     1
102
RTVSPropertyOp24
 70
     1
102
RTVSPropertyOp25
 70
     1
102
RTVSPropertyOp26
 70
     1
102
RTVSPropertyOp27
 70
     1
102
RTVSPropertyOp28
 70
     1
102
RTVSPropertyOp29
 70
     1
102
RTVSPropertyOp30
 70
     1
102
RTVSPropertyOp31
 70
     1
102
RTVSPropertyOp32
 70
     1
  0
ENDSEC
  0
EOF
